osu file format v14

[General]
AudioFilename: audio.mp3
AudioLeadIn: 0
PreviewTime: 500
Countdown: 0
SampleSet: Soft
StackLeniency: 0.7
Mode: 0
LetterboxInBreaks: 0
WidescreenStoryboard: 0

[Editor]
DistanceSpacing: 1.2
BeatDivisor: 3
GridSize: 4
TimelineZoom: 1.6

[Metadata]
Title:Unpaid Intern
TitleUnicode:Unpaid Intern
Artist:Bo Burnham
ArtistUnicode:Bo Burnham
Creator:EnuHQ
Version:Hard
Source:Bo Burnham: Inside
Tags:boburnham swing comedy musical netflix english novelty pop Neg TheNeg -doodle dooe jazz special scatting
BeatmapID:3602590
BeatmapSetID:1760177

[Difficulty]
HPDrainRate:4
CircleSize:3.6
OverallDifficulty:6.4
ApproachRate:7.4
SliderMultiplier:1.32
SliderTickRate:1

[Events]
//Background and Video events
0,0,"enuSaidOldBGwasBad-Sadge.jpg",0,0
//Break Periods
//Storyboard Layer 0 (Background)
//Storyboard Layer 1 (Fail)
//Storyboard Layer 2 (Pass)
//Storyboard Layer 3 (Foreground)
//Storyboard Layer 4 (Overlay)
//Storyboard Sound Samples

[TimingPoints]
29,352.941176470588,4,2,1,60,1,0
500,352.941176470588,4,2,1,60,1,0
500,-98.0392156862745,4,2,1,60,0,0
8970,-161.290322580645,4,2,1,60,0,0
11794,-98.0392156862745,4,2,1,60,0,0
20264,-121.951219512195,4,2,1,60,0,0
23088,-98.0392156862745,4,2,1,60,0,0
31558,-89.2857142857143,4,2,1,75,0,0

[Colours]
Combo1 : 128,0,0
Combo2 : 255,128,128
Combo3 : 192,192,192
Combo4 : 255,197,132
Combo5 : 78,255,62

[HitObjects]
9,317,29,5,4,3:3:0:0:
9,317,146,1,2,1:0:0:0:
79,228,381,1,0,0:0:0:0:
79,228,500,6,0,P|66:186|55:141,1,89.7600005478516,6|0,0:3|0:0,0:0:0:0:
27,125,852,2,0,P|41:83|52:38,1,89.7600005478516,8|0,0:0|0:0,0:0:0:0:
56,8,1205,1,2,1:2:0:0:
189,61,1441,1,0,0:0:0:0:
189,61,1558,2,0,P|222:30|266:28,1,89.7600005478516,8|0,0:0|0:0,0:0:0:0:
294,39,1911,6,0,P|327:69|371:71,1,89.7600005478516,2|0,1:2|0:0,0:0:0:0:
406,59,2264,1,8,0:0:0:0:
494,140,2499,1,4,3:3:0:0:
494,140,2617,2,0,P|472:214|452:288,1,134.640000821777,8|8,3:3|0:0,0:0:0:0:
355,383,3205,1,8,0:3:0:0:
355,383,3323,6,0,P|345:339|332:296,1,89.7600005478516,4|0,3:3|0:0,0:0:0:0:
304,269,3676,2,0,P|314:225|327:182,1,89.7600005478516,8|0,0:0|0:0,0:0:0:0:
342,156,4029,1,2,1:2:0:0:
418,84,4264,1,0,0:0:0:0:
418,84,4381,2,0,P|385:53|341:51,1,89.7600005478516,8|0,0:0|0:0,0:0:0:0:
307,37,4735,6,0,P|274:68|230:70,1,89.7600005478516,2|0,1:2|0:0,0:0:0:0:
199,54,5088,1,8,0:0:0:0:
91,0,5323,1,4,3:3:0:0:
91,0,5441,2,0,B|59:63|59:63|86:121,1,134.640000821777,8|4,3:3|0:3,0:0:0:0:
29,227,6029,1,4,0:3:0:0:
29,227,6147,6,0,P|73:236|116:249,1,89.7600005478516,4|0,3:3|0:0,0:0:0:0:
144,257,6499,1,8,0:0:0:0:
226,332,6735,1,4,0:3:0:0:
226,332,6852,2,0,P|257:277|235:210,1,134.640000821777,4|8,3:3|0:0,0:0:0:0:
101,122,7558,5,4,3:3:0:0:
219,4,7911,1,8,0:0:0:0:
327,119,8264,1,4,3:3:0:0:
206,241,8617,2,0,P|250:251|293:264,1,89.7600005478516,8|8,0:0|0:3,0:0:0:0:
315,273,8970,5,0,1:0:0:0:
509,200,11323,5,2,1:0:0:0:
509,200,11441,1,2,1:0:0:0:
438,101,11676,1,0,0:0:0:0:
438,101,11794,6,0,P|405:70|361:68,1,89.7600005478516,6|0,0:3|0:0,0:0:0:0:
333,80,12147,2,0,P|300:110|256:112,1,89.7600005478516,8|0,0:0|0:0,0:0:0:0:
232,98,12500,1,2,1:2:0:0:
149,24,12735,1,0,0:0:0:0:
149,24,12852,2,0,P|139:68|126:111,1,89.7600005478516,8|0,0:0|0:0,0:0:0:0:
103,135,13205,6,0,P|113:179|126:222,1,89.7600005478516,2|0,1:2|0:0,0:0:0:0:
137,245,13558,1,8,0:0:0:0:
77,338,13794,1,4,3:3:0:0:
77,338,13911,2,0,P|136:367|196:341,1,134.640000821777,8|8,3:3|0:0,0:0:0:0:
266,262,14499,1,8,0:3:0:0:
266,262,14617,6,0,P|252:220|262:177,1,89.7600005478516,4|0,3:3|0:0,0:0:0:0:
291,158,14970,2,0,P|306:116|296:73,1,89.7600005478516,8|0,0:0|0:0,0:0:0:0:
281,43,15323,1,2,1:2:0:0:
194,108,15558,1,0,0:0:0:0:
194,108,15675,2,0,P|152:95|108:85,1,89.7600005478516,8|0,0:0|0:0,0:0:0:0:
76,90,16029,6,0,P|89:132|99:176,1,89.7600005478516,2|0,1:2|0:0,0:0:0:0:
106,203,16382,1,8,0:0:0:0:
58,319,16617,1,4,3:3:0:0:
58,319,16735,2,0,P|120:299|189:284,1,134.640000821777,8|4,3:3|0:3,0:0:0:0:
277,365,17323,1,4,0:3:0:0:
277,365,17441,6,0,P|286:321|299:278,1,89.7600005478516,4|0,3:3|0:0,0:0:0:0:
311,250,17793,1,8,0:0:0:0:
443,166,18147,1,4,3:3:0:0:
349,40,18499,1,8,0:0:0:0:
239,133,18852,6,0,P|197:120|153:110,1,89.7600005478516,4|0,3:3|0:0,0:0:0:0:
117,108,19205,2,0,P|130:150|140:194,1,89.7600005478516,8|8,0:0|0:3,0:0:0:0:
147,224,19558,1,4,3:3:0:0:
218,328,19794,1,4,0:3:0:0:
218,328,19912,2,0,P|255:301|299:299,1,89.7600005478516,8|8,0:3|0:3,0:0:0:0:
326,301,20264,5,0,1:0:0:0:
338,58,22970,5,0,0:0:0:0:
338,58,23088,2,0,P|380:45|424:35,1,89.7600005478516,10|0,0:3|0:0,0:0:0:0:
452,24,23441,1,8,0:0:0:0:
512,116,23676,1,0,0:0:0:0:
512,116,23794,2,0,P|493:180|478:245,1,134.640000821777,2|8,1:2|0:0,0:0:0:0:
512,342,24382,1,0,0:0:0:0:
512,342,24500,6,0,P|470:356|427:346,1,89.7600005478516,2|4,1:2|0:3,0:0:0:0:
408,317,24853,2,0,P|366:302|323:312,1,89.7600005478516,8|4,0:0|3:3,0:0:0:0:
293,327,25206,1,8,3:3:0:0:
179,375,25441,1,4,0:3:0:0:
179,375,25558,2,0,P|169:331|156:288,1,89.7600005478516,8|8,0:0|0:3,0:0:0:0:
128,261,25911,6,0,P|138:217|151:174,1,89.7600005478516,4|0,3:3|0:0,0:0:0:0:
166,148,26264,1,8,0:0:0:0:
111,73,26499,1,0,0:0:0:0:
111,73,26617,2,0,P|149:49|193:49,1,89.7600005478516,4|4,3:3|0:3,0:0:0:0:
218,73,26970,2,0,P|263:78|302:58,1,89.7600005478516,8|0,0:0|0:0,0:0:0:0:
331,33,27323,5,8,3:3:0:0:
417,113,27558,1,4,0:3:0:0:
417,113,27676,2,0,P|405:155|395:199,1,89.7600005478516,8|8,0:0|3:3,0:0:0:0:
478,366,28264,1,8,0:3:0:0:
478,366,28382,2,0,P|440:342|396:342,1,89.7600005478516,4|4,0:3|0:3,0:0:0:0:
365,325,28735,6,0,P|327:349|283:349,1,89.7600005478516,6|0,3:3|0:0,0:0:0:0:
251,335,29088,1,8,0:0:0:0:
296,246,29323,1,4,3:3:0:0:
296,246,29441,2,0,P|284:204|274:160,1,89.7600005478516,4|0,3:3|0:0,0:0:0:0:
269,129,29794,1,8,0:0:0:0:
190,61,30029,1,4,0:3:0:0:
190,61,30147,6,0,P|152:85|108:85,1,89.7600005478516,4|0,3:3|0:0,0:0:0:0:
83,59,30499,1,8,0:0:0:0:
10,140,30735,1,8,3:3:0:0:
10,140,30852,2,0,P|20:184|33:227,1,89.7600005478516,4|4,3:3|0:3,0:0:0:0:
40,254,31205,1,8,0:3:0:0:
17,370,31441,1,0,0:0:0:0:
17,370,31558,6,0,P|65:356|113:345,1,98.560001203125,4|0,3:3|1:0,0:0:0:0:
136,316,31911,2,0,P|184:329|232:340,1,98.560001203125,8|0,0:0|0:0,0:0:0:0:
261,348,32264,1,4,3:3:0:0:
385,217,32617,1,8,0:0:0:0:
465,290,32852,1,0,0:0:0:0:
