osu file format v14

[General]
AudioFilename: audio.mp3
AudioLeadIn: 0
PreviewTime: 6475
Countdown: 0
SampleSet: Normal
StackLeniency: 0.7
Mode: 1
LetterboxInBreaks: 0
WidescreenStoryboard: 0

[Editor]
DistanceSpacing: 0.5
BeatDivisor: 8
GridSize: 32
TimelineZoom: 2

[Metadata]
Title:Spider
TitleUnicode:Spider
Artist:Bo Burnham
ArtistUnicode:Bo Burnham
Creator:Cryceptio
Version:SHOW YOURSELF!!!!!
Source:THE INSIDE OUTTAKES
Tags:english rock novelty netflix comedy musical deluxe
BeatmapID:4054524
BeatmapSetID:1957187

[Difficulty]
HPDrainRate:9
CircleSize:5
OverallDifficulty:7
ApproachRate:5
SliderMultiplier:1.4
SliderTickRate:1

[Events]
//Background and Video events
0,0,"324835.jpg",0,0
//Break Periods
//Storyboard Layer 0 (Background)
//Storyboard Layer 1 (Fail)
//Storyboard Layer 2 (Pass)
//Storyboard Layer 3 (Foreground)
//Storyboard Layer 4 (Overlay)
//Storyboard Sound Samples

[TimingPoints]
475,375,4,1,0,100,1,0
475,-100,4,1,0,75,0,0
4975,-111.111111111111,4,1,0,75,0,0
5161,-110.272761708877,4,1,0,75,0,0
5349,-109.062410673705,4,1,0,75,0,0
5536,-107.688257854879,4,1,0,75,0,0
5630,-106.954524156583,4,1,0,75,0,0
5724,-106.199058300806,4,1,0,75,0,0
5911,-104.646409006855,4,1,0,75,0,0
6099,-103.037698514445,4,1,0,75,0,0
6192,-102.229713044113,4,1,0,75,0,0
6286,-101.407226787343,4,1,0,75,0,0
6380,-100.580415461915,4,1,0,75,0,0
6475,-99.7506234413965,4,1,0,75,0,0
10975,-111.111111111111,4,1,0,75,0,0
11161,-110.272761708877,4,1,0,75,0,0
11349,-109.062410673705,4,1,0,75,0,0
11536,-107.688257854879,4,1,0,75,0,0
11630,-106.954524156583,4,1,0,75,0,0
11724,-106.199058300806,4,1,0,75,0,0
11911,-104.646409006855,4,1,0,75,0,0
12005,-103.846836473288,4,1,0,75,0,0
12099,-103.037698514445,4,1,0,75,0,0
12192,-102.229713044113,4,1,0,75,0,0
12286,-101.407226787343,4,1,0,75,0,0
12380,-100.580415461915,4,1,0,75,0,0
12475,-99.7506234413965,4,1,0,75,0,0
17350,-110.497237569061,4,1,0,75,0,0
17536,-109.383145091427,4,1,0,75,0,0
17724,-107.784707613921,4,1,0,75,0,0
17817,-106.90876469789,4,1,0,75,0,0
17911,-105.984138857897,4,1,0,75,0,0
18005,-105.028837301963,4,1,0,75,0,0
18099,-104.049653303535,4,1,0,75,0,0
18286,-102.05114033214,4,1,0,75,0,0
18475,-100,4,1,0,90,0,1
18567,-99.8891107711544,4,1,0,90,0,1
18661,-99.7254991520095,4,1,0,90,0,1
18755,-99.5348033679078,4,1,0,90,0,1
18849,-99.3244767252945,4,1,0,90,0,1
18942,-99.1010382841542,4,1,0,90,0,1
19036,-98.8622908181981,4,1,0,90,0,1
19130,-98.6124453324643,4,1,0,90,0,1
19224,-98.3529364492373,4,1,0,90,0,1
19317,-98.0877960688853,4,1,0,90,0,1
19411,-97.8122479895669,4,1,0,90,0,1
19505,-97.5298839616119,4,1,0,90,0,1
19599,-97.2413744697447,4,1,0,90,0,1
19692,-96.9504572924674,4,1,0,90,0,1
19786,-96.6513832695932,4,1,0,90,0,1
19880,-96.3477064134356,4,1,0,90,0,1
19974,-96.0398337385221,4,1,0,90,0,1
20161,-95.41630627755,4,1,0,90,0,1
20349,-94.776681195427,4,1,0,90,0,1
20442,-94.4562130079224,4,1,0,90,0,1
20536,-94.1298905851446,4,1,0,90,0,1
20630,-93.8013668637033,4,1,0,90,0,1
20724,-93.4708471525154,4,1,0,90,0,1
20911,-92.8081336158739,4,1,0,90,0,1
21099,-92.1360445075536,4,1,0,90,0,1
21192,-91.8017937787028,4,1,0,90,0,1
21286,-91.4629378785274,4,1,0,90,0,1
21474,-90.7826925532445,4,1,0,90,0,1
21567,-90.4451760869708,4,1,0,90,0,1
21661,-90.1034979913575,4,1,0,90,0,1
21755,-89.7613889133324,4,1,0,90,0,1
21849,-89.4189479795921,4,1,0,90,0,1
21942,-89.0799155885354,4,1,0,90,0,1
22036,-88.7370890412422,4,1,0,90,0,1
22130,-88.3941973118668,4,1,0,90,0,1
22224,-88.0513206823131,4,1,0,90,0,1
22317,-87.7121813109216,4,1,0,90,0,1
22411,-87.3695576910708,4,1,0,90,0,1
22505,-87.0271659735116,4,1,0,90,0,1
22599,-86.6850716327173,4,1,0,90,0,1
22692,-86.3469702975097,4,1,0,90,0,1
22786,-86.0056496676584,4,1,0,90,0,1
22880,-85.6648036008033,4,1,0,90,0,1
22974,-85.3244856896196,4,1,0,90,0,1
23067,-84.988357938321,4,1,0,90,0,1
23161,-84.6492398740631,4,1,0,90,0,1
23255,-84.3107950985174,4,1,0,90,0,1
23349,-83.9730675169466,4,1,0,90,0,1
23442,-83.6396795258432,4,1,0,90,0,1
23536,-83.3035008606602,4,1,0,90,0,1
23630,-82.9681582229095,4,1,0,90,0,1
23724,-82.6336875225972,4,1,0,90,0,1
23817,-82.3036665635216,4,1,0,90,0,1
23911,-81.9710302647952,4,1,0,90,0,1
24005,-81.6393629252956,4,1,0,90,0,1
24099,-81.3086937942041,4,1,0,90,0,1
24192,-80.9825519776167,4,1,0,90,0,1
24286,-80.6539497742705,4,1,0,90,0,1
24380,-80.3264245617303,4,1,0,90,0,1
24475,-80,4,1,0,75,0,0
24850,-100.000000372529,4,1,0,75,0,0
29350,-110.803324099723,4,1,0,75,0,0
29536,-109.653907861771,4,1,0,75,0,0
29724,-108.005969427751,4,1,0,75,0,0
29817,-107.103489120167,4,1,0,75,0,0
29911,-106.151303104667,4,1,0,75,0,0
30099,-104.160657132287,4,1,0,75,0,0
30286,-102.106254610297,4,1,0,75,0,0
30475,-100,4,1,0,75,0,0
33475,-80.3212851405622,4,1,0,75,0,0
34178,-100.25062657016,4,1,0,75,0,0

[HitObjects]
64,32,475,5,12,0:0:0:0:
64,32,850,1,0,0:0:0:0:
64,32,1037,1,0,0:0:0:0:
64,32,1225,1,8,0:0:0:0:
64,32,1412,1,0,0:0:0:0:
64,32,1506,1,8,0:0:0:0:
64,32,1600,1,0,0:0:0:0:
64,32,1787,1,8,0:0:0:0:
64,32,1975,1,0,0:0:0:0:
64,32,2068,1,0,0:0:0:0:
64,32,2162,1,8,0:0:0:0:
64,32,2256,1,0,0:0:0:0:
64,32,2350,1,8,0:0:0:0:
64,32,2537,1,0,0:0:0:0:
64,32,2725,1,8,0:0:0:0:
64,32,3100,1,8,0:0:0:0:
64,32,3475,1,0,0:0:0:0:
64,32,3568,1,0,0:0:0:0:
64,32,3662,1,8,0:0:0:0:
64,32,3756,1,8,0:0:0:0:
64,32,3850,1,0,0:0:0:0:
64,32,4037,1,0,0:0:0:0:
64,32,4225,1,8,0:0:0:0:
64,32,4600,1,0,0:0:0:0:
64,32,4975,1,8,0:0:0:0:
64,32,5162,1,8,0:0:0:0:
64,32,5350,1,0,0:0:0:0:
64,32,5537,1,8,0:0:0:0:
64,32,5631,1,0,0:0:0:0:
64,32,5725,1,8,0:0:0:0:
64,32,5912,1,8,0:0:0:0:
64,32,6100,1,0,0:0:0:0:
64,32,6193,1,0,0:0:0:0:
64,32,6287,1,0,0:0:0:0:
64,32,6381,1,0,0:0:0:0:
64,32,6475,1,12,0:0:0:0:
64,32,6850,1,8,0:0:0:0:
64,32,7037,1,0,0:0:0:0:
64,32,7225,1,8,0:0:0:0:
64,32,7412,1,0,0:0:0:0:
64,32,7506,1,8,0:0:0:0:
64,32,7600,1,8,0:0:0:0:
64,32,7787,1,0,0:0:0:0:
64,32,7975,1,8,0:0:0:0:
64,32,8068,1,0,0:0:0:0:
64,32,8162,1,8,0:0:0:0:
64,32,8256,1,0,0:0:0:0:
64,32,8350,1,8,0:0:0:0:
64,32,8537,1,0,0:0:0:0:
64,32,8725,1,8,0:0:0:0:
64,32,9100,1,8,0:0:0:0:
64,32,9475,1,0,0:0:0:0:
64,32,9662,1,0,0:0:0:0:
64,32,9850,1,8,0:0:0:0:
64,32,10037,1,0,0:0:0:0:
64,32,10131,1,0,0:0:0:0:
64,32,10225,1,8,0:0:0:0:
64,32,10318,1,8,0:0:0:0:
64,32,10412,1,8,0:0:0:0:
64,32,10600,1,8,0:0:0:0:
64,32,10787,1,0,0:0:0:0:
64,32,11162,1,0,0:0:0:0:
64,32,11350,1,8,0:0:0:0:
64,32,11537,1,0,0:0:0:0:
64,32,11631,1,0,0:0:0:0:
64,32,11725,1,8,0:0:0:0:
64,32,11912,1,0,0:0:0:0:
64,32,12006,1,8,0:0:0:0:
64,32,12100,1,8,0:0:0:0:
64,32,12193,1,0,0:0:0:0:
64,32,12287,1,8,0:0:0:0:
64,32,12381,1,0,0:0:0:0:
64,32,12475,1,12,0:0:0:0:
64,32,12850,1,0,0:0:0:0:
64,32,13037,1,0,0:0:0:0:
64,32,13225,1,8,0:0:0:0:
64,32,13412,1,0,0:0:0:0:
64,32,13506,1,8,0:0:0:0:
64,32,13600,1,0,0:0:0:0:
64,32,13787,1,0,0:0:0:0:
64,32,13975,1,8,0:0:0:0:
64,32,14350,1,8,0:0:0:0:
64,32,14537,1,8,0:0:0:0:
64,32,14725,1,0,0:0:0:0:
64,32,14818,1,0,0:0:0:0:
64,32,14912,1,8,0:0:0:0:
64,32,15006,1,8,0:0:0:0:
64,32,15100,1,0,0:0:0:0:
64,32,15287,1,8,0:0:0:0:
64,32,15475,1,8,0:0:0:0:
64,32,15662,1,0,0:0:0:0:
64,32,15850,1,0,0:0:0:0:
64,32,15943,1,0,0:0:0:0:
64,32,16037,1,8,0:0:0:0:
64,32,16131,1,0,0:0:0:0:
64,32,16225,1,8,0:0:0:0:
64,32,16318,1,8,0:0:0:0:
64,32,16412,1,0,0:0:0:0:
64,32,16506,1,0,0:0:0:0:
64,32,16600,1,8,0:0:0:0:
64,32,16787,1,0,0:0:0:0:
64,32,16975,1,12,0:0:0:0:
64,32,17350,1,0,0:0:0:0:
64,32,17537,1,0,0:0:0:0:
64,32,17725,1,8,0:0:0:0:
64,32,17818,1,0,0:0:0:0:
64,32,17912,1,8,0:0:0:0:
64,32,18006,1,8,0:0:0:0:
64,32,18100,1,0,0:0:0:0:
64,32,18287,1,0,0:0:0:0:
64,32,18475,1,8,0:0:0:0:
64,32,18568,1,0,0:0:0:0:
64,32,18662,1,0,0:0:0:0:
64,32,18756,1,0,0:0:0:0:
64,32,18850,1,8,0:0:0:0:
64,32,18943,1,0,0:0:0:0:
64,32,19037,1,8,0:0:0:0:
64,32,19131,1,0,0:0:0:0:
64,32,19225,1,8,0:0:0:0:
64,32,19318,1,8,0:0:0:0:
64,32,19412,1,0,0:0:0:0:
64,32,19506,1,0,0:0:0:0:
64,32,19600,1,8,0:0:0:0:
64,32,19693,1,0,0:0:0:0:
64,32,19787,1,0,0:0:0:0:
64,32,19881,1,0,0:0:0:0:
64,32,19975,1,8,0:0:0:0:
64,32,20162,1,8,0:0:0:0:
64,32,20350,1,0,0:0:0:0:
64,32,20443,1,0,0:0:0:0:
64,32,20537,1,8,0:0:0:0:
64,32,20631,1,0,0:0:0:0:
64,32,20725,1,8,0:0:0:0:
64,32,20912,1,8,0:0:0:0:
64,32,21100,1,0,0:0:0:0:
64,32,21193,1,8,0:0:0:0:
64,32,21287,1,0,0:0:0:0:
64,32,21475,1,8,0:0:0:0:
64,32,21568,1,0,0:0:0:0:
64,32,21662,1,0,0:0:0:0:
64,32,21756,1,0,0:0:0:0:
64,32,21850,1,8,0:0:0:0:
64,32,21943,1,8,0:0:0:0:
64,32,22037,1,8,0:0:0:0:
64,32,22131,1,8,0:0:0:0:
64,32,22225,1,0,0:0:0:0:
64,32,22318,1,0,0:0:0:0:
64,32,22412,1,8,0:0:0:0:
64,32,22506,1,8,0:0:0:0:
64,32,22600,1,0,0:0:0:0:
64,32,22693,1,8,0:0:0:0:
64,32,22787,1,0,0:0:0:0:
64,32,22881,1,0,0:0:0:0:
64,32,22975,1,8,0:0:0:0:
64,32,23068,1,0,0:0:0:0:
64,32,23162,1,8,0:0:0:0:
64,32,23256,1,8,0:0:0:0:
64,32,23350,1,0,0:0:0:0:
64,32,23443,1,0,0:0:0:0:
64,32,23537,1,8,0:0:0:0:
64,32,23631,1,8,0:0:0:0:
64,32,23725,1,0,0:0:0:0:
64,32,23818,1,0,0:0:0:0:
64,32,23912,1,0,0:0:0:0:
64,32,24006,1,0,0:0:0:0:
64,32,24100,1,8,0:0:0:0:
64,32,24193,1,0,0:0:0:0:
64,32,24287,1,8,0:0:0:0:
64,32,24381,1,0,0:0:0:0:
64,32,24475,1,12,0:0:0:0:
64,32,24850,1,0,0:0:0:0:
64,32,25037,1,0,0:0:0:0:
64,32,25225,1,8,0:0:0:0:
64,32,25412,1,0,0:0:0:0:
64,32,25506,1,8,0:0:0:0:
64,32,25600,1,0,0:0:0:0:
64,32,25787,1,0,0:0:0:0:
64,32,25975,1,8,0:0:0:0:
64,32,26350,1,8,0:0:0:0:
64,32,26537,1,8,0:0:0:0:
64,32,26725,1,8,0:0:0:0:
64,32,26818,1,0,0:0:0:0:
64,32,26912,1,8,0:0:0:0:
64,32,27100,1,0,0:0:0:0:
64,32,27287,1,0,0:0:0:0:
64,32,27475,1,8,0:0:0:0:
64,32,27850,1,8,0:0:0:0:
64,32,28037,1,0,0:0:0:0:
64,32,28225,1,8,0:0:0:0:
64,32,28318,1,8,0:0:0:0:
64,32,28412,1,0,0:0:0:0:
64,32,28600,1,8,0:0:0:0:
64,32,28787,1,0,0:0:0:0:
64,32,28975,1,8,0:0:0:0:
64,32,29350,1,8,0:0:0:0:
64,32,29537,1,8,0:0:0:0:
64,32,29725,1,0,0:0:0:0:
32,32,29818,1,0,0:0:0:0:
96,32,29912,1,8,0:0:0:0:
64,32,30100,1,0,0:0:0:0:
64,32,30287,1,0,0:0:0:0:
64,32,30475,1,12,0:0:0:0:
64,32,30850,1,0,0:0:0:0:
64,32,31037,1,0,0:0:0:0:
64,32,31225,1,8,0:0:0:0:
64,32,31412,1,0,0:0:0:0:
64,32,31506,1,8,0:0:0:0:
64,32,31600,1,0,0:0:0:0:
64,32,31787,1,0,0:0:0:0:
64,32,31975,1,8,0:0:0:0:
64,32,32350,1,8,0:0:0:0:
64,32,32537,1,8,0:0:0:0:
64,32,32725,1,0,0:0:0:0:
64,32,32818,1,0,0:0:0:0:
64,32,32912,1,8,0:0:0:0:
64,32,33006,1,8,0:0:0:0:
64,32,33100,1,0,0:0:0:0:
64,32,33287,1,8,0:0:0:0:
256,192,33475,12,0,34178,0:0:0:0:
