osu file format v14

[General]
AudioFilename: audio.mp3
AudioLeadIn: 0
PreviewTime: 6475
Countdown: 0
SampleSet: Normal
StackLeniency: 0.7
Mode: 1
LetterboxInBreaks: 0
WidescreenStoryboard: 1

[Editor]
DistanceSpacing: 0.5
BeatDivisor: 8
GridSize: 32
TimelineZoom: 2

[Metadata]
Title:Spider
TitleUnicode:Spider
Artist:Bo Burnham
ArtistUnicode:Bo Burnham
Creator:Cryceptio
Version:ONI!!!!!
Source:THE INSIDE OUTTAKES
Tags:english rock novelty netflix comedy musical deluxe
BeatmapID:4054523
BeatmapSetID:1957187

[Difficulty]
HPDrainRate:8.5
CircleSize:5
OverallDifficulty:6
ApproachRate:5
SliderMultiplier:1.4
SliderTickRate:1

[Events]
//Background and Video events
0,0,"324835.jpg",0,0
//Break Periods
//Storyboard Layer 0 (Background)
//Storyboard Layer 1 (Fail)
//Storyboard Layer 2 (Pass)
//Storyboard Layer 3 (Foreground)
//Storyboard Layer 4 (Overlay)
//Storyboard Sound Samples

[TimingPoints]
475,375,4,1,0,100,1,0
475,-110.803324099723,4,1,0,75,0,0
17349,-110.803324099723,4,1,0,75,0,0
17536,-109.653907861771,4,1,0,75,0,0
17724,-108.005969427751,4,1,0,75,0,0
17817,-107.103489120167,4,1,0,75,0,0
17911,-106.151303104667,4,1,0,75,0,0
18005,-105.168014363438,4,1,0,75,0,0
18099,-104.160657132287,4,1,0,75,0,0
18286,-102.106254610297,4,1,0,75,0,0
18475,-100,4,1,0,90,0,1
18661,-99.8323750312611,4,1,0,90,0,1
18849,-99.5868423216812,4,1,0,90,0,1
18942,-99.4497040428424,4,1,0,90,0,1
19036,-99.3029043397813,4,1,0,90,0,1
19130,-99.1489864241519,4,1,0,90,0,1
19224,-98.9887957149255,4,1,0,90,0,1
19411,-98.6539867753969,4,1,0,90,0,1
19599,-98.2989373061385,4,1,0,90,0,1
19692,-98.1173886438493,4,1,0,90,0,1
19786,-97.9303145190823,4,1,0,90,0,1
19974,-97.5464036474696,4,1,0,90,0,1
20349,-96.7475194318493,4,1,0,90,0,1
20442,-96.543559021954,4,1,0,90,0,1
20536,-96.3353365528653,4,1,0,90,0,1
20630,-96.1251608316384,4,1,0,90,0,1
20724,-95.9131504685376,4,1,0,90,0,1
21099,-95.0512106177789,4,1,0,90,0,1
21192,-94.8339190776553,4,1,0,90,0,1
21286,-94.6130355916818,4,1,0,90,0,1
21474,-94.1677890603099,4,1,0,90,0,1
21661,-93.7207787026173,4,1,0,90,0,1
21849,-93.2677443117064,4,1,0,90,0,1
21942,-93.0424375488758,4,1,0,90,0,1
22036,-92.8139756612876,4,1,0,90,0,1
22130,-92.5848302729073,4,1,0,90,0,1
22224,-92.3550522005524,4,1,0,90,0,1
22411,-91.8962497883708,4,1,0,90,0,1
22505,-91.6648628769492,4,1,0,90,0,1
22599,-91.4330259788344,4,1,0,90,0,1
22786,-90.9706423180293,4,1,0,90,0,1
22974,-90.5044639578922,4,1,0,90,0,1
23067,-90.2734537630123,4,1,0,90,0,1
23161,-90.0397355657035,4,1,0,90,0,1
23255,-89.8058248494129,4,1,0,90,0,1
23349,-89.5717532389918,4,1,0,90,0,1
23536,-89.1057411920404,4,1,0,90,0,1
23630,-88.8713661021776,4,1,0,90,0,1
23724,-88.6369453967251,4,1,0,90,0,1
23911,-88.1705656579491,4,1,0,90,0,1
24099,-87.7018134491312,4,1,0,90,0,1
24192,-87.4700335631496,4,1,0,90,0,1
24286,-87.2358601704016,4,1,0,90,0,1
24380,-87.0018073829023,4,1,0,90,0,1
24475,-86.7678958785249,4,1,0,75,0,0
24850,-100.000000227243,4,1,0,75,0,0
33475,-83.5073068425921,4,1,0,75,0,0
34178,-99.5024877797996,4,1,0,75,0,0

[HitObjects]
448,320,475,5,12,0:0:0:0:
96,32,850,1,0,0:0:0:0:
96,32,1037,1,0,0:0:0:0:
448,64,1225,1,8,0:0:0:0:
96,32,1412,1,0,0:0:0:0:
448,64,1506,1,8,0:0:0:0:
96,32,1600,1,0,0:0:0:0:
448,64,1787,1,8,0:0:0:0:
96,32,1975,1,0,0:0:0:0:
448,64,2162,1,8,0:0:0:0:
96,32,2256,1,0,0:0:0:0:
448,64,2350,1,8,0:0:0:0:
96,32,2537,1,0,0:0:0:0:
448,64,2725,1,8,0:0:0:0:
448,64,3100,1,8,0:0:0:0:
96,32,3475,1,0,0:0:0:0:
448,64,3662,1,8,0:0:0:0:
96,32,3850,1,0,0:0:0:0:
96,32,3943,1,0,0:0:0:0:
96,32,4037,1,0,0:0:0:0:
448,64,4225,1,8,0:0:0:0:
96,32,4600,1,0,0:0:0:0:
448,64,4975,1,8,0:0:0:0:
448,64,5162,1,8,0:0:0:0:
96,32,5350,1,0,0:0:0:0:
448,64,5537,1,8,0:0:0:0:
448,64,5725,1,8,0:0:0:0:
448,64,5912,1,0,0:0:0:0:
96,32,6100,1,8,0:0:0:0:
96,32,6193,1,0,0:0:0:0:
96,32,6287,1,8,0:0:0:0:
448,320,6475,1,12,0:0:0:0:
96,32,6850,1,0,0:0:0:0:
96,32,7037,1,0,0:0:0:0:
448,64,7225,1,8,0:0:0:0:
96,32,7412,1,0,0:0:0:0:
448,64,7506,1,8,0:0:0:0:
96,32,7600,1,0,0:0:0:0:
448,64,7787,1,8,0:0:0:0:
96,32,7975,1,0,0:0:0:0:
448,64,8162,1,8,0:0:0:0:
448,64,8350,1,8,0:0:0:0:
96,32,8443,1,0,0:0:0:0:
96,32,8537,1,0,0:0:0:0:
448,64,8725,1,8,0:0:0:0:
448,64,9100,1,8,0:0:0:0:
64,64,9475,1,0,0:0:0:0:
96,32,9662,1,0,0:0:0:0:
448,64,9850,1,8,0:0:0:0:
96,32,10037,1,0,0:0:0:0:
96,32,10131,1,0,0:0:0:0:
448,64,10225,1,8,0:0:0:0:
448,64,10412,1,8,0:0:0:0:
448,64,10600,1,8,0:0:0:0:
96,32,10787,1,0,0:0:0:0:
96,32,11162,1,0,0:0:0:0:
448,64,11350,1,8,0:0:0:0:
96,32,11537,1,0,0:0:0:0:
448,64,11725,1,8,0:0:0:0:
96,32,11912,1,0,0:0:0:0:
448,64,12100,1,8,0:0:0:0:
96,32,12193,1,0,0:0:0:0:
448,64,12287,1,8,0:0:0:0:
448,320,12475,1,12,0:0:0:0:
96,32,12850,1,0,0:0:0:0:
96,32,13037,1,0,0:0:0:0:
448,64,13225,1,8,0:0:0:0:
96,32,13412,1,0,0:0:0:0:
448,64,13506,1,8,0:0:0:0:
96,32,13600,1,0,0:0:0:0:
96,32,13787,1,0,0:0:0:0:
448,64,13975,1,8,0:0:0:0:
448,64,14350,1,8,0:0:0:0:
448,64,14537,1,8,0:0:0:0:
96,32,14725,1,0,0:0:0:0:
448,64,14912,1,8,0:0:0:0:
96,32,15006,1,0,0:0:0:0:
96,32,15100,1,0,0:0:0:0:
448,64,15287,1,8,0:0:0:0:
448,64,15475,1,8,0:0:0:0:
96,32,15662,1,0,0:0:0:0:
96,32,15850,1,0,0:0:0:0:
96,32,15943,1,0,0:0:0:0:
448,64,16037,1,8,0:0:0:0:
96,32,16131,1,0,0:0:0:0:
448,64,16225,1,8,0:0:0:0:
96,32,16412,1,0,0:0:0:0:
96,32,16506,1,0,0:0:0:0:
448,64,16600,1,8,0:0:0:0:
96,32,16787,1,0,0:0:0:0:
448,320,16975,1,12,0:0:0:0:
96,32,17350,1,0,0:0:0:0:
96,32,17537,1,0,0:0:0:0:
448,64,17725,1,8,0:0:0:0:
96,32,17818,1,0,0:0:0:0:
448,64,17912,1,8,0:0:0:0:
448,64,18006,1,8,0:0:0:0:
96,32,18100,1,0,0:0:0:0:
96,32,18287,1,0,0:0:0:0:
448,64,18475,1,8,0:0:0:0:
96,32,18662,1,0,0:0:0:0:
448,64,18850,1,8,0:0:0:0:
96,32,18943,1,0,0:0:0:0:
448,64,19037,1,8,0:0:0:0:
96,32,19131,1,0,0:0:0:0:
448,64,19225,1,8,0:0:0:0:
96,32,19412,1,0,0:0:0:0:
448,64,19600,1,8,0:0:0:0:
96,32,19693,1,0,0:0:0:0:
96,32,19787,1,0,0:0:0:0:
448,64,19975,1,8,0:0:0:0:
96,32,20350,1,0,0:0:0:0:
96,32,20443,1,0,0:0:0:0:
448,64,20537,1,8,0:0:0:0:
96,32,20631,1,0,0:0:0:0:
448,64,20725,1,8,0:0:0:0:
96,32,21100,1,0,0:0:0:0:
448,64,21193,1,8,0:0:0:0:
96,32,21287,1,0,0:0:0:0:
448,64,21475,1,8,0:0:0:0:
96,32,21662,1,0,0:0:0:0:
448,64,21850,1,8,0:0:0:0:
448,64,21943,1,8,0:0:0:0:
448,64,22037,1,8,0:0:0:0:
448,64,22131,1,8,0:0:0:0:
64,64,22225,1,0,0:0:0:0:
448,64,22412,1,8,0:0:0:0:
448,64,22506,1,8,0:0:0:0:
96,32,22600,1,0,0:0:0:0:
96,32,22787,1,0,0:0:0:0:
448,64,22975,1,8,0:0:0:0:
96,32,23068,1,0,0:0:0:0:
448,64,23162,1,8,0:0:0:0:
448,64,23256,1,8,0:0:0:0:
96,32,23350,1,0,0:0:0:0:
448,64,23537,1,8,0:0:0:0:
448,64,23631,1,8,0:0:0:0:
96,32,23725,1,0,0:0:0:0:
96,32,23912,1,0,0:0:0:0:
448,64,24100,1,8,0:0:0:0:
96,32,24193,1,0,0:0:0:0:
448,64,24287,1,8,0:0:0:0:
448,320,24475,1,12,0:0:0:0:
96,32,24850,1,0,0:0:0:0:
96,32,25037,1,0,0:0:0:0:
448,64,25225,1,8,0:0:0:0:
96,32,25412,1,0,0:0:0:0:
448,64,25506,1,8,0:0:0:0:
96,32,25600,1,0,0:0:0:0:
96,32,25787,1,0,0:0:0:0:
448,64,25975,1,8,0:0:0:0:
448,64,26350,1,8,0:0:0:0:
448,64,26537,1,8,0:0:0:0:
96,32,26725,1,0,0:0:0:0:
448,64,26912,1,8,0:0:0:0:
96,32,27006,1,0,0:0:0:0:
448,64,27100,1,8,0:0:0:0:
96,32,27287,1,0,0:0:0:0:
448,64,27475,1,8,0:0:0:0:
448,64,27850,1,8,0:0:0:0:
96,32,28037,1,0,0:0:0:0:
448,64,28225,1,8,0:0:0:0:
448,64,28318,1,8,0:0:0:0:
448,64,28412,1,0,0:0:0:0:
96,32,28600,1,8,0:0:0:0:
96,32,28787,1,0,0:0:0:0:
448,64,28975,1,8,0:0:0:0:
448,64,29350,1,8,0:0:0:0:
448,64,29537,1,8,0:0:0:0:
96,32,29725,1,0,0:0:0:0:
96,32,29818,1,0,0:0:0:0:
448,64,29912,1,8,0:0:0:0:
96,32,30100,1,0,0:0:0:0:
96,32,30287,1,0,0:0:0:0:
448,320,30475,1,12,0:0:0:0:
96,32,30850,1,0,0:0:0:0:
96,32,31037,1,0,0:0:0:0:
448,64,31225,1,8,0:0:0:0:
96,32,31412,1,0,0:0:0:0:
448,64,31506,1,8,0:0:0:0:
96,32,31600,1,0,0:0:0:0:
96,32,31787,1,0,0:0:0:0:
448,64,31975,1,8,0:0:0:0:
448,64,32350,1,8,0:0:0:0:
448,64,32537,1,8,0:0:0:0:
96,32,32725,1,0,0:0:0:0:
448,64,32912,1,8,0:0:0:0:
96,32,33006,1,0,0:0:0:0:
96,32,33100,1,0,0:0:0:0:
448,64,33287,1,8,0:0:0:0:
256,192,33475,12,0,34178,0:0:0:0:
