osu file format v14

[General]
AudioFilename: audio.mp3
AudioLeadIn: 0
PreviewTime: 6475
Countdown: 0
SampleSet: Normal
StackLeniency: 0.7
Mode: 1
LetterboxInBreaks: 0
WidescreenStoryboard: 1

[Editor]
DistanceSpacing: 0.5
BeatDivisor: 8
GridSize: 32
TimelineZoom: 2

[Metadata]
Title:Spider
TitleUnicode:Spider
Artist:Bo Burnham
ArtistUnicode:Bo Burnham
Creator:Cryceptio
Version:MUZUKASHII!!!!!
Source:THE INSIDE OUTTAKES
Tags:english rock novelty netflix comedy musical deluxe
BeatmapID:4054522
BeatmapSetID:1957187

[Difficulty]
HPDrainRate:9
CircleSize:5
OverallDifficulty:5
ApproachRate:5
SliderMultiplier:1.4
SliderTickRate:1

[Events]
//Background and Video events
0,0,"324835.jpg",0,0
//Break Periods
//Storyboard Layer 0 (Background)
//Storyboard Layer 1 (Fail)
//Storyboard Layer 2 (Pass)
//Storyboard Layer 3 (Foreground)
//Storyboard Layer 4 (Overlay)
//Storyboard Sound Samples

[TimingPoints]
475,375,4,1,0,100,1,0
475,-110.803324099723,4,1,0,75,0,0
18475,-111.049416990561,4,1,0,90,0,1
18661,-110.853157631533,4,1,0,90,0,1
18849,-110.565746634771,4,1,0,90,0,1
19036,-110.233475663719,4,1,0,90,0,1
19130,-110.053400164271,4,1,0,90,0,1
19224,-109.866017861713,4,1,0,90,0,1
19411,-109.474482163049,4,1,0,90,0,1
19599,-109.059432319027,4,1,0,90,0,1
19692,-108.847265374131,4,1,0,90,0,1
19786,-108.628684904789,4,1,0,90,0,1
19974,-108.180256364758,4,1,0,90,0,1
20349,-107.247716262659,4,1,0,90,0,1
20724,-106.274618505471,4,1,0,90,0,1
21099,-105.270291250741,4,1,0,90,0,1
21474,-104.241908313623,4,1,0,90,0,1
21661,-103.721923145619,4,1,0,90,0,1
21849,-103.195187712664,4,1,0,90,0,1
21942,-102.933323690355,4,1,0,90,0,1
22036,-102.667857925997,4,1,0,90,0,1
22224,-102.134801486538,4,1,0,90,0,1
22411,-101.602150649149,4,1,0,90,0,1
22505,-101.333620356246,4,1,0,90,0,1
22599,-101.064635356374,4,1,0,90,0,1
22786,-100.528363913297,4,1,0,90,0,1
22974,-99.9879632136002,4,1,0,90,0,1
23161,-99.449514798049,4,1,0,90,0,1
23255,-99.1786012229244,4,1,0,90,0,1
23349,-98.9075699586572,4,1,0,90,0,1
23536,-98.3681794926545,4,1,0,90,0,1
23724,-97.8258413076171,4,1,0,90,0,1
23911,-97.2865710440467,4,1,0,90,0,1
24099,-96.7448315297688,4,1,0,90,0,1
24192,-96.4770636708079,4,1,0,90,0,1
24286,-96.2065988007784,4,1,0,90,0,1
24475,-95.6663158901751,4,1,0,75,0,0
24850,-95.0118766796096,4,1,0,75,0,0
33475,-95.0118764879235,4,1,0,75,0,0
34178,-95.2380954442109,4,1,0,75,0,0

[HitObjects]
448,320,475,5,12,0:0:0:0:
96,32,850,1,0,0:0:0:0:
96,32,1037,1,0,0:0:0:0:
448,64,1225,1,8,0:0:0:0:
96,32,1600,1,0,0:0:0:0:
96,32,1975,1,0,0:0:0:0:
448,64,2162,1,8,0:0:0:0:
448,64,2350,1,8,0:0:0:0:
96,32,2537,1,0,0:0:0:0:
448,64,2725,1,8,0:0:0:0:
448,64,3100,1,8,0:0:0:0:
96,32,3475,1,0,0:0:0:0:
448,64,3662,1,8,0:0:0:0:
96,32,3850,1,0,0:0:0:0:
96,32,4037,1,0,0:0:0:0:
448,64,4225,1,8,0:0:0:0:
96,32,4600,1,0,0:0:0:0:
448,64,5162,1,8,0:0:0:0:
96,32,5350,1,0,0:0:0:0:
448,64,5537,1,8,0:0:0:0:
448,64,5725,1,8,0:0:0:0:
448,64,5912,1,8,0:0:0:0:
96,32,6100,1,0,0:0:0:0:
96,32,6193,1,0,0:0:0:0:
96,32,6287,1,0,0:0:0:0:
448,320,6475,1,12,0:0:0:0:
96,32,6850,1,0,0:0:0:0:
96,32,7037,1,0,0:0:0:0:
448,64,7225,1,8,0:0:0:0:
96,32,7600,1,0,0:0:0:0:
96,32,7975,1,0,0:0:0:0:
448,64,8162,1,8,0:0:0:0:
448,64,8350,1,8,0:0:0:0:
96,32,8537,1,0,0:0:0:0:
448,64,8725,1,8,0:0:0:0:
448,64,9100,1,8,0:0:0:0:
96,32,9662,1,0,0:0:0:0:
96,32,10037,1,0,0:0:0:0:
448,64,10225,1,8,0:0:0:0:
448,64,10412,1,8,0:0:0:0:
448,64,10600,1,8,0:0:0:0:
96,32,10787,1,0,0:0:0:0:
448,64,11350,1,8,0:0:0:0:
96,32,11537,1,0,0:0:0:0:
448,64,11725,1,8,0:0:0:0:
96,32,11912,1,0,0:0:0:0:
96,32,12100,1,0,0:0:0:0:
96,32,12193,1,0,0:0:0:0:
96,32,12287,1,0,0:0:0:0:
448,320,12475,1,12,0:0:0:0:
96,32,13037,1,0,0:0:0:0:
96,32,13225,1,0,0:0:0:0:
96,32,13600,1,0,0:0:0:0:
448,64,13975,1,8,0:0:0:0:
448,64,14350,1,8,0:0:0:0:
448,64,14537,1,8,0:0:0:0:
96,32,14725,1,0,0:0:0:0:
96,32,15100,1,0,0:0:0:0:
448,64,15475,1,8,0:0:0:0:
96,32,15662,1,0,0:0:0:0:
96,32,15850,1,0,0:0:0:0:
96,32,15943,1,0,0:0:0:0:
96,32,16037,1,0,0:0:0:0:
448,64,16225,1,8,0:0:0:0:
448,64,16412,1,8,0:0:0:0:
448,64,16506,1,8,0:0:0:0:
448,64,16600,1,8,0:0:0:0:
96,32,16787,1,0,0:0:0:0:
448,320,16975,1,12,0:0:0:0:
96,32,17350,1,0,0:0:0:0:
96,32,17537,1,0,0:0:0:0:
448,64,17725,1,8,0:0:0:0:
448,64,17912,1,8,0:0:0:0:
448,64,18006,1,8,0:0:0:0:
448,64,18100,1,8,0:0:0:0:
96,32,18287,1,0,0:0:0:0:
448,64,18475,1,8,0:0:0:0:
96,32,18662,1,0,0:0:0:0:
448,64,18850,1,8,0:0:0:0:
448,64,19037,1,8,0:0:0:0:
448,64,19131,1,8,0:0:0:0:
448,64,19225,1,8,0:0:0:0:
96,32,19412,1,0,0:0:0:0:
96,32,19600,1,0,0:0:0:0:
96,32,19693,1,0,0:0:0:0:
96,32,19787,1,0,0:0:0:0:
448,64,19975,1,8,0:0:0:0:
96,32,20350,1,0,0:0:0:0:
448,64,20725,1,8,0:0:0:0:
96,32,21100,1,0,0:0:0:0:
448,64,21475,1,8,0:0:0:0:
96,32,21662,1,0,0:0:0:0:
448,64,21850,1,8,0:0:0:0:
448,64,21943,1,8,0:0:0:0:
448,64,22037,1,8,0:0:0:0:
96,32,22225,1,0,0:0:0:0:
448,64,22412,1,8,0:0:0:0:
448,64,22506,1,8,0:0:0:0:
448,64,22600,1,8,0:0:0:0:
96,32,22787,1,0,0:0:0:0:
448,64,22975,1,8,0:0:0:0:
96,32,23162,1,0,0:0:0:0:
96,32,23256,1,0,0:0:0:0:
96,32,23350,1,0,0:0:0:0:
448,64,23537,1,8,0:0:0:0:
96,32,23725,1,0,0:0:0:0:
96,32,23912,1,0,0:0:0:0:
64,64,24100,1,0,0:0:0:0:
96,32,24193,1,0,0:0:0:0:
96,32,24287,1,0,0:0:0:0:
448,320,24475,1,12,0:0:0:0:
96,32,25037,1,0,0:0:0:0:
448,64,25225,1,8,0:0:0:0:
96,32,25600,1,0,0:0:0:0:
448,64,25975,1,8,0:0:0:0:
448,64,26350,1,8,0:0:0:0:
448,64,26537,1,8,0:0:0:0:
96,32,26725,1,0,0:0:0:0:
448,64,27100,1,8,0:0:0:0:
448,64,27475,1,8,0:0:0:0:
448,64,27850,1,8,0:0:0:0:
448,64,28225,1,8,0:0:0:0:
448,64,28412,1,8,0:0:0:0:
96,32,28600,1,0,0:0:0:0:
96,32,28787,1,0,0:0:0:0:
448,64,28975,1,8,0:0:0:0:
448,64,29350,1,8,0:0:0:0:
448,64,29537,1,8,0:0:0:0:
448,64,29725,1,8,0:0:0:0:
448,64,29818,1,8,0:0:0:0:
448,64,29912,1,8,0:0:0:0:
96,32,30100,1,0,0:0:0:0:
64,64,30287,1,0,0:0:0:0:
448,320,30475,1,12,0:0:0:0:
96,32,31037,1,0,0:0:0:0:
448,64,31225,1,8,0:0:0:0:
96,32,31600,1,0,0:0:0:0:
448,64,31975,1,8,0:0:0:0:
448,64,32350,1,8,0:0:0:0:
448,64,32537,1,8,0:0:0:0:
96,32,32725,1,0,0:0:0:0:
64,64,33100,1,0,0:0:0:0:
448,64,33287,1,8,0:0:0:0:
256,192,33475,12,0,34178,0:0:0:0:
