osu file format v14

[General]
AudioFilename: audio.mp3
AudioLeadIn: 0
PreviewTime: 6475
Countdown: 0
SampleSet: Normal
StackLeniency: 0.7
Mode: 1
LetterboxInBreaks: 0
WidescreenStoryboard: 1

[Editor]
DistanceSpacing: 0.5
BeatDivisor: 8
GridSize: 32
TimelineZoom: 2

[Metadata]
Title:Spider
TitleUnicode:Spider
Artist:Bo Burnham
ArtistUnicode:Bo Burnham
Creator:Cryceptio
Version:KANTAN!!!!!
Source:THE INSIDE OUTTAKES
Tags:english rock novelty netflix comedy musical deluxe
BeatmapID:4054521
BeatmapSetID:1957187

[Difficulty]
HPDrainRate:10
CircleSize:5
OverallDifficulty:3
ApproachRate:5
SliderMultiplier:1.4
SliderTickRate:1

[Events]
//Background and Video events
0,0,"324835.jpg",0,0
//Break Periods
//Storyboard Layer 0 (Background)
//Storyboard Layer 1 (Fail)
//Storyboard Layer 2 (Pass)
//Storyboard Layer 3 (Foreground)
//Storyboard Layer 4 (Overlay)
//Storyboard Sound Samples

[TimingPoints]
475,375,4,1,0,100,1,0
475,-100,4,1,0,75,0,0
18475,-100,4,1,0,90,0,1
24475,-100,4,1,0,75,0,0

[HitObjects]
448,320,475,5,12,0:0:0:0:
448,64,1225,1,8,0:0:0:0:
96,32,1975,1,0,0:0:0:0:
448,64,2725,1,8,0:0:0:0:
448,64,3100,1,8,0:0:0:0:
96,32,3475,1,0,0:0:0:0:
448,64,4225,1,8,0:0:0:0:
96,32,4600,1,0,0:0:0:0:
96,32,4975,1,0,0:0:0:0:
96,32,6100,1,0,0:0:0:0:
448,320,6475,1,12,0:0:0:0:
448,64,7225,1,8,0:0:0:0:
96,32,7975,1,0,0:0:0:0:
448,64,8350,1,8,0:0:0:0:
448,64,8725,1,8,0:0:0:0:
96,32,9475,1,0,0:0:0:0:
448,64,10225,1,8,0:0:0:0:
96,32,10975,1,0,0:0:0:0:
448,64,11725,1,8,0:0:0:0:
64,64,12100,1,0,0:0:0:0:
448,320,12475,1,12,0:0:0:0:
448,64,13225,1,8,0:0:0:0:
448,64,13975,1,8,0:0:0:0:
96,32,14725,1,0,0:0:0:0:
96,32,15100,1,0,0:0:0:0:
448,64,15475,1,8,0:0:0:0:
448,64,16225,1,8,0:0:0:0:
448,320,16975,1,12,0:0:0:0:
448,64,18475,1,8,0:0:0:0:
448,64,18850,1,8,0:0:0:0:
448,64,19225,1,8,0:0:0:0:
64,64,19600,1,0,0:0:0:0:
448,64,19975,1,8,0:0:0:0:
448,64,20725,1,8,0:0:0:0:
448,64,21475,1,8,0:0:0:0:
96,32,22600,1,0,0:0:0:0:
448,64,22975,1,8,0:0:0:0:
96,32,23350,1,0,0:0:0:0:
96,32,23725,1,0,0:0:0:0:
448,64,24100,1,8,0:0:0:0:
448,320,24475,1,12,0:0:0:0:
448,64,25225,1,8,0:0:0:0:
448,64,26350,1,8,0:0:0:0:
96,32,26725,1,0,0:0:0:0:
448,64,27475,1,8,0:0:0:0:
448,64,27850,1,8,0:0:0:0:
448,64,28225,1,8,0:0:0:0:
96,32,28600,1,0,0:0:0:0:
448,64,28975,1,8,0:0:0:0:
448,320,30475,1,12,0:0:0:0:
448,64,31225,1,8,0:0:0:0:
448,64,32350,1,8,0:0:0:0:
96,32,32725,1,0,0:0:0:0:
256,192,33100,1,0,0:0:0:0:
256,192,33475,12,0,34178,0:0:0:0:
