osu file format v14

[General]
AudioFilename: audio.mp3
AudioLeadIn: 0
PreviewTime: 6475
Countdown: 0
SampleSet: Normal
StackLeniency: 0.7
Mode: 1
LetterboxInBreaks: 0
WidescreenStoryboard: 1

[Editor]
DistanceSpacing: 0.5
BeatDivisor: 8
GridSize: 32
TimelineZoom: 2

[Metadata]
Title:Spider
TitleUnicode:Spider
Artist:Bo Burnham
ArtistUnicode:Bo Burnham
Creator:Cryceptio
Version:FUTSUU!!!!!
Source:THE INSIDE OUTTAKES
Tags:english rock novelty netflix comedy musical deluxe
BeatmapID:4054520
BeatmapSetID:1957187

[Difficulty]
HPDrainRate:9.5
CircleSize:5
OverallDifficulty:4
ApproachRate:5
SliderMultiplier:1.4
SliderTickRate:1

[Events]
//Background and Video events
0,0,"324835.jpg",0,0
//Break Periods
//Storyboard Layer 0 (Background)
//Storyboard Layer 1 (Fail)
//Storyboard Layer 2 (Pass)
//Storyboard Layer 3 (Foreground)
//Storyboard Layer 4 (Overlay)
//Storyboard Sound Samples

[TimingPoints]
475,375,4,1,0,100,1,0
475,-100,4,1,0,75,0,0
17349,-100,4,1,0,75,0,0
17536,-100,4,1,0,75,0,0
17724,-100,4,1,0,75,0,0
18099,-100,4,1,0,75,0,0
18475,-100,4,1,0,90,0,1
19599,-100,4,1,0,90,0,1
21099,-100,4,1,0,90,0,1
22036,-100,4,1,0,90,0,1
22974,-100,4,1,0,90,0,1
23911,-100,4,1,0,90,0,1
24475,-100,4,1,0,75,0,0
25225,-100,4,1,0,75,0,0
33475,-100,4,1,0,75,0,0
34178,-100,4,1,0,75,0,0

[HitObjects]
448,320,475,5,12,0:0:0:0:
448,64,1225,1,8,0:0:0:0:
96,64,1600,1,0,0:0:0:0:
96,64,1975,1,0,0:0:0:0:
448,64,2162,1,8,0:0:0:0:
448,64,2350,1,8,0:0:0:0:
448,64,2725,1,8,0:0:0:0:
448,64,3100,1,8,0:0:0:0:
96,64,3475,1,0,0:0:0:0:
448,64,3662,1,8,0:0:0:0:
96,64,3850,1,0,0:0:0:0:
448,64,4225,1,8,0:0:0:0:
96,64,4600,1,0,0:0:0:0:
96,64,5162,1,0,0:0:0:0:
96,64,5350,1,0,0:0:0:0:
448,64,5537,1,8,0:0:0:0:
448,64,5725,1,8,0:0:0:0:
96,64,6100,1,0,0:0:0:0:
96,64,6287,1,0,0:0:0:0:
448,320,6475,1,12,0:0:0:0:
448,64,7225,1,8,0:0:0:0:
96,64,7600,1,0,0:0:0:0:
96,64,7975,1,0,0:0:0:0:
448,64,8162,1,8,0:0:0:0:
448,64,8350,1,8,0:0:0:0:
448,64,8725,1,8,0:0:0:0:
448,64,9100,1,8,0:0:0:0:
96,64,9662,1,0,0:0:0:0:
96,64,10037,1,0,0:0:0:0:
448,64,10225,1,8,0:0:0:0:
448,64,10600,1,8,0:0:0:0:
96,64,10787,1,0,0:0:0:0:
448,64,11350,1,8,0:0:0:0:
448,64,11725,1,8,0:0:0:0:
448,64,12100,1,8,0:0:0:0:
64,64,12287,1,0,0:0:0:0:
448,320,12475,1,12,0:0:0:0:
448,64,13225,1,8,0:0:0:0:
96,64,13600,1,0,0:0:0:0:
448,64,13975,1,8,0:0:0:0:
96,64,14725,1,0,0:0:0:0:
448,64,15475,1,8,0:0:0:0:
96,64,15850,1,0,0:0:0:0:
448,64,16037,1,8,0:0:0:0:
448,64,16225,1,8,0:0:0:0:
96,64,16412,1,0,0:0:0:0:
448,64,16600,1,8,0:0:0:0:
448,320,16975,1,12,0:0:0:0:
96,64,17350,1,0,0:0:0:0:
96,64,17537,1,0,0:0:0:0:
448,64,17725,1,8,0:0:0:0:
96,64,18100,1,0,0:0:0:0:
448,64,18475,1,8,0:0:0:0:
96,64,18662,1,0,0:0:0:0:
448,64,18850,1,8,0:0:0:0:
96,64,19037,1,0,0:0:0:0:
448,64,19225,1,8,0:0:0:0:
448,64,19600,1,8,0:0:0:0:
448,64,19975,1,8,0:0:0:0:
96,64,20350,1,0,0:0:0:0:
448,64,20537,1,8,0:0:0:0:
448,64,20725,1,8,0:0:0:0:
448,64,21475,1,8,0:0:0:0:
448,64,21850,1,8,0:0:0:0:
448,64,22037,1,8,0:0:0:0:
96,64,22225,1,0,0:0:0:0:
448,64,22412,1,8,0:0:0:0:
96,64,22600,1,0,0:0:0:0:
448,64,22975,1,8,0:0:0:0:
96,64,23350,1,0,0:0:0:0:
96,64,23725,1,0,0:0:0:0:
96,64,23912,1,0,0:0:0:0:
448,64,24100,1,8,0:0:0:0:
64,64,24287,1,0,0:0:0:0:
448,320,24475,1,12,0:0:0:0:
448,64,25225,1,8,0:0:0:0:
96,64,25600,1,0,0:0:0:0:
448,64,25975,1,8,0:0:0:0:
96,64,26725,1,8,0:0:0:0:
448,64,27100,1,8,0:0:0:0:
448,64,27475,1,0,0:0:0:0:
448,64,27850,1,0,0:0:0:0:
448,64,28225,1,8,0:0:0:0:
96,64,28600,1,0,0:0:0:0:
448,64,28975,1,8,0:0:0:0:
448,64,29350,1,8,0:0:0:0:
448,64,29537,1,8,0:0:0:0:
96,64,29725,1,0,0:0:0:0:
96,64,30100,1,0,0:0:0:0:
96,64,30287,1,0,0:0:0:0:
448,320,30475,1,12,0:0:0:0:
448,64,31225,1,8,0:0:0:0:
96,64,31600,1,0,0:0:0:0:
448,64,31975,1,8,0:0:0:0:
96,64,32725,1,0,0:0:0:0:
96,64,33100,1,0,0:0:0:0:
448,64,33287,1,8,0:0:0:0:
256,192,33475,12,0,34178,0:0:0:0:
