osu file format v14

[General]
AudioFilename: hashtagrelatable.mp3
AudioLeadIn: 0
PreviewTime: 42562
Countdown: 0
SampleSet: Normal
StackLeniency: 0.7
Mode: 1
LetterboxInBreaks: 0
WidescreenStoryboard: 1

[Editor]
Bookmarks: 8012,32012,44012,60012
DistanceSpacing: 1.4
BeatDivisor: 4
GridSize: 32
TimelineZoom: 1.1

[Metadata]
Title:Shit
TitleUnicode:Shit
Artist:Bo Burnham
ArtistUnicode:Bo Burnham
Creator:meiqth
Version:Muzukashii
Source:Bo Burnham: Inside
Tags:english pop novelty netflix comedy musical
BeatmapID:4032150
BeatmapSetID:1559280

[Difficulty]
HPDrainRate:8
CircleSize:2
OverallDifficulty:5
ApproachRate:10
SliderMultiplier:1.4
SliderTickRate:1

[Events]
//Background and Video events
0,0,"bo-burnham-inside.png",0,12
//Break Periods
//Storyboard Layer 0 (Background)
//Storyboard Layer 1 (Fail)
//Storyboard Layer 2 (Pass)
//Storyboard Layer 3 (Foreground)
//Storyboard Layer 4 (Overlay)
//Storyboard Sound Samples

[TimingPoints]
677,500,4,1,0,55,1,0
677,-90.9090909090909,4,1,0,55,0,0
8552,-81.8196694485354,4,1,0,66,0,0
44677,500,4,1,0,68,1,1
44677,-78.7401574803149,4,1,0,68,0,1
56677,-81.8196694485354,4,1,0,68,0,0

[HitObjects]
256,192,677,5,0,0:0:0:0:
256,192,1177,1,8,0:0:0:0:
256,192,1427,1,0,0:0:0:0:
256,192,2177,1,8,0:0:0:0:
256,192,3177,1,8,0:0:0:0:
256,192,3427,1,0,0:0:0:0:
256,192,3927,1,0,0:0:0:0:
256,192,4177,1,8,0:0:0:0:
256,192,4677,1,0,0:0:0:0:
256,192,5177,1,8,0:0:0:0:
256,192,5427,1,8,0:0:0:0:
256,192,5552,1,8,0:0:0:0:
256,192,5677,1,8,0:0:0:0:
256,192,5927,1,0,0:0:0:0:
256,192,6177,1,8,0:0:0:0:
256,192,7177,1,8,0:0:0:0:
256,192,7427,1,0,0:0:0:0:
256,192,7927,1,0,0:0:0:0:
256,192,8177,1,8,0:0:0:0:
256,192,8677,1,8,0:0:0:0:
256,192,8802,1,8,0:0:0:0:
256,192,9177,1,0,0:0:0:0:
256,192,9302,1,0,0:0:0:0:
256,192,9677,1,8,0:0:0:0:
256,192,9802,1,8,0:0:0:0:
256,192,10177,1,0,0:0:0:0:
256,192,10302,1,0,0:0:0:0:
256,192,10677,1,0,0:0:0:0:
256,192,10927,1,8,0:0:0:0:
256,192,11052,1,8,0:0:0:0:
256,192,11177,1,8,0:0:0:0:
256,192,11427,1,8,0:0:0:0:
256,192,11677,1,0,0:0:0:0:
256,192,11927,1,0,0:0:0:0:
256,192,12177,1,12,0:0:0:0:
256,192,12677,1,0,0:0:0:0:
256,192,12802,1,0,0:0:0:0:
256,192,13177,1,8,0:0:0:0:
256,192,13302,1,8,0:0:0:0:
256,192,13677,1,8,0:0:0:0:
256,192,13802,1,8,0:0:0:0:
256,192,14177,1,0,0:0:0:0:
256,192,14302,1,0,0:0:0:0:
256,192,14677,1,8,0:0:0:0:
256,192,14927,1,0,0:0:0:0:
256,192,15052,1,0,0:0:0:0:
256,192,15177,1,0,0:0:0:0:
256,192,15427,1,8,0:0:0:0:
256,192,15677,1,0,0:0:0:0:
256,192,15927,1,0,0:0:0:0:
256,192,16177,1,12,0:0:0:0:
256,192,16677,1,8,0:0:0:0:
256,192,16802,1,8,0:0:0:0:
256,192,16927,1,8,0:0:0:0:
256,192,17177,1,0,0:0:0:0:
256,192,17427,1,0,0:0:0:0:
256,192,17677,1,8,0:0:0:0:
256,192,17927,1,8,0:0:0:0:
256,192,18177,1,0,0:0:0:0:
256,192,18677,1,0,0:0:0:0:
256,192,18927,1,8,0:0:0:0:
256,192,19177,1,8,0:0:0:0:
256,192,19427,1,0,0:0:0:0:
256,192,19552,1,0,0:0:0:0:
256,192,19677,1,0,0:0:0:0:
256,192,19927,1,0,0:0:0:0:
256,192,20177,1,12,0:0:0:0:
256,192,20677,1,0,0:0:0:0:
256,192,20927,1,8,0:0:0:0:
256,192,21052,1,8,0:0:0:0:
256,192,21177,1,8,0:0:0:0:
256,192,21427,1,8,0:0:0:0:
256,192,21677,1,0,0:0:0:0:
256,192,21927,1,8,0:0:0:0:
256,192,22177,1,8,0:0:0:0:
256,192,22427,1,0,0:0:0:0:
256,192,22677,1,0,0:0:0:0:
256,192,23927,1,0,0:0:0:0:
256,192,24177,1,12,0:0:0:0:
256,192,24677,1,0,0:0:0:0:
256,192,24927,1,8,0:0:0:0:
256,192,25177,1,0,0:0:0:0:
256,192,25427,1,8,0:0:0:0:
256,192,25677,1,0,0:0:0:0:
256,192,26052,1,0,0:0:0:0:
256,192,26427,1,8,0:0:0:0:
256,192,26677,1,0,0:0:0:0:
256,192,26927,1,0,0:0:0:0:
256,192,27177,1,8,0:0:0:0:
256,192,27427,1,0,0:0:0:0:
256,192,27677,1,8,0:0:0:0:
256,192,27927,1,8,0:0:0:0:
256,192,28177,1,0,0:0:0:0:
256,192,28427,1,8,0:0:0:0:
256,192,28677,1,0,0:0:0:0:
256,192,29177,1,0,0:0:0:0:
256,192,29427,1,8,0:0:0:0:
256,192,29552,1,8,0:0:0:0:
256,192,29677,1,8,0:0:0:0:
256,192,29927,1,0,0:0:0:0:
256,192,30177,1,8,0:0:0:0:
256,192,30677,1,0,0:0:0:0:
256,192,30927,1,0,0:0:0:0:
256,192,31177,1,8,0:0:0:0:
256,192,31677,1,8,0:0:0:0:
256,192,31927,1,0,0:0:0:0:
256,192,32177,1,12,0:0:0:0:
256,192,32677,1,0,0:0:0:0:
256,192,32927,1,0,0:0:0:0:
256,192,33177,1,8,0:0:0:0:
256,192,33427,1,0,0:0:0:0:
256,192,33552,1,0,0:0:0:0:
256,192,33677,1,0,0:0:0:0:
256,192,34052,1,0,0:0:0:0:
256,192,34427,1,8,0:0:0:0:
256,192,34677,1,0,0:0:0:0:
256,192,34927,1,0,0:0:0:0:
256,192,35177,1,8,0:0:0:0:
256,192,35427,1,0,0:0:0:0:
256,192,35552,1,0,0:0:0:0:
256,192,35677,1,0,0:0:0:0:
256,192,35927,1,0,0:0:0:0:
256,192,36177,1,12,0:0:0:0:
256,192,36677,1,0,0:0:0:0:
256,192,36927,1,8,0:0:0:0:
256,192,37177,1,0,0:0:0:0:
256,192,37427,1,8,0:0:0:0:
256,192,37552,1,8,0:0:0:0:
256,192,37677,1,8,0:0:0:0:
256,192,37927,1,0,0:0:0:0:
256,192,38177,1,8,0:0:0:0:
256,192,38677,1,0,0:0:0:0:
256,192,38802,1,0,0:0:0:0:
256,192,39177,1,8,0:0:0:0:
256,192,39302,1,8,0:0:0:0:
256,192,39677,1,0,0:0:0:0:
256,192,39927,1,0,0:0:0:0:
256,192,40177,1,12,0:0:0:0:
256,192,40677,1,0,0:0:0:0:
256,192,41177,1,8,0:0:0:0:
256,192,41427,1,0,0:0:0:0:
256,192,42177,1,8,0:0:0:0:
256,192,43177,1,8,0:0:0:0:
256,192,44677,1,0,0:0:0:0:
256,192,45177,1,8,0:0:0:0:
256,192,45427,1,0,0:0:0:0:
256,192,45677,1,0,0:0:0:0:
256,192,46177,1,8,0:0:0:0:
256,192,46677,1,0,0:0:0:0:
256,192,46802,1,0,0:0:0:0:
256,192,46927,1,0,0:0:0:0:
256,192,47177,1,8,0:0:0:0:
256,192,47427,1,8,0:0:0:0:
256,192,47677,1,0,0:0:0:0:
256,192,47927,1,8,0:0:0:0:
256,192,48052,1,8,0:0:0:0:
256,192,48177,1,0,0:0:0:0:
256,192,48677,1,8,0:0:0:0:
256,192,49177,1,8,0:0:0:0:
256,192,49427,1,8,0:0:0:0:
256,192,49552,1,8,0:0:0:0:
256,192,49677,1,8,0:0:0:0:
256,192,49927,1,0,0:0:0:0:
256,192,50177,1,8,0:0:0:0:
256,192,50677,1,0,0:0:0:0:
256,192,50802,1,0,0:0:0:0:
256,192,50927,1,0,0:0:0:0:
256,192,51177,1,8,0:0:0:0:
256,192,51427,1,0,0:0:0:0:
256,192,51677,1,8,0:0:0:0:
256,192,51927,1,0,0:0:0:0:
256,192,52052,1,0,0:0:0:0:
256,192,52177,1,8,0:0:0:0:
256,192,52677,1,0,0:0:0:0:
256,192,53177,1,8,0:0:0:0:
256,192,53427,1,0,0:0:0:0:
256,192,53677,1,0,0:0:0:0:
256,192,54177,1,8,0:0:0:0:
256,192,54677,1,8,0:0:0:0:
256,192,54927,1,0,0:0:0:0:
256,192,55177,1,8,0:0:0:0:
256,192,55677,1,0,0:0:0:0:
256,192,55927,1,8,0:0:0:0:
256,192,56177,1,4,0:0:0:0:
256,192,56677,1,0,0:0:0:0:
256,192,56802,1,0,0:0:0:0:
256,192,56927,1,0,0:0:0:0:
256,192,57177,1,0,0:0:0:0:
256,192,57427,1,8,0:0:0:0:
256,192,57552,1,8,0:0:0:0:
256,192,57677,1,8,0:0:0:0:
256,192,57927,1,0,0:0:0:0:
256,192,58177,1,8,0:0:0:0:
256,192,58677,1,0,0:0:0:0:
256,192,59177,1,8,0:0:0:0:
256,192,59427,1,0,0:0:0:0:
256,192,60677,1,0,0:0:0:0:
256,192,60927,1,0,0:0:0:0:
256,192,61177,1,12,0:0:0:0:
256,192,61677,1,8,0:0:0:0:
256,192,61802,1,8,0:0:0:0:
256,192,62052,1,0,0:0:0:0:
256,192,62177,1,0,0:0:0:0:
256,192,62677,1,0,0:0:0:0:
256,192,62927,1,0,0:0:0:0:
256,192,63177,1,8,0:0:0:0:
256,192,63302,1,8,0:0:0:0:
256,192,63552,1,0,0:0:0:0:
256,192,63927,1,12,0:0:0:0:
256,192,64177,1,12,0:0:0:0:
256,192,64677,1,0,0:0:0:0:
256,192,64802,1,0,0:0:0:0:
256,192,65177,1,4,0:0:0:0:
256,192,65427,1,8,0:0:0:0:
256,192,65677,1,0,0:0:0:0:
256,192,65802,1,0,0:0:0:0:
256,192,65927,1,0,0:0:0:0:
256,192,66177,1,8,0:0:0:0:
256,192,66677,1,8,0:0:0:0:
256,192,66927,1,8,0:0:0:0:
256,192,67177,1,0,0:0:0:0:
256,192,67302,1,0,0:0:0:0:
256,192,67427,1,0,0:0:0:0:
256,192,67677,1,8,0:0:0:0:
256,192,67927,1,4,0:0:0:0:
256,192,68177,1,4,0:0:0:0:
256,192,68677,1,0,0:0:0:0:
256,192,68927,1,0,0:0:0:0:
256,192,69177,1,12,0:0:0:0:
256,192,69677,1,8,0:0:0:0:
256,192,69802,1,8,0:0:0:0:
256,192,70052,1,0,0:0:0:0:
256,192,70177,1,0,0:0:0:0:
256,192,70677,1,0,0:0:0:0:
256,192,70927,1,0,0:0:0:0:
256,192,71177,1,8,0:0:0:0:
256,192,71302,1,8,0:0:0:0:
256,192,71552,1,0,0:0:0:0:
256,192,71927,1,12,0:0:0:0:
256,192,72177,1,12,0:0:0:0:
256,192,72677,1,8,0:0:0:0:
256,192,72802,1,8,0:0:0:0:
256,192,73177,1,4,0:0:0:0:
256,192,73677,1,0,0:0:0:0:
256,192,73802,1,0,0:0:0:0:
256,192,73927,1,0,0:0:0:0:
256,192,74177,1,8,0:0:0:0:
256,192,74677,1,8,0:0:0:0:
256,192,74927,1,0,0:0:0:0:
256,192,75177,1,8,0:0:0:0:
256,192,75302,1,8,0:0:0:0:
256,192,75427,1,8,0:0:0:0:
256,192,75677,1,8,0:0:0:0:
256,192,75927,1,4,0:0:0:0:
256,192,76177,1,4,0:0:0:0:
