osu file format v14

[General]
AudioFilename: audio.mp3
AudioLeadIn: 0
PreviewTime: -1
Countdown: 0
SampleSet: None
StackLeniency: 0.7
Mode: 3
LetterboxInBreaks: 0
SpecialStyle: 0
WidescreenStoryboard: 1

[Editor]
DistanceSpacing: 0.8
BeatDivisor: 6
GridSize: 32
TimelineZoom: 1

[Metadata]
Title:Nerds
TitleUnicode:Nerds
Artist:Bo Burnham
ArtistUnicode:Bo Burnham
Creator:K4rotex
Version:HD
Source:
Tags:Rap HipHop Satire DarkHumor
BeatmapID:2043871
BeatmapSetID:976437

[Difficulty]
HPDrainRate:8
CircleSize:4
OverallDifficulty:7.5
ApproachRate:5
SliderMultiplier:1.4
SliderTickRate:1

[Events]
//Background and Video events
0,0,"Nerds Background.jpg",0,0
//Break Periods
//Storyboard Layer 0 (Background)
//Storyboard Layer 1 (Fail)
//Storyboard Layer 2 (Pass)
//Storyboard Layer 3 (Foreground)
//Storyboard Sound Samples

[TimingPoints]
7400,447.761194029851,4,1,0,50,1,0
7500,-133.333333333333,4,1,0,50,0,0
35944,-100,4,1,0,50,0,0
64041,-200,4,1,0,50,0,0
64713,-100,4,1,0,100,0,1
65273,-95.2380952380952,4,1,0,100,0,1
71877,-100,4,1,0,100,0,1
72437,-95.2380952380952,4,1,0,100,0,1
79041,-100,4,1,0,50,0,0
119788,-400,4,1,0,50,0,0
122026,-100,4,1,0,50,0,1
136243,-100,4,1,0,50,0,0
136355,-100,4,1,0,50,0,1
150795,-100,4,1,0,50,0,0
163220,-133.333333333333,4,1,0,50,0,0
165011,-100,4,1,0,50,0,0
179340,-100,4,3,0,100,0,0
193804,-111.111111111111,4,2,0,5,0,0
197474,-111.111111111111,4,1,0,50,0,0
200720,-111.111111111111,4,2,0,5,0,0
207885,-500,4,2,0,100,0,0

[HitObjects]
448,192,7399,128,0,9191:0:0:0:0:
64,192,9191,128,0,10982:0:0:0:0:
320,192,10982,128,0,12773:0:0:0:0:
192,192,12773,128,0,14564:0:0:0:0:
448,192,14564,128,0,16355:0:0:0:0:
64,192,16355,128,0,18146:0:0:0:0:
320,192,18146,128,0,19937:0:0:0:0:
192,192,19937,128,0,21728:0:0:0:0:
448,192,21728,128,0,22064:0:0:0:0:
192,192,22176,128,0,23519:0:0:0:0:
448,192,22176,128,0,23519:0:0:0:0:
64,192,23519,128,0,23855:0:0:0:0:
448,192,23967,128,0,25310:0:0:0:0:
64,192,23967,128,0,25310:0:0:0:0:
192,192,25310,128,0,25646:0:0:0:0:
64,192,25758,128,0,27101:0:0:0:0:
192,192,25758,128,0,27101:0:0:0:0:
320,192,27101,128,0,27437:0:0:0:0:
192,192,27549,128,0,28892:0:0:0:0:
320,192,27549,128,0,28892:0:0:0:0:
448,192,28892,128,0,30683:0:0:0:0:
320,192,29340,128,0,30683:0:0:0:0:
192,192,29340,1,0,0:0:0:0:
64,192,30683,128,0,32474:0:0:0:0:
448,192,31131,128,0,32474:0:0:0:0:
320,192,31131,1,0,0:0:0:0:
192,192,32474,128,0,34265:0:0:0:0:
64,192,32922,128,0,34265:0:0:0:0:
448,192,32922,1,0,0:0:0:0:
320,192,34265,128,0,35832:0:0:0:0:
448,192,34265,128,0,35832:0:0:0:0:
64,192,35944,1,0,0:0:0:0:
192,192,36056,1,0,0:0:0:0:
320,192,36168,1,0,0:0:0:0:
448,192,36280,1,0,0:0:0:0:
192,192,36616,1,0,0:0:0:0:
320,192,36728,1,0,0:0:0:0:
64,192,36840,1,0,0:0:0:0:
448,192,36952,1,0,0:0:0:0:
192,192,37064,128,0,37400:0:0:0:0:
320,192,37400,1,0,0:0:0:0:
448,192,37511,1,0,0:0:0:0:
64,192,37623,128,0,37847:0:0:0:0:
64,192,38071,128,0,38295:0:0:0:0:
320,192,38295,1,0,0:0:0:0:
448,192,38407,1,0,0:0:0:0:
192,192,38519,128,0,38743:0:0:0:0:
64,192,38743,128,0,39191:0:0:0:0:
320,192,38855,1,0,0:0:0:0:
448,192,38967,1,0,0:0:0:0:
192,192,39079,1,0,0:0:0:0:
448,192,39302,1,0,0:0:0:0:
320,192,39414,1,0,0:0:0:0:
192,192,39526,128,0,39862:0:0:0:0:
320,192,39862,128,0,40086:0:0:0:0:
448,192,40086,128,0,40310:0:0:0:0:
64,192,40198,1,0,0:0:0:0:
320,192,40422,1,0,0:0:0:0:
192,192,40534,1,0,0:0:0:0:
448,192,40646,1,0,0:0:0:0:
64,192,40758,1,0,0:0:0:0:
192,192,40982,128,0,41205:0:0:0:0:
320,192,41094,1,0,0:0:0:0:
448,192,41429,1,0,0:0:0:0:
320,192,41541,1,0,0:0:0:0:
192,192,41653,1,0,0:0:0:0:
64,192,41765,128,0,42101:0:0:0:0:
448,192,41877,1,0,0:0:0:0:
320,192,41989,1,0,0:0:0:0:
64,192,42325,1,0,0:0:0:0:
192,192,42437,1,0,0:0:0:0:
320,192,42549,1,0,0:0:0:0:
448,192,42661,128,0,42885:0:0:0:0:
192,192,42885,128,0,43220:0:0:0:0:
64,192,42997,1,0,0:0:0:0:
320,192,43220,1,0,0:0:0:0:
64,192,43556,128,0,43668:0:0:0:0:
320,192,43556,128,0,43668:0:0:0:0:
192,192,43668,128,0,43780:0:0:0:0:
448,192,43668,128,0,43780:0:0:0:0:
320,192,43892,1,0,0:0:0:0:
64,192,44004,1,0,0:0:0:0:
192,192,44116,1,0,0:0:0:0:
448,192,44228,128,0,44452:0:0:0:0:
320,192,44564,1,0,0:0:0:0:
64,192,44676,128,0,44900:0:0:0:0:
320,192,45011,1,0,0:0:0:0:
192,192,45123,1,0,0:0:0:0:
448,192,45235,1,0,0:0:0:0:
64,192,45347,1,0,0:0:0:0:
320,192,45459,128,0,45683:0:0:0:0:
64,192,45683,1,0,0:0:0:0:
192,192,45795,1,0,0:0:0:0:
448,192,45907,1,0,0:0:0:0:
320,192,46019,128,0,46243:0:0:0:0:
64,192,46131,1,0,0:0:0:0:
448,192,46355,1,0,0:0:0:0:
192,192,46355,1,0,0:0:0:0:
320,192,46579,1,0,0:0:0:0:
64,192,46579,1,0,0:0:0:0:
192,192,46802,1,0,0:0:0:0:
320,192,46914,1,0,0:0:0:0:
448,192,47026,128,0,47250:0:0:0:0:
64,192,47250,128,0,47474:0:0:0:0:
192,192,47474,128,0,47698:0:0:0:0:
320,192,47698,128,0,48146:0:0:0:0:
64,192,48146,1,0,0:0:0:0:
448,192,48146,1,0,0:0:0:0:
192,192,48258,1,0,0:0:0:0:
320,192,48370,1,0,0:0:0:0:
448,192,48482,1,0,0:0:0:0:
64,192,48594,128,0,48817:0:0:0:0:
192,192,48705,1,0,0:0:0:0:
448,192,48817,128,0,49041:0:0:0:0:
320,192,48929,1,0,0:0:0:0:
192,192,49041,128,0,49265:0:0:0:0:
64,192,49153,1,0,0:0:0:0:
320,192,49265,128,0,49489:0:0:0:0:
448,192,49377,1,0,0:0:0:0:
64,192,49489,128,0,49713:0:0:0:0:
192,192,49601,1,0,0:0:0:0:
448,192,49713,128,0,49937:0:0:0:0:
320,192,49825,1,0,0:0:0:0:
192,192,49937,128,0,50161:0:0:0:0:
64,192,50049,1,0,0:0:0:0:
320,192,50161,128,0,50385:0:0:0:0:
448,192,50273,1,0,0:0:0:0:
64,192,50497,1,0,0:0:0:0:
192,192,50497,1,0,0:0:0:0:
320,192,50832,1,0,0:0:0:0:
448,192,50832,1,0,0:0:0:0:
64,192,51280,1,0,0:0:0:0:
192,192,51392,1,0,0:0:0:0:
320,192,51504,1,0,0:0:0:0:
448,192,51616,1,0,0:0:0:0:
192,192,51728,1,0,0:0:0:0:
320,192,51840,128,0,52176:0:0:0:0:
64,192,52176,128,0,52400:0:0:0:0:
448,192,52400,128,0,52623:0:0:0:0:
192,192,52623,128,0,52847:0:0:0:0:
320,192,52847,128,0,53071:0:0:0:0:
64,192,53071,1,0,0:0:0:0:
448,192,53183,1,0,0:0:0:0:
192,192,53295,1,0,0:0:0:0:
320,192,53407,1,0,0:0:0:0:
64,192,53519,128,0,53743:0:0:0:0:
448,192,53967,1,0,0:0:0:0:
320,192,54079,1,0,0:0:0:0:
192,192,54191,1,0,0:0:0:0:
64,192,54302,1,0,0:0:0:0:
448,192,54414,1,0,0:0:0:0:
320,192,54526,1,0,0:0:0:0:
192,192,54638,128,0,54750:0:0:0:0:
64,192,54862,1,0,0:0:0:0:
320,192,54974,1,0,0:0:0:0:
192,192,55086,1,0,0:0:0:0:
448,192,55198,128,0,55422:0:0:0:0:
320,192,55534,1,0,0:0:0:0:
64,192,55758,1,0,0:0:0:0:
192,192,55870,1,0,0:0:0:0:
320,192,55982,1,0,0:0:0:0:
448,192,56094,1,0,0:0:0:0:
64,192,56205,1,0,0:0:0:0:
192,192,56317,1,0,0:0:0:0:
320,192,56429,128,0,56541:0:0:0:0:
448,192,56653,1,0,0:0:0:0:
192,192,56877,1,0,0:0:0:0:
320,192,56989,1,0,0:0:0:0:
64,192,57101,128,0,57325:0:0:0:0:
448,192,57325,128,0,57549:0:0:0:0:
64,192,57773,1,0,0:0:0:0:
320,192,57773,1,0,0:0:0:0:
192,192,57997,1,0,0:0:0:0:
448,192,57997,1,0,0:0:0:0:
320,192,58220,1,0,0:0:0:0:
192,192,58332,1,0,0:0:0:0:
64,192,58444,1,0,0:0:0:0:
448,192,58556,1,0,0:0:0:0:
320,192,58668,128,0,58892:0:0:0:0:
64,192,58892,128,0,59340:0:0:0:0:
192,192,59116,1,0,0:0:0:0:
192,192,59564,1,0,0:0:0:0:
448,192,59564,1,0,0:0:0:0:
320,192,59788,1,0,0:0:0:0:
64,192,59788,128,0,60123:0:0:0:0:
448,192,60347,1,0,0:0:0:0:
320,192,60459,1,0,0:0:0:0:
192,192,60571,1,0,0:0:0:0:
64,192,60683,128,0,60907:0:0:0:0:
320,192,60907,128,0,61019:0:0:0:0:
64,192,61243,1,0,0:0:0:0:
320,192,61355,1,0,0:0:0:0:
192,192,61467,1,0,0:0:0:0:
448,192,61579,1,0,0:0:0:0:
320,192,61691,1,0,0:0:0:0:
64,192,61802,1,0,0:0:0:0:
192,192,61914,1,0,0:0:0:0:
448,192,62026,128,0,62250:0:0:0:0:
64,192,62250,128,0,62474:0:0:0:0:
320,192,62474,128,0,62586:0:0:0:0:
192,192,62586,128,0,62698:0:0:0:0:
448,192,62922,128,0,63817:0:0:0:0:
64,192,63146,128,0,63817:0:0:0:0:
192,192,63258,1,0,0:0:0:0:
320,192,63370,1,0,0:0:0:0:
192,192,63482,1,0,0:0:0:0:
320,192,63594,1,0,0:0:0:0:
192,192,63705,1,0,0:0:0:0:
320,192,63817,1,0,0:0:0:0:
192,192,64713,128,0,65161:0:0:0:0:
64,192,65273,1,0,0:0:0:0:
320,192,65273,1,0,0:0:0:0:
448,192,65385,1,0,0:0:0:0:
192,192,65497,1,0,0:0:0:0:
64,192,65497,128,0,65720:0:0:0:0:
320,192,65720,1,0,0:0:0:0:
448,192,65832,1,0,0:0:0:0:
64,192,65944,1,0,0:0:0:0:
192,192,66056,1,0,0:0:0:0:
320,192,66168,128,0,66392:0:0:0:0:
448,192,66504,1,0,0:0:0:0:
64,192,66504,128,0,66728:0:0:0:0:
320,192,66728,1,0,0:0:0:0:
192,192,66840,1,0,0:0:0:0:
448,192,66952,1,0,0:0:0:0:
64,192,67064,128,0,67288:0:0:0:0:
320,192,67400,1,0,0:0:0:0:
192,192,67511,1,0,0:0:0:0:
448,192,67623,1,0,0:0:0:0:
64,192,67735,1,0,0:0:0:0:
320,192,67847,1,0,0:0:0:0:
192,192,67959,1,0,0:0:0:0:
64,192,68071,128,0,68295:0:0:0:0:
320,192,68407,1,0,0:0:0:0:
192,192,68519,1,0,0:0:0:0:
64,192,68631,1,0,0:0:0:0:
448,192,68743,1,0,0:0:0:0:
192,192,68855,1,0,0:0:0:0:
320,192,68967,1,0,0:0:0:0:
448,192,69079,1,0,0:0:0:0:
64,192,69191,128,0,69414:0:0:0:0:
320,192,69526,1,0,0:0:0:0:
192,192,69638,1,0,0:0:0:0:
448,192,69750,1,0,0:0:0:0:
64,192,69862,1,0,0:0:0:0:
320,192,69974,1,0,0:0:0:0:
192,192,70086,1,0,0:0:0:0:
64,192,70198,1,0,0:0:0:0:
448,192,70310,1,0,0:0:0:0:
192,192,70422,1,0,0:0:0:0:
64,192,70534,128,0,70758:0:0:0:0:
448,192,70646,1,0,0:0:0:0:
320,192,70870,1,0,0:0:0:0:
192,192,70982,1,0,0:0:0:0:
448,192,71094,1,0,0:0:0:0:
64,192,71205,128,0,71429:0:0:0:0:
192,192,71541,1,0,0:0:0:0:
448,192,71541,1,0,0:0:0:0:
64,192,71653,128,0,71877:0:0:0:0:
320,192,71653,128,0,71877:0:0:0:0:
192,192,71877,128,0,72325:0:0:0:0:
320,192,72325,1,0,0:0:0:0:
64,192,72549,1,0,0:0:0:0:
192,192,72661,1,0,0:0:0:0:
448,192,72661,128,0,72885:0:0:0:0:
320,192,72885,1,0,0:0:0:0:
192,192,73108,1,0,0:0:0:0:
448,192,73108,128,0,73332:0:0:0:0:
192,192,73444,1,0,0:0:0:0:
320,192,73556,1,0,0:0:0:0:
448,192,73892,128,0,74116:0:0:0:0:
192,192,74228,1,0,0:0:0:0:
320,192,74340,1,0,0:0:0:0:
64,192,74452,1,0,0:0:0:0:
448,192,74564,1,0,0:0:0:0:
320,192,74676,1,0,0:0:0:0:
64,192,74788,1,0,0:0:0:0:
192,192,75011,1,0,0:0:0:0:
320,192,75123,1,0,0:0:0:0:
448,192,75123,128,0,75459:0:0:0:0:
192,192,75571,1,0,0:0:0:0:
320,192,75683,1,0,0:0:0:0:
64,192,75795,1,0,0:0:0:0:
448,192,75907,1,0,0:0:0:0:
320,192,76019,1,0,0:0:0:0:
64,192,76131,128,0,76355:0:0:0:0:
192,192,76355,128,0,76579:0:0:0:0:
448,192,76355,1,0,0:0:0:0:
320,192,76579,128,0,76802:0:0:0:0:
64,192,76579,1,0,0:0:0:0:
448,192,76802,128,0,77026:0:0:0:0:
192,192,76802,1,0,0:0:0:0:
320,192,77026,1,0,0:0:0:0:
64,192,77474,1,0,0:0:0:0:
320,192,77474,1,0,0:0:0:0:
192,192,77698,1,0,0:0:0:0:
64,192,77698,1,0,0:0:0:0:
320,192,77922,1,0,0:0:0:0:
448,192,77922,1,0,0:0:0:0:
192,192,78146,1,0,0:0:0:0:
448,192,78146,1,0,0:0:0:0:
64,192,78594,1,0,0:0:0:0:
192,192,78594,1,0,0:0:0:0:
320,192,78594,1,0,0:0:0:0:
448,192,78594,1,0,0:0:0:0:
448,192,79041,128,0,79489:0:0:0:0:
192,192,79489,1,0,0:0:0:0:
64,192,79489,128,0,80385:0:0:0:0:
320,192,80385,1,0,0:0:0:0:
192,192,80497,1,0,0:0:0:0:
64,192,80608,1,0,0:0:0:0:
320,192,80720,1,0,0:0:0:0:
448,192,80832,128,0,81280:0:0:0:0:
64,192,81280,128,0,82176:0:0:0:0:
320,192,82176,1,0,0:0:0:0:
64,192,82288,1,0,0:0:0:0:
192,192,82400,1,0,0:0:0:0:
320,192,82511,1,0,0:0:0:0:
448,192,82623,128,0,83071:0:0:0:0:
64,192,83071,128,0,83967:0:0:0:0:
320,192,83967,1,0,0:0:0:0:
192,192,84079,1,0,0:0:0:0:
64,192,84191,1,0,0:0:0:0:
320,192,84302,1,0,0:0:0:0:
448,192,84414,128,0,84862:0:0:0:0:
64,192,84862,128,0,85758:0:0:0:0:
320,192,85758,1,0,0:0:0:0:
448,192,85758,1,0,0:0:0:0:
448,192,86205,128,0,86653:0:0:0:0:
64,192,86205,1,0,0:0:0:0:
192,192,86205,1,0,0:0:0:0:
64,192,86653,128,0,87549:0:0:0:0:
320,192,86877,1,0,0:0:0:0:
320,192,87549,1,0,0:0:0:0:
448,192,87549,1,0,0:0:0:0:
320,192,87773,1,0,0:0:0:0:
192,192,87885,1,0,0:0:0:0:
64,192,87997,1,0,0:0:0:0:
448,192,87997,128,0,88444:0:0:0:0:
64,192,88444,128,0,89340:0:0:0:0:
320,192,88892,1,0,0:0:0:0:
320,192,89340,1,0,0:0:0:0:
448,192,89340,1,0,0:0:0:0:
64,192,89452,1,0,0:0:0:0:
192,192,89564,1,0,0:0:0:0:
320,192,89676,1,0,0:0:0:0:
64,192,89788,1,0,0:0:0:0:
448,192,89788,128,0,90235:0:0:0:0:
64,192,90235,128,0,91131:0:0:0:0:
320,192,91131,1,0,0:0:0:0:
448,192,91131,1,0,0:0:0:0:
192,192,91243,1,0,0:0:0:0:
64,192,91355,1,0,0:0:0:0:
320,192,91467,1,0,0:0:0:0:
448,192,91579,128,0,92922:0:0:0:0:
64,192,93370,1,0,0:0:0:0:
320,192,93370,1,0,0:0:0:0:
320,192,93594,128,0,93817:0:0:0:0:
448,192,93705,1,0,0:0:0:0:
64,192,93817,1,0,0:0:0:0:
192,192,93817,1,0,0:0:0:0:
320,192,94041,1,0,0:0:0:0:
192,192,94153,1,0,0:0:0:0:
64,192,94265,1,0,0:0:0:0:
448,192,94377,1,0,0:0:0:0:
192,192,94489,1,0,0:0:0:0:
320,192,94489,1,0,0:0:0:0:
448,192,94713,1,0,0:0:0:0:
64,192,94713,128,0,94937:0:0:0:0:
192,192,94937,1,0,0:0:0:0:
320,192,95049,1,0,0:0:0:0:
448,192,95161,128,0,95385:0:0:0:0:
64,192,95273,1,0,0:0:0:0:
320,192,95385,1,0,0:0:0:0:
64,192,95608,1,0,0:0:0:0:
320,192,95720,1,0,0:0:0:0:
192,192,95832,1,0,0:0:0:0:
448,192,95944,1,0,0:0:0:0:
320,192,96168,1,0,0:0:0:0:
64,192,96280,1,0,0:0:0:0:
192,192,96504,1,0,0:0:0:0:
320,192,96504,1,0,0:0:0:0:
448,192,96728,1,0,0:0:0:0:
64,192,96952,128,0,97176:0:0:0:0:
448,192,97064,1,0,0:0:0:0:
320,192,97288,1,0,0:0:0:0:
192,192,97400,1,0,0:0:0:0:
448,192,97511,1,0,0:0:0:0:
64,192,97623,1,0,0:0:0:0:
192,192,97847,1,0,0:0:0:0:
448,192,97959,1,0,0:0:0:0:
320,192,98071,1,0,0:0:0:0:
64,192,98183,1,0,0:0:0:0:
320,192,98407,1,0,0:0:0:0:
448,192,98407,1,0,0:0:0:0:
448,192,98743,128,0,98967:0:0:0:0:
64,192,98743,128,0,99191:0:0:0:0:
192,192,98967,1,0,0:0:0:0:
320,192,99191,128,0,99638:0:0:0:0:
192,192,99414,1,0,0:0:0:0:
192,192,99750,1,0,0:0:0:0:
448,192,99750,1,0,0:0:0:0:
320,192,99974,1,0,0:0:0:0:
64,192,99974,1,0,0:0:0:0:
192,192,100198,128,0,100534:0:0:0:0:
448,192,100198,128,0,100534:0:0:0:0:
64,192,100758,1,0,0:0:0:0:
192,192,100870,1,0,0:0:0:0:
448,192,100982,128,0,101205:0:0:0:0:
192,192,101205,1,0,0:0:0:0:
64,192,101317,1,0,0:0:0:0:
448,192,101429,1,0,0:0:0:0:
320,192,101541,1,0,0:0:0:0:
192,192,101653,128,0,101877:0:0:0:0:
320,192,101877,1,0,0:0:0:0:
448,192,102101,1,0,0:0:0:0:
320,192,102213,1,0,0:0:0:0:
64,192,102325,128,0,102549:0:0:0:0:
192,192,102437,1,0,0:0:0:0:
448,192,102549,128,0,102773:0:0:0:0:
320,192,102661,1,0,0:0:0:0:
192,192,102773,1,0,0:0:0:0:
64,192,102885,1,0,0:0:0:0:
320,192,102997,1,0,0:0:0:0:
448,192,103108,1,0,0:0:0:0:
64,192,103220,128,0,103444:0:0:0:0:
320,192,103444,128,0,103668:0:0:0:0:
192,192,103556,1,0,0:0:0:0:
448,192,103668,128,0,103892:0:0:0:0:
64,192,103780,1,0,0:0:0:0:
192,192,103892,128,0,104116:0:0:0:0:
448,192,104228,1,0,0:0:0:0:
320,192,104340,1,0,0:0:0:0:
192,192,104452,1,0,0:0:0:0:
64,192,104564,1,0,0:0:0:0:
448,192,104676,128,0,105011:0:0:0:0:
64,192,105235,1,0,0:0:0:0:
320,192,105235,1,0,0:0:0:0:
192,192,105347,128,0,105571:0:0:0:0:
448,192,105347,128,0,105571:0:0:0:0:
320,192,105571,128,0,105795:0:0:0:0:
64,192,105571,128,0,105795:0:0:0:0:
192,192,105795,1,0,0:0:0:0:
448,192,105795,1,0,0:0:0:0:
64,192,106131,1,0,0:0:0:0:
192,192,106243,1,0,0:0:0:0:
320,192,106355,1,0,0:0:0:0:
448,192,106467,1,0,0:0:0:0:
64,192,106579,128,0,106802:0:0:0:0:
192,192,107026,1,0,0:0:0:0:
448,192,107026,1,0,0:0:0:0:
320,192,107138,128,0,107362:0:0:0:0:
64,192,107138,128,0,107362:0:0:0:0:
192,192,107362,128,0,107586:0:0:0:0:
448,192,107362,128,0,107586:0:0:0:0:
64,192,107586,1,0,0:0:0:0:
320,192,107586,1,0,0:0:0:0:
64,192,107922,1,0,0:0:0:0:
192,192,108034,1,0,0:0:0:0:
448,192,108146,1,0,0:0:0:0:
320,192,108258,1,0,0:0:0:0:
64,192,108482,1,0,0:0:0:0:
192,192,108594,1,0,0:0:0:0:
320,192,108705,1,0,0:0:0:0:
448,192,108817,1,0,0:0:0:0:
320,192,109041,1,0,0:0:0:0:
64,192,109041,1,0,0:0:0:0:
192,192,109265,1,0,0:0:0:0:
448,192,109265,1,0,0:0:0:0:
448,192,109489,1,0,0:0:0:0:
320,192,109601,1,0,0:0:0:0:
192,192,109713,1,0,0:0:0:0:
64,192,109825,1,0,0:0:0:0:
192,192,109937,1,0,0:0:0:0:
320,192,110049,1,0,0:0:0:0:
448,192,110161,128,0,110385:0:0:0:0:
64,192,110385,128,0,110608:0:0:0:0:
320,192,110608,1,0,0:0:0:0:
192,192,110720,1,0,0:0:0:0:
448,192,110832,1,0,0:0:0:0:
64,192,110944,128,0,111168:0:0:0:0:
320,192,111280,1,0,0:0:0:0:
192,192,111392,1,0,0:0:0:0:
448,192,111504,128,0,112176:0:0:0:0:
64,192,111616,1,0,0:0:0:0:
192,192,111728,1,0,0:0:0:0:
320,192,111840,1,0,0:0:0:0:
64,192,111952,1,0,0:0:0:0:
192,192,112064,1,0,0:0:0:0:
64,192,112176,128,0,113071:0:0:0:0:
320,192,112288,1,0,0:0:0:0:
448,192,112400,1,0,0:0:0:0:
320,192,112511,1,0,0:0:0:0:
192,192,112623,1,0,0:0:0:0:
448,192,112735,1,0,0:0:0:0:
320,192,112847,1,0,0:0:0:0:
448,192,112959,1,0,0:0:0:0:
320,192,113071,128,0,113519:0:0:0:0:
192,192,113183,1,0,0:0:0:0:
64,192,113295,1,0,0:0:0:0:
448,192,113407,1,0,0:0:0:0:
64,192,113519,1,0,0:0:0:0:
192,192,113519,128,0,113855:0:0:0:0:
320,192,113743,1,0,0:0:0:0:
64,192,113855,1,0,0:0:0:0:
320,192,114079,128,0,114302:0:0:0:0:
64,192,114302,1,0,0:0:0:0:
192,192,114414,1,0,0:0:0:0:
448,192,114526,1,0,0:0:0:0:
64,192,114862,128,0,115086:0:0:0:0:
320,192,115086,128,0,115310:0:0:0:0:
64,192,115422,1,0,0:0:0:0:
448,192,115534,128,0,115758:0:0:0:0:
192,192,115758,128,0,115982:0:0:0:0:
448,192,116094,1,0,0:0:0:0:
64,192,116429,1,0,0:0:0:0:
192,192,116541,1,0,0:0:0:0:
320,192,116653,1,0,0:0:0:0:
448,192,116765,128,0,116989:0:0:0:0:
192,192,116877,1,0,0:0:0:0:
320,192,116989,1,0,0:0:0:0:
64,192,117101,128,0,117325:0:0:0:0:
192,192,117437,1,0,0:0:0:0:
320,192,117549,1,0,0:0:0:0:
448,192,117661,128,0,118108:0:0:0:0:
192,192,117773,1,0,0:0:0:0:
64,192,117885,1,0,0:0:0:0:
320,192,117997,1,0,0:0:0:0:
192,192,118108,1,0,0:0:0:0:
448,192,118444,1,0,0:0:0:0:
320,192,118556,1,0,0:0:0:0:
192,192,118668,1,0,0:0:0:0:
64,192,118780,1,0,0:0:0:0:
320,192,118892,1,0,0:0:0:0:
448,192,118892,1,0,0:0:0:0:
192,192,119116,1,0,0:0:0:0:
64,192,119116,128,0,119564:0:0:0:0:
64,192,122026,1,0,0:0:0:0:
192,192,122101,1,0,0:0:0:0:
320,192,122176,1,0,0:0:0:0:
448,192,122250,128,0,122474:0:0:0:0:
64,192,122698,1,0,0:0:0:0:
192,192,122847,1,0,0:0:0:0:
320,192,122922,128,0,123370:0:0:0:0:
64,192,123071,1,0,0:0:0:0:
448,192,123220,1,0,0:0:0:0:
192,192,123370,128,0,123817:0:0:0:0:
64,192,123594,1,0,0:0:0:0:
64,192,123967,1,0,0:0:0:0:
192,192,124116,1,0,0:0:0:0:
448,192,124191,1,0,0:0:0:0:
320,192,124340,128,0,124489:0:0:0:0:
64,192,124564,1,0,0:0:0:0:
192,192,124713,128,0,124937:0:0:0:0:
448,192,124937,1,0,0:0:0:0:
320,192,125086,1,0,0:0:0:0:
192,192,125235,1,0,0:0:0:0:
64,192,125385,1,0,0:0:0:0:
192,192,125608,1,0,0:0:0:0:
448,192,125758,1,0,0:0:0:0:
64,192,125832,1,0,0:0:0:0:
320,192,125982,128,0,126280:0:0:0:0:
192,192,126131,1,0,0:0:0:0:
64,192,126280,1,0,0:0:0:0:
448,192,126429,128,0,126728:0:0:0:0:
320,192,126504,1,0,0:0:0:0:
64,192,126952,1,0,0:0:0:0:
320,192,127101,1,0,0:0:0:0:
448,192,127176,1,0,0:0:0:0:
192,192,127250,128,0,127400:0:0:0:0:
64,192,127400,1,0,0:0:0:0:
320,192,127474,1,0,0:0:0:0:
192,192,127623,1,0,0:0:0:0:
448,192,127698,1,0,0:0:0:0:
64,192,127847,128,0,128071:0:0:0:0:
320,192,127997,1,0,0:0:0:0:
192,192,128295,1,0,0:0:0:0:
448,192,128444,128,0,128743:0:0:0:0:
320,192,128519,1,0,0:0:0:0:
192,192,128668,1,0,0:0:0:0:
64,192,128743,128,0,129191:0:0:0:0:
320,192,128892,1,0,0:0:0:0:
448,192,129041,1,0,0:0:0:0:
192,192,129191,128,0,129638:0:0:0:0:
448,192,129489,1,0,0:0:0:0:
320,192,129638,1,0,0:0:0:0:
64,192,129862,1,0,0:0:0:0:
192,192,130011,1,0,0:0:0:0:
320,192,130086,1,0,0:0:0:0:
448,192,130235,128,0,130534:0:0:0:0:
192,192,130310,1,0,0:0:0:0:
64,192,130459,1,0,0:0:0:0:
320,192,130534,1,0,0:0:0:0:
192,192,130758,1,0,0:0:0:0:
448,192,130982,1,0,0:0:0:0:
