osu file format v14

[General]
AudioFilename: audio.mp3
AudioLeadIn: 0
PreviewTime: 25429
Countdown: 0
SampleSet: Normal
StackLeniency: 0.7
Mode: 1
LetterboxInBreaks: 0
WidescreenStoryboard: 1

[Editor]
DistanceSpacing: 2.4
BeatDivisor: 4
GridSize: 32
TimelineZoom: 0.9599999

[Metadata]
Title:1985
TitleUnicode:1985
Artist:Bo Burnham
ArtistUnicode:Bo Burnham
Creator:meiqth
Version:Muzukashii
Source:THE INSIDE OUTTAKES
Tags:english electronic pop rock novelty _Finality_ Inside (Deluxe) IMP697 Musical comedy
BeatmapID:4042787
BeatmapSetID:1952279

[Difficulty]
HPDrainRate:7
CircleSize:2
OverallDifficulty:5
ApproachRate:10
SliderMultiplier:1.4
SliderTickRate:1

[Events]
//Background and Video events
0,0,"dddd.jpg",0,0
//Break Periods
2,77075,88932
2,118554,119642
//Storyboard Layer 0 (Background)
//Storyboard Layer 1 (Fail)
//Storyboard Layer 2 (Pass)
//Storyboard Layer 3 (Foreground)
//Storyboard Layer 4 (Overlay)
//Storyboard Sound Samples

[TimingPoints]
3170,384.615384615385,4,1,0,70,1,0
27785,-100,4,1,0,70,0,1
40093,-100,4,1,0,70,0,0
64708,-100,4,1,0,70,0,1
75477,-100,4,1,0,70,0,0
77016,384.615384615385,4,1,0,70,1,8
77075,384.615384615385,4,1,0,55,1,0
101631,384.615384615385,4,1,0,55,1,0
106150,-100,4,1,0,70,0,0
107784,-90.9090909090909,4,1,0,80,0,1
117015,-90.9090909090909,4,1,0,55,0,0
120092,-90.9090909090909,4,1,0,80,0,1
138554,-90.9090909090909,4,1,0,70,0,0

[HitObjects]
256,192,2785,5,8,0:0:0:0:
256,192,3170,1,0,0:0:0:0:
256,192,3554,1,8,0:0:0:0:
256,192,3746,1,8,0:0:0:0:
256,192,3939,1,0,0:0:0:0:
256,192,4131,1,0,0:0:0:0:
256,192,4323,1,8,0:0:0:0:
256,192,4708,1,0,0:0:0:0:
256,192,5285,1,0,0:0:0:0:
256,192,5477,1,0,0:0:0:0:
256,192,5670,1,8,0:0:0:0:
256,192,5862,1,0,0:0:0:0:
256,192,6246,1,8,0:0:0:0:
256,192,6823,1,8,0:0:0:0:
256,192,7016,1,8,0:0:0:0:
256,192,7400,1,0,0:0:0:0:
256,192,7785,1,8,0:0:0:0:
256,192,9323,1,0,0:0:0:0:
256,192,9708,1,8,0:0:0:0:
256,192,9900,1,0,0:0:0:0:
256,192,10093,1,8,0:0:0:0:
256,192,10285,1,8,0:0:0:0:
256,192,10477,1,0,0:0:0:0:
256,192,10862,1,8,0:0:0:0:
256,192,11246,1,8,0:0:0:0:
256,192,11439,1,0,0:0:0:0:
256,192,11823,1,0,0:0:0:0:
256,192,12016,1,8,0:0:0:0:
256,192,12400,1,0,0:0:0:0:
256,192,12785,1,8,0:0:0:0:
256,192,12977,1,0,0:0:0:0:
256,192,13170,1,8,0:0:0:0:
256,192,13554,1,0,0:0:0:0:
256,192,13746,1,0,0:0:0:0:
256,192,13939,1,8,0:0:0:0:
256,192,14131,1,0,0:0:0:0:
256,192,14516,1,0,0:0:0:0:
256,192,14708,1,8,0:0:0:0:
256,192,15477,5,12,0:0:0:0:
256,192,15862,1,0,0:0:0:0:
256,192,16054,1,0,0:0:0:0:
256,192,16246,1,8,0:0:0:0:
256,192,16343,1,8,0:0:0:0:
256,192,16439,1,8,0:0:0:0:
256,192,16631,1,0,0:0:0:0:
256,192,17016,1,0,0:0:0:0:
256,192,17208,1,0,0:0:0:0:
256,192,17400,1,8,0:0:0:0:
256,192,17593,1,0,0:0:0:0:
256,192,17785,1,8,0:0:0:0:
256,192,18170,1,8,0:0:0:0:
256,192,18554,1,0,0:0:0:0:
256,192,18746,1,0,0:0:0:0:
256,192,18939,1,8,0:0:0:0:
256,192,19131,1,8,0:0:0:0:
256,192,19323,1,0,0:0:0:0:
256,192,19420,1,0,0:0:0:0:
256,192,19516,1,0,0:0:0:0:
256,192,19708,1,8,0:0:0:0:
256,192,20093,1,0,0:0:0:0:
256,192,20285,1,8,0:0:0:0:
256,192,20477,1,8,0:0:0:0:
256,192,20670,1,8,0:0:0:0:
256,192,20862,1,0,0:0:0:0:
256,192,21631,1,8,0:0:0:0:
256,192,21823,1,8,0:0:0:0:
256,192,22016,1,0,0:0:0:0:
256,192,22208,1,8,0:0:0:0:
256,192,22400,1,0,0:0:0:0:
256,192,22593,1,0,0:0:0:0:
256,192,22977,1,0,0:0:0:0:
256,192,23170,1,8,0:0:0:0:
256,192,23362,1,8,0:0:0:0:
256,192,23554,1,0,0:0:0:0:
256,192,23746,1,8,0:0:0:0:
256,192,23939,1,0,0:0:0:0:
256,192,24708,1,8,0:0:0:0:
256,192,27400,5,8,0:0:0:0:
256,192,27593,1,8,0:0:0:0:
256,192,27785,1,4,0:0:0:0:
256,192,28170,1,8,0:0:0:0:
256,192,28362,1,0,0:0:0:0:
256,192,28554,1,8,0:0:0:0:
256,192,28939,1,0,0:0:0:0:
256,192,29323,1,0,0:0:0:0:
256,192,29420,1,0,0:0:0:0:
256,192,29516,1,0,0:0:0:0:
256,192,29708,1,8,0:0:0:0:
256,192,29900,1,0,0:0:0:0:
256,192,30093,1,8,0:0:0:0:
256,192,30189,1,8,0:0:0:0:
256,192,30285,1,8,0:0:0:0:
256,192,30477,1,8,0:0:0:0:
256,192,30862,1,0,0:0:0:0:
256,192,31246,1,8,0:0:0:0:
256,192,31439,1,0,0:0:0:0:
256,192,31631,1,8,0:0:0:0:
256,192,32016,1,0,0:0:0:0:
256,192,32400,1,8,0:0:0:0:
256,192,32496,1,8,0:0:0:0:
256,192,32593,1,8,0:0:0:0:
256,192,32785,1,0,0:0:0:0:
256,192,32977,1,8,0:0:0:0:
256,192,33170,1,0,0:0:0:0:
256,192,33939,1,0,0:0:0:0:
256,192,34323,1,8,0:0:0:0:
256,192,34516,1,8,0:0:0:0:
256,192,34708,1,0,0:0:0:0:
256,192,35093,1,8,0:0:0:0:
256,192,35477,1,0,0:0:0:0:
256,192,35573,1,0,0:0:0:0:
256,192,35670,1,0,0:0:0:0:
256,192,35862,1,8,0:0:0:0:
256,192,36054,1,0,0:0:0:0:
256,192,36246,1,8,0:0:0:0:
256,192,36343,1,8,0:0:0:0:
256,192,36439,1,8,0:0:0:0:
256,192,36631,1,0,0:0:0:0:
256,192,37016,1,8,0:0:0:0:
256,192,37400,1,0,0:0:0:0:
256,192,37593,1,0,0:0:0:0:
256,192,37785,1,8,0:0:0:0:
256,192,38170,1,0,0:0:0:0:
256,192,38554,1,8,0:0:0:0:
256,192,38650,1,8,0:0:0:0:
256,192,38746,1,8,0:0:0:0:
256,192,38939,1,0,0:0:0:0:
256,192,39131,1,0,0:0:0:0:
256,192,39323,1,8,0:0:0:0:
256,192,40093,5,0,0:0:0:0:
256,192,40285,1,8,0:0:0:0:
256,192,40477,1,0,0:0:0:0:
256,192,40670,1,0,0:0:0:0:
256,192,40862,1,8,0:0:0:0:
256,192,41246,1,0,0:0:0:0:
256,192,41439,1,8,0:0:0:0:
256,192,41823,1,0,0:0:0:0:
256,192,43170,1,8,0:0:0:0:
256,192,43362,1,0,0:0:0:0:
256,192,43554,1,0,0:0:0:0:
256,192,43746,1,8,0:0:0:0:
256,192,44131,1,0,0:0:0:0:
256,192,44323,1,8,0:0:0:0:
256,192,44516,1,0,0:0:0:0:
256,192,44900,1,8,0:0:0:0:
256,192,45285,1,8,0:0:0:0:
256,192,45477,1,0,0:0:0:0:
256,192,45670,1,0,0:0:0:0:
256,192,45862,1,8,0:0:0:0:
256,192,46054,1,8,0:0:0:0:
256,192,46246,1,4,0:0:0:0:
256,192,46823,1,0,0:0:0:0:
256,192,47016,1,8,0:0:0:0:
256,192,47208,1,8,0:0:0:0:
256,192,47400,1,0,0:0:0:0:
256,192,47593,1,8,0:0:0:0:
256,192,47977,1,8,0:0:0:0:
256,192,48362,1,8,0:0:0:0:
256,192,48554,1,0,0:0:0:0:
256,192,48650,1,0,0:0:0:0:
256,192,48746,1,0,0:0:0:0:
256,192,48939,1,8,0:0:0:0:
256,192,49131,1,0,0:0:0:0:
256,192,49516,1,8,0:0:0:0:
256,192,49708,1,8,0:0:0:0:
256,192,49900,1,0,0:0:0:0:
256,192,50093,1,8,0:0:0:0:
256,192,50477,1,8,0:0:0:0:
256,192,50670,1,0,0:0:0:0:
256,192,51054,1,0,0:0:0:0:
256,192,51246,1,8,0:0:0:0:
256,192,51439,1,8,0:0:0:0:
256,192,51631,1,0,0:0:0:0:
256,192,51823,1,8,0:0:0:0:
256,192,52016,1,0,0:0:0:0:
256,192,52208,1,0,0:0:0:0:
256,192,52400,1,8,0:0:0:0:
256,192,52977,5,8,0:0:0:0:
256,192,53170,1,0,0:0:0:0:
256,192,53362,1,0,0:0:0:0:
256,192,53554,1,8,0:0:0:0:
256,192,53939,1,8,0:0:0:0:
256,192,54516,1,0,0:0:0:0:
256,192,54708,1,8,0:0:0:0:
256,192,54900,1,8,0:0:0:0:
256,192,55093,1,0,0:0:0:0:
256,192,55477,1,0,0:0:0:0:
256,192,55862,1,8,0:0:0:0:
256,192,56054,1,0,0:0:0:0:
256,192,56246,1,8,0:0:0:0:
256,192,56439,1,8,0:0:0:0:
256,192,56631,1,0,0:0:0:0:
256,192,57016,1,8,0:0:0:0:
256,192,57593,1,8,0:0:0:0:
256,192,57785,1,8,0:0:0:0:
256,192,57977,1,0,0:0:0:0:
256,192,58170,1,8,0:0:0:0:
256,192,58554,1,4,0:0:0:0:
256,192,58939,1,0,0:0:0:0:
256,192,59131,1,0,0:0:0:0:
256,192,59323,1,8,0:0:0:0:
256,192,59516,1,8,0:0:0:0:
256,192,59708,1,0,0:0:0:0:
256,192,60093,1,8,0:0:0:0:
256,192,60285,1,0,0:0:0:0:
256,192,60477,1,8,0:0:0:0:
256,192,60670,1,8,0:0:0:0:
256,192,61054,1,0,0:0:0:0:
256,192,61246,1,8,0:0:0:0:
256,192,61631,1,0,0:0:0:0:
256,192,64323,5,8,0:0:0:0:
256,192,64516,1,8,0:0:0:0:
256,192,64708,1,4,0:0:0:0:
256,192,65093,1,8,0:0:0:0:
256,192,65285,1,0,0:0:0:0:
256,192,65477,1,8,0:0:0:0:
256,192,65862,1,0,0:0:0:0:
256,192,66246,1,0,0:0:0:0:
256,192,66343,1,0,0:0:0:0:
256,192,66439,1,0,0:0:0:0:
256,192,66631,1,8,0:0:0:0:
256,192,66823,1,0,0:0:0:0:
256,192,67016,1,8,0:0:0:0:
256,192,67112,1,8,0:0:0:0:
256,192,67208,1,8,0:0:0:0:
256,192,67400,1,0,0:0:0:0:
256,192,67785,1,8,0:0:0:0:
256,192,68170,1,0,0:0:0:0:
256,192,68362,1,0,0:0:0:0:
256,192,68554,1,8,0:0:0:0:
256,192,68939,1,0,0:0:0:0:
256,192,69323,1,8,0:0:0:0:
256,192,69420,1,8,0:0:0:0:
256,192,69516,1,8,0:0:0:0:
256,192,69708,1,0,0:0:0:0:
256,192,69900,1,8,0:0:0:0:
256,192,70093,1,0,0:0:0:0:
256,192,70862,1,0,0:0:0:0:
256,192,71246,1,8,0:0:0:0:
256,192,71439,1,0,0:0:0:0:
256,192,71631,1,8,0:0:0:0:
256,192,72016,1,8,0:0:0:0:
256,192,72400,1,0,0:0:0:0:
256,192,72496,1,0,0:0:0:0:
256,192,72593,1,0,0:0:0:0:
256,192,72785,1,8,0:0:0:0:
256,192,72977,1,0,0:0:0:0:
256,192,73170,1,8,0:0:0:0:
256,192,73266,1,8,0:0:0:0:
256,192,73362,1,8,0:0:0:0:
256,192,73554,1,8,0:0:0:0:
256,192,73939,1,0,0:0:0:0:
256,192,74323,1,0,0:0:0:0:
256,192,74516,1,8,0:0:0:0:
256,192,74708,1,0,0:0:0:0:
256,192,75093,1,0,0:0:0:0:
256,192,89382,5,0,0:0:0:0:
256,192,90151,1,8,0:0:0:0:
256,192,90536,1,0,0:0:0:0:
256,192,91690,1,8,0:0:0:0:
256,192,92459,5,0,0:0:0:0:
256,192,93228,1,8,0:0:0:0:
256,192,93613,1,0,0:0:0:0:
256,192,94767,1,8,0:0:0:0:
256,192,95536,5,0,0:0:0:0:
256,192,96305,1,8,0:0:0:0:
256,192,96690,1,0,0:0:0:0:
256,192,97844,1,8,0:0:0:0:
256,192,98613,5,0,0:0:0:0:
256,192,99382,1,8,0:0:0:0:
256,192,99767,1,0,0:0:0:0:
256,192,101631,5,8,0:0:0:0:
256,192,103169,5,0,0:0:0:0:
256,192,104707,5,8,0:0:0:0:
256,192,106246,8,0,107400,0:0:0:0:
256,192,107784,5,12,0:0:0:0:
256,192,108169,1,0,0:0:0:0:
256,192,108361,1,8,0:0:0:0:
256,192,108554,1,0,0:0:0:0:
256,192,108746,1,0,0:0:0:0:
256,192,108938,1,8,0:0:0:0:
256,192,109323,1,8,0:0:0:0:
256,192,109419,1,8,0:0:0:0:
256,192,109515,1,8,0:0:0:0:
256,192,109707,1,0,0:0:0:0:
256,192,109900,1,8,0:0:0:0:
256,192,110092,1,0,0:0:0:0:
256,192,110188,1,0,0:0:0:0:
256,192,110284,1,0,0:0:0:0:
256,192,110477,1,0,0:0:0:0:
256,192,110861,1,8,0:0:0:0:
256,192,111246,1,8,0:0:0:0:
256,192,111438,1,0,0:0:0:0:
256,192,111631,1,8,0:0:0:0:
256,192,111823,1,0,0:0:0:0:
256,192,112015,1,8,0:0:0:0:
256,192,112400,1,0,0:0:0:0:
256,192,112496,1,0,0:0:0:0:
256,192,112592,1,0,0:0:0:0:
256,192,112784,1,8,0:0:0:0:
256,192,112977,1,0,0:0:0:0:
256,192,113169,1,8,0:0:0:0:
256,192,113938,1,8,0:0:0:0:
256,192,114323,1,8,0:0:0:0:
256,192,114515,1,0,0:0:0:0:
256,192,114707,1,0,0:0:0:0:
256,192,114900,1,0,0:0:0:0:
256,192,115092,1,8,0:0:0:0:
256,192,115477,1,0,0:0:0:0:
256,192,115573,1,0,0:0:0:0:
256,192,115669,1,0,0:0:0:0:
256,192,115861,1,8,0:0:0:0:
256,192,116054,1,0,0:0:0:0:
256,192,116246,1,8,0:0:0:0:
256,192,116342,1,8,0:0:0:0:
256,192,116438,1,8,0:0:0:0:
256,192,116631,1,8,0:0:0:0:
256,192,117015,5,0,0:0:0:0:
256,192,117400,1,8,0:0:0:0:
256,192,117592,1,0,0:0:0:0:
256,192,117784,1,0,0:0:0:0:
256,192,118169,1,8,0:0:0:0:
256,192,120092,5,12,0:0:0:0:
256,192,120477,1,8,0:0:0:0:
256,192,120669,1,0,0:0:0:0:
256,192,120861,1,8,0:0:0:0:
256,192,120957,1,8,0:0:0:0:
256,192,121054,1,8,0:0:0:0:
256,192,121246,1,0,0:0:0:0:
256,192,121438,1,8,0:0:0:0:
256,192,121823,1,8,0:0:0:0:
256,192,122207,1,0,0:0:0:0:
256,192,122304,1,0,0:0:0:0:
256,192,122400,1,0,0:0:0:0:
256,192,122592,1,8,0:0:0:0:
256,192,122784,1,0,0:0:0:0:
256,192,122977,1,0,0:0:0:0:
256,192,123169,1,8,0:0:0:0:
256,192,123554,1,8,0:0:0:0:
256,192,123746,1,0,0:0:0:0:
256,192,123938,1,8,0:0:0:0:
256,192,124034,1,8,0:0:0:0:
256,192,124131,1,8,0:0:0:0:
256,192,124323,1,0,0:0:0:0:
256,192,124515,1,8,0:0:0:0:
256,192,124900,1,0,0:0:0:0:
256,192,125284,1,8,0:0:0:0:
256,192,125381,1,8,0:0:0:0:
256,192,125477,1,8,0:0:0:0:
256,192,125669,1,0,0:0:0:0:
256,192,125861,1,8,0:0:0:0:
256,192,126054,1,0,0:0:0:0:
256,192,126246,1,8,0:0:0:0:
256,192,126631,1,0,0:0:0:0:
256,192,127400,5,0,0:0:0:0:
256,192,127784,1,8,0:0:0:0:
256,192,127977,1,0,0:0:0:0:
256,192,128169,1,8,0:0:0:0:
256,192,128361,1,8,0:0:0:0:
256,192,128554,1,0,0:0:0:0:
256,192,128650,1,0,0:0:0:0:
256,192,128746,1,0,0:0:0:0:
256,192,128938,1,8,0:0:0:0:
256,192,129323,1,0,0:0:0:0:
256,192,129515,1,8,0:0:0:0:
256,192,129707,1,8,0:0:0:0:
256,192,129900,1,0,0:0:0:0:
256,192,130284,1,8,0:0:0:0:
256,192,130669,1,0,0:0:0:0:
256,192,130861,1,8,0:0:0:0:
256,192,131054,1,0,0:0:0:0:
256,192,131246,1,0,0:0:0:0:
256,192,131631,1,8,0:0:0:0:
256,192,132400,1,8,0:0:0:0:
256,192,132784,5,0,0:0:0:0:
256,192,133169,1,8,0:0:0:0:
256,192,133361,1,8,0:0:0:0:
256,192,133554,1,0,0:0:0:0:
256,192,133938,1,0,0:0:0:0:
256,192,134131,1,0,0:0:0:0:
256,192,134323,1,8,0:0:0:0:
256,192,134515,1,0,0:0:0:0:
256,192,134900,1,0,0:0:0:0:
256,192,135092,1,8,0:0:0:0:
256,192,135188,1,8,0:0:0:0:
256,192,135284,1,8,0:0:0:0:
256,192,135477,1,0,0:0:0:0:
256,192,135861,1,8,0:0:0:0:
256,192,136246,1,8,0:0:0:0:
256,192,136438,1,0,0:0:0:0:
256,192,136823,1,0,0:0:0:0:
256,192,137015,1,8,0:0:0:0:
256,192,137207,1,8,0:0:0:0:
256,192,137400,1,0,0:0:0:0:
256,192,137592,1,8,0:0:0:0:
256,192,137784,1,0,0:0:0:0:
256,192,138554,5,8,0:0:0:0:
256,192,138746,1,8,0:0:0:0:
256,192,138938,1,0,0:0:0:0:
256,192,139323,1,8,0:0:0:0:
256,192,139515,1,0,0:0:0:0:
256,192,139707,1,0,0:0:0:0:
256,192,139900,1,8,0:0:0:0:
256,192,140284,1,8,0:0:0:0:
256,192,140477,1,0,0:0:0:0:
256,192,140861,1,8,0:0:0:0:
256,192,141246,1,0,0:0:0:0:
256,192,141631,1,8,0:0:0:0:
256,192,142015,1,8,0:0:0:0:
256,192,142207,1,0,0:0:0:0:
256,192,142400,1,0,0:0:0:0:
256,192,142784,1,8,0:0:0:0:
256,192,142977,1,0,0:0:0:0:
