osu file format v14

[General]
AudioFilename: audio.mp3
AudioLeadIn: 0
PreviewTime: -1
Countdown: 1
SampleSet: Soft
StackLeniency: 0.3
Mode: 0
LetterboxInBreaks: 0
WidescreenStoryboard: 0

[Editor]
Bookmarks: 11916,23768,29694,35620,41546,47472,53398,59324,71176,83027,88953,94879,100805,106731,112657,118583
DistanceSpacing: 1
BeatDivisor: 4
GridSize: 4
TimelineZoom: 1.4

[Metadata]
Title:Knight Time
TitleUnicode:Knight Time
Artist:Blythe Joustra
ArtistUnicode:Blythe Joustra
Creator:Nitronic Techno
Version:Knight Knight
Source:Crash Bandicoot and the warth of cortex
Tags:Crash Bandicoot and the warth of cortex Coco Bandicoot Knight Time Beat Nitro Nitronic Techno Syncro Lefafel
BeatmapID:1180520
BeatmapSetID:557999

[Difficulty]
HPDrainRate:6
CircleSize:4
OverallDifficulty:8
ApproachRate:9
SliderMultiplier:2
SliderTickRate:1

[Events]
//Background and Video events
0,0,"Knighttime.png",0,0
//Break Periods
//Storyboard Layer 0 (Background)
Sprite,Background,Centre,"Lefa.png",320,240 M,0,65,,447.6493,373.2603 F,0,65,435,0.954411,1 F,0,435,1546,1 F,0,1546,11546,1 F,0,11546,11824,1,0
Sprite,Background,Centre,"Syncro.png",320,240 M,0,11824,,449.0521,373.2603 F,0,11824,11916,0,1 F,0,11916,23398,1 F,0,23398,23676,1,0
Sprite,Background,Centre,"Beat.png",320,240 M,0,23676,,460.274,356.4274 F,0,23676,23768,0,1 F,0,23768,29324,1 F,0,29324,29602,1 F,0,29602,35250,1 F,0,35250,35527,1,0
Sprite,Background,Centre,"Lefa.png",320,240 M,0,35527,,479.2109,368.3507 F,0,35527,35620,0,1 F,0,35620,47102,1 F,0,47102,47379,1,0
Sprite,Background,Centre,"Syncro.png",320,240 M,0,47379,,482.0164,370.4548 F,0,47379,47472,0,1 F,0,47472,58953,1 F,0,58953,59231,1,0
Sprite,Background,Centre,"Beat.png",320,240 M,0,59231,,482.7178,372.5589 F,0,59231,59324,0,1 F,0,59324,70805,1 F,0,70805,71083,1,0
Sprite,Background,Centre,"Lefa.png",320,240 M,0,71083,,480.6137,368.3506 F,0,71083,71176,0,1 F,0,71176,82657,1 F,0,82657,82935,1,0
Sprite,Background,Centre,"Syncro.png",320,240 M,0,82935,,480.6137,371.1562 F,0,82935,83027,0,1 F,0,83027,94509,1 F,0,94509,94787,1,0
Sprite,Background,Centre,"Beat.png",320,240 M,0,94787,,482.7178,369.7534 F,0,94787,94879,0,1 F,0,94879,106361,1 F,0,106361,106639,1,0
Sprite,Background,Centre,"Lefa.png",320,240 M,0,106639,,477.1068,347.3096 F,0,106639,106731,0,1 F,0,106731,118120,1 F,0,118120,118398,1,0
//Storyboard Layer 1 (Fail)
//Storyboard Layer 2 (Pass)
//Storyboard Layer 3 (Foreground)
//Storyboard Sound Samples

[TimingPoints]
65,370.37037037037,4,2,0,50,1,0
11916,-100,4,2,0,35,0,0
17102,-100,4,2,0,45,0,0
17472,-100,4,2,0,55,0,0
17842,-100,4,2,0,35,0,0
23027,-100,4,2,0,45,0,0
23398,-100,4,2,0,55,0,0
23768,-90.9090909090909,4,2,0,35,0,0
35620,-125,4,2,0,35,0,0
47472,-100,4,2,0,50,0,0
52657,-100,4,2,0,55,0,0
53027,-100,4,2,0,60,0,0
53398,-100,4,2,0,70,0,0
53583,-100,4,2,0,50,0,0
58583,-100,4,2,0,55,0,0
58953,-100,4,2,0,60,0,0
59324,-83.3333333333333,4,1,0,70,0,1
59509,-83.3333333333333,4,1,0,50,0,1
65250,-81.9672131147541,4,1,0,50,0,1
71176,-83.3333333333333,4,1,0,50,0,1
75435,-100,4,1,0,50,0,1
76361,-90.9090909090909,4,1,0,50,0,1
76731,-86.9565217391304,4,1,0,50,0,1
77102,-83.3333333333333,4,1,0,50,0,1
81361,-100,4,1,0,50,0,1
82287,-90.9090909090909,4,1,0,60,0,1
82657,-83.3333333333333,4,1,0,70,0,1
83027,-100,4,2,0,60,0,0
83213,-100,4,2,0,50,0,0
87472,-100,4,2,0,60,0,0
88213,-100,4,2,0,65,0,0
88583,-100,4,2,0,70,0,0
88953,-51.0204081632653,4,2,0,50,0,0
89324,-100,4,2,0,50,0,0
93398,-100,4,2,0,60,0,0
93768,-113.636363636364,4,2,0,65,0,0
94139,-131.578947368421,4,2,0,60,0,0
94509,-156.25,4,2,0,55,0,0
94879,-105.263157894737,4,2,0,45,0,0
102842,-80,4,2,0,45,0,0
103398,-105.263157894737,4,2,0,45,0,0
106731,-100,4,2,0,70,0,0
106916,-100,4,2,0,40,0,0
111916,-100,4,2,0,50,0,0
112287,-100,4,2,0,60,0,0
112657,-100,4,2,0,70,0,0
113027,-100,4,2,0,40,0,0
115620,-100,4,2,0,70,0,0
115805,-100,4,2,0,40,0,0
117287,-100,4,2,0,50,0,0
117657,-100,4,2,0,60,0,0
118027,-100,4,2,0,70,0,0
118213,-100,4,2,0,75,0,0
118398,-100,4,2,0,80,0,0

[HitObjects]
112,294,65,6,0,L|156:268,1,50,2|0,0:0|0:0,0:0:0:0:
207,337,250,1,0,0:0:0:0:
207,337,342,1,0,0:0:0:0:
207,337,435,2,0,L|233:293,1,50,2|0,0:0|0:0,0:0:0:0:
311,327,620,2,0,L|311:275,1,50
396,266,805,2,0,P|366:211|329:193,1,100,2|0,0:0|0:0,0:0:0:0:
206,237,1176,6,0,L|232:193,1,50,2|0,0:0|0:0,0:0:0:0:
199,115,1361,2,0,L|250:114,1,50
370,115,1546,6,0,L|414:141,1,50,2|0,0:0|0:0,0:0:0:0:
372,218,1731,1,0,0:0:0:0:
372,218,1824,1,0,0:0:0:0:
372,218,1916,2,0,L|328:243,1,50,2|0,0:0|0:0,0:0:0:0:
287,168,2102,2,0,L|243:142,1,50
202,218,2287,2,0,P|157:140|168:102,1,100,2|0,0:0|0:0,0:0:0:0:
287,168,2657,5,2,0:0:0:0:
297,190,2749,1,0,0:0:0:0:
300,215,2842,1,0,0:0:0:0:
295,240,2934,1,0,0:0:0:0:
284,262,3027,5,2,0:0:0:0:
165,331,3213,1,0,0:0:0:0:
165,331,3305,1,0,0:0:0:0:
165,331,3398,2,0,P|197:330|215:321,1,50,2|0,0:0|0:0,0:0:0:0:
292,364,3583,2,0,P|320:347|331:331,1,50
418,323,3768,2,0,P|396:272|340:245,1,100,2|0,0:0|0:0,0:0:0:0:
334,102,4139,5,2,0:0:0:0:
349,122,4231,1,0,0:0:0:0:
357,146,4324,1,0,0:0:0:0:
356,170,4416,1,0,0:0:0:0:
348,197,4510,5,2,0:0:0:0:
212,260,4694,5,0,0:0:0:0:
246,244,4786,1,0,0:0:0:0:
280,228,4879,1,2,0:0:0:0:
144,291,5064,5,0,0:0:0:0:
362,274,5250,5,2,0:0:0:0:
138,253,5435,5,0,0:0:0:0:
287,266,5620,5,2,0:0:0:0:
249,263,5713,1,0,0:0:0:0:
212,260,5805,1,0,0:0:0:0:
109,101,5990,6,0,L|84:144,1,50,2|0,0:0|0:0,0:0:0:0:
179,139,6176,1,0,0:0:0:0:
179,139,6268,1,0,0:0:0:0:
179,139,6361,2,0,L|179:189,1,50,2|0,0:0|0:0,0:0:0:0:
258,136,6546,2,0,L|283:179,1,50
326,95,6731,2,0,P|278:59|206:76,1,100,2|0,0:0|0:0,0:0:0:0:
84,144,7102,6,0,P|81:177|93:198,1,50,2|0,0:0|0:0,0:0:0:0:
179,189,7287,2,0,P|197:216|220:224,1,50
332,184,7472,6,0,L|404:210,1,50,2|0,0:0|0:0,0:0:0:0:
332,274,7657,1,0,0:0:0:0:
332,274,7750,1,0,0:0:0:0:
332,274,7842,2,0,L|259:300,1,50,2|0,0:0|0:0,0:0:0:0:
332,364,8027,2,0,L|404:390,1,50
458,335,8213,2,0,P|473:288|458:241,1,100,2|0,0:0|0:0,0:0:0:0:
332,184,8583,5,2,0:0:0:0:
309,195,8675,1,0,0:0:0:0:
285,199,8768,1,0,0:0:0:0:
260,195,8860,1,0,0:0:0:0:
238,183,8953,5,2,0:0:0:0:
216,56,9138,1,0,0:0:0:0:
216,56,9231,1,0,0:0:0:0:
216,56,9323,2,0,P|243:87|244:120,1,50,2|0,0:0|0:0,0:0:0:0:
156,116,9509,2,0,P|163:156|148:185,1,50
74,136,9694,2,0,P|72:186|98:228,1,100,2|0,0:0|0:0,0:0:0:0:
238,183,10064,5,2,0:0:0:0:
242,207,10156,1,0,0:0:0:0:
239,232,10249,1,0,0:0:0:0:
229,255,10341,1,0,0:0:0:0:
213,274,10434,5,2,0:0:0:0:
98,228,10620,1,0,0:0:0:0:
202,159,10805,1,2,0:0:0:0:
212,159,10897,1,0,0:0:0:0:
222,159,10990,2,0,L|293:159,1,50
345,224,11176,5,2,0:0:0:0:
252,299,11361,1,0,0:0:0:0:
361,325,11546,5,2,0:0:0:0:
272,339,11731,1,0,0:0:0:0:
438,276,11916,2,0,B|443:315|443:315|431:386,1,100,6|0,0:0|0:0,0:0:0:0:
282,319,12287,5,4,0:0:0:0:
371,315,12472,1,0,0:0:0:0:
213,356,12657,2,0,P|207:297|256:245,1,100,4|0,0:0|0:0,0:0:0:0:
331,184,13027,2,0,L|321:233,2,50,4|0|0,0:0|0:0|0:0,0:0:0:0:
231,274,13398,5,4,0:0:0:0:
422,263,13583,1,0,0:0:0:0:
486,157,13768,1,4,0:0:0:0:
485,182,13861,1,0,0:0:0:0:
484,206,13953,1,0,0:0:0:0:
394,137,14139,2,0,L|389:60,2,50,4|0|0,0:0|0:0|0:0,0:0:0:0:
264,211,14509,6,4,P|327:227|381:205,1,100
265,184,14879,1,4,0:0:0:0:
284,339,15064,1,0,0:0:0:0:
336,149,15250,2,0,P|283:108|225:117,1,100,4|0,0:0|0:0,0:0:0:0:
168,241,15620,2,0,B|184:209|184:209|191:133,1,100,4|0,0:0|0:0,0:0:0:0:
48,261,15990,1,4,0:0:0:0:
182,230,16176,1,0,0:0:0:0:
51,278,16361,6,0,B|55:308|55:308|71:351|118:368,1,100,4|0,0:0|0:0,0:0:0:0:
207,348,16731,1,4,0:0:0:0:
288,290,16916,1,0,0:0:0:0:
286,305,17009,1,0,0:0:0:0:
284,320,17102,5,4,0:0:0:0:
250,127,17287,1,2,0:0:0:0:
238,216,17472,1,8,0:0:0:0:
439,162,17657,1,2,0:0:0:0:
399,323,17842,6,4,L|397:256,1,50,4|0,0:0|0:0,0:0:0:0:
440,112,18027,2,0,L|438:161,1,50
345,238,18213,2,0,B|321:247|321:247|218:240,1,100,4|0,0:0|0:0,0:0:0:0:
264,174,18583,2,0,L|313:177,1,50,4|0,0:0|0:0,0:0:0:0:
350,318,18768,1,0,0:0:0:0:
219,267,18953,6,0,L|169:270,1,50,4|0,0:0|0:0,0:0:0:0:
121,322,19139,1,0,0:0:0:0:
79,188,19324,2,0,P|115:139|109:83,1,100,4|0,0:0|0:0,0:0:0:0:
45,30,19694,5,4,0:0:0:0:
215,48,19879,1,0,0:0:0:0:
186,143,20064,2,0,B|218:128|218:128|318:134,1,100,4|0,0:0|0:0,0:0:0:0:
291,231,20435,1,4,0:0:0:0:
281,119,20620,1,0,0:0:0:0:
434,53,20805,2,0,L|415:192,1,100,4|0,0:0|0:0,0:0:0:0:
459,298,21176,5,4,0:0:0:0:
477,199,21361,1,0,0:0:0:0:
379,361,21546,1,4,0:0:0:0:
329,177,21731,1,0,0:0:0:0:
200,316,21916,2,0,L|328:291,1,100,4|0,0:0|0:0,0:0:0:0:
147,179,22287,1,4,0:0:0:0:
197,361,22472,5,0,0:0:0:0:
199,336,22564,1,0,0:0:0:0:
201,310,22657,1,4,0:0:0:0:
80,360,22842,1,0,0:0:0:0:
192,235,23027,1,4,0:0:0:0:
64,214,23213,5,2,0:0:0:0:
66,240,23306,1,0,0:0:0:0:
68,265,23398,1,8,0:0:0:0:
205,148,23583,1,10,0:0:0:0:
84,193,23768,5,2,0:0:0:0:
189,136,23953,2,0,L|211:46,1,55.0000016784668
218,55,24139,1,0,0:0:0:0:
242,49,24231,1,0,0:0:0:0:
269,49,24324,1,2,0:0:0:0:
368,132,24509,1,0,0:0:0:0:
483,191,24694,1,2,0:0:0:0:
303,205,24879,1,0,0:0:0:0:
421,257,25064,1,2,0:0:0:0:
298,301,25250,5,2,0:0:0:0:
274,292,25342,1,0,0:0:0:0:
250,282,25435,1,0,0:0:0:0:
251,257,25527,1,0,0:0:0:0:
229,244,25620,1,0,0:0:0:0:
207,231,25713,1,0,0:0:0:0:
185,218,25805,1,2,0:0:0:0:
117,316,25990,1,0,0:0:0:0:
136,116,26176,1,2,0:0:0:0:
64,224,26361,1,0,0:0:0:0:
193,235,26546,1,2,0:0:0:0:
293,152,26731,6,0,B|293:86|293:86|332:37,1,110.000003356934,2|0,0:0|0:0,0:0:0:0:
442,67,27009,2,0,L|394:100,1,55.0000016784668
449,172,27194,2,0,L|376:173,1,55.0000016784668,0|2,0:0|0:0,0:0:0:0:
436,276,27379,2,0,L|385:253,1,55.0000016784668
358,108,27657,1,2,0:0:0:0:
292,253,27842,1,0,0:0:0:0:
439,190,28027,1,2,0:0:0:0:
355,309,28213,6,0,L|305:255,1,55.0000016784668,2|0,0:0|0:0,0:0:0:0:
244,191,28398,2,0,L|285:149,1,50
325,137,28583,1,0,0:0:0:0:
353,127,28676,1,0,0:0:0:0:
382,131,28768,1,2,0:0:0:0:
408,145,28861,1,0,0:0:0:0:
431,163,28953,1,0,0:0:0:0:
391,276,29139,1,2,0:0:0:0:
419,37,29509,1,2,0:0:0:0:
337,125,29694,5,4,0:0:0:0:
335,294,29879,2,0,L|336:228,1,55.0000016784668
365,214,30064,1,8,0:0:0:0:
249,87,30250,2,0,L|248:155,1,55.0000016784668
228,165,30435,1,0,0:0:0:0:
117,315,30620,2,0,L|189:315,1,55.0000016784668
313,269,30805,2,0,L|246:269,1,55.0000016784668,8|0,0:0|0:0,0:0:0:0:
163,207,30990,1,0,0:0:0:0:
178,183,31083,1,0,0:0:0:0:
186,151,31176,5,0,0:0:0:0:
70,87,31361,1,0,0:0:0:0:
256,89,31546,1,8,0:0:0:0:
281,109,31639,1,0,0:0:0:0:
306,129,31731,1,0,0:0:0:0:
317,159,31824,2,0,L|317:227,1,55.0000016784668
390,158,32009,2,0,L|390:82,1,55.0000016784668
473,156,32287,1,8,0:0:0:0:
431,349,32472,1,0,0:0:0:0:
452,252,32657,5,0,0:0:0:0:
402,141,32842,1,0,0:0:0:0:
310,220,33027,2,0,L|264:267,1,55.0000016784668,8|0,0:0|0:0,0:0:0:0:
259,168,33213,2,0,L|201:183,1,55.0000016784668
239,98,33398,2,0,L|179:98,1,55.0000016784668
155,77,33583,1,0,0:0:0:0:
71,192,33768,1,8,0:0:0:0:
155,307,33953,1,0,0:0:0:0:
297,325,34139,6,0,B|313:267|313:267|313:195,1,110.000003356934
295,187,34416,1,0,0:0:0:0:
292,150,34509,1,8,0:0:0:0:
172,71,34694,2,2,L|158:104,3,27.5000008392334
184,119,34879,2,2,L|184:190,1,55.0000016784668
216,165,35064,2,2,L|235:229,1,55.0000016784668,2|10,0:0|0:0,0:0:0:0:
250,190,35250,2,2,L|299:244,1,55.0000016784668
289,183,35435,2,0,L|365:221,1,55.0000016784668
444,232,35620,6,0,P|462:195|370:158,1,160,4|2,0:0|0:0,0:0:0:0:
307,222,36176,1,0,0:0:0:0:
253,281,36361,1,8,0:0:0:0:
199,222,36546,2,0,P|170:178|136:163,1,80,0|2,0:0|0:0,0:0:0:0:
123,242,36916,2,0,P|142:276|175:297,1,80,0|8,0:0|0:0,0:0:0:0:
253,281,37287,2,0,P|273:247|277:207,1,80,0|2,0:0|0:0,0:0:0:0:
355,190,37657,2,8,P|322:140|223:149,1,160
175,202,38213,1,2,0:0:0:0:
151,125,38398,1,0,0:0:0:0:
251,220,38583,6,0,P|200:277|125:263,1,160,8|2,0:0|0:0,0:0:0:0:
84,168,39139,1,0,0:0:0:0:
151,125,39324,1,8,0:0:0:0:
229,143,39509,1,0,0:0:0:0:
296,100,39694,1,2,0:0:0:0:
288,19,39879,2,0,P|251:33|225:62,1,80,0|8,0:0|0:0,0:0:0:0:
229,142,40250,2,0,P|258:169|296:179,1,80,0|2,0:0|0:0,0:0:0:0:
304,258,40620,2,8,P|357:231|360:131,1,160
296,100,41176,1,2,0:0:0:0:
296,179,41361,1,0,0:0:0:0:
364,58,41546,6,0,P|336:30|298:19,2,80,8|0|2,0:0|0:0|0:0,0:0:0:0:
398,158,42102,1,0,0:0:0:0:
356,226,42287,1,8,0:0:0:0:
311,157,42472,2,0,P|280:133|241:128,1,80,0|2,0:0|0:0,0:0:0:0:
250,208,42842,2,0,P|274:239|279:278,1,80,0|8,0:0|0:0,0:0:0:0:
199,269,43213,2,0,P|174:237|169:198,1,80,0|2,0:0|0:0,0:0:0:0:
92,217,43583,2,0,P|99:157|192:120,1,160
244,169,44139,2,0,L|207:255,1,80,2|0,0:0|0:0,0:0:0:0:
183,117,44509,6,0,P|254:89|316:134,1,160,8|2,0:0|0:0,0:0:0:0:
292,233,45064,1,0,0:0:0:0:
212,242,45250,1,8,0:0:0:0:
260,306,45435,1,0,0:0:0:0:
180,315,45621,1,2,0:0:0:0:
131,250,45805,2,0,P|138:211|161:179,1,80,0|8,0:0|0:0,0:0:0:0:
50,242,46176,2,0,P|57:281|80:313,1,80,0|2,0:0|0:0,0:0:0:0:
211,241,46546,2,8,P|248:166|329:161,1,160
371,216,47102,1,2,0:0:0:0:
292,233,47288,1,0,0:0:0:0:
390,103,47472,6,0,B|399:136|399:136|386:245,1,100,2|4,0:0|0:0,0:0:0:0:
444,330,47842,1,2,0:0:0:0:
437,295,47935,1,0,0:0:0:0:
430,260,48027,2,0,P|369:251|312:279,1,100,4|2,0:0|0:0,0:0:0:0:
274,226,48398,2,0,L|283:142,2,50,4|0|2,0:0|0:0|0:0,0:0:0:0:
190,325,48676,5,0,0:0:0:0:
197,291,48768,2,0,B|161:307|161:307|66:299,1,100,4|2,0:0|0:0,0:0:0:0:
98,153,49046,1,0,0:0:0:0:
128,135,49139,2,0,L|115:218,1,50,4|0,0:0|0:0,0:0:0:0:
212,275,49324,2,0,P|212:249|204:225,1,50,2|0,0:0|0:0,0:0:0:0:
393,142,49509,6,0,L|343:140,1,50,4|0,0:0|0:0,0:0:0:0:
200,158,49694,2,0,P|226:155|249:156,1,50,2|0,0:0|0:0,0:0:0:0:
404,221,49879,1,4,0:0:0:0:
395,23,50064,2,0,L|390:97,2,50,2|0|4,0:0|0:0|0:0,0:0:0:0:
494,150,50435,2,0,P|424:142|379:160,1,100,8|4,0:0|0:0,0:0:0:0:
308,300,50805,6,0,L|305:250,1,50,2|0,0:0|0:0,0:0:0:0:
169,196,50990,2,0,P|234:181|293:207,1,100,4|2,0:0|0:0,0:0:0:0:
120,363,51361,2,0,L|113:284,1,50,4|0,0:0|0:0,0:0:0:0:
49,196,51546,2,0,B|35:225|35:225|39:303,1,100,2|4,0:0|0:0,0:0:0:0:
131,127,51916,6,0,L|124:198,1,50,2|0,0:0|0:0,0:0:0:0:
168,248,52102,2,0,P|227:225|299:242,1,100,4|2,0:0|0:0,0:0:0:0:
409,188,52472,2,0,L|332:185,1,50,4|0,0:0|0:0,0:0:0:0:
344,90,52657,1,6,0:0:0:0:
249,312,52842,1,4,0:0:0:0:
391,301,53027,2,0,L|306:297,1,50,6|0,0:0|0:0,0:0:0:0:
111,354,53213,6,0,L|160:351,1,50,4|0,0:0|0:0,0:0:0:0:
57,210,53398,2,0,P|36:274|50:309,1,100,6|4,0:0|0:0,0:0:0:0:
166,168,53768,6,0,L|117:165,1,50,2|0,0:0|0:0,0:0:0:0:
173,262,53953,2,0,B|207:251|207:251|273:266,1,100,4|2,0:0|0:0,0:0:0:0:
463,292,54324,2,0,B|427:303|427:303|239:257,1,200,4|4,0:0|0:0,0:0:0:0:
421,216,54879,1,2,0:0:0:0:
393,373,55064,1,4,0:0:0:0:
335,191,55250,2,0,L|332:111,1,50,2|0,0:0|0:0,0:0:0:0:
209,67,55435,6,0,B|248:84|248:84|346:74,1,100,4|2,0:0|0:0,0:0:0:0:
368,0,55805,1,4,0:0:0:0:
344,207,55990,1,2,0:0:0:0:
412,133,56176,1,4,0:0:0:0:
249,200,56361,2,0,L|112:195,1,100,2|4,0:0|0:0,0:0:0:0:
313,105,56731,1,2,0:0:0:0:
307,129,56824,1,0,0:0:0:0:
302,153,56916,1,4,0:0:0:0:
419,221,57102,6,0,B|388:211|388:211|281:240,1,100,2|4,0:0|0:0,0:0:0:0:
384,307,57472,1,2,0:0:0:0:
428,147,57657,1,4,0:0:0:0:
266,266,57842,2,0,P|228:272|134:253,1,100,2|4,0:0|0:0,0:0:0:0:
103,150,58120,1,0,0:0:0:0:
104,170,58213,1,2,0:0:0:0:
197,50,58398,5,4,0:0:0:0:
183,169,58583,2,0,L|252:157,1,50,4|0,0:0|0:0,0:0:0:0:
321,78,58768,1,4,0:0:0:0:
320,98,58861,1,0,0:0:0:0:
319,117,58953,1,4,0:0:0:0:
406,249,59139,2,0,L|340:247,1,50,4|0,0:0|0:0,0:0:0:0:
330,222,59324,6,0,B|282:184|282:183|207:175,1,119.999996337891,10|0,0:0|0:0,0:0:0:0:
191,189,59602,1,0,0:0:0:0:
131,191,59694,1,2,0:0:0:0:
170,304,59879,2,8,B|224:335|220:339|300:339,1,119.999996337891,10|8,0:0|0:0,0:0:0:0:
310,322,60157,1,0,0:0:0:0:
370,320,60250,1,2,0:0:0:0:
446,227,60435,5,6,0:0:0:0:
360,68,60620,1,8,0:0:0:0:
310,240,60805,1,8,0:0:0:0:
435,111,60990,1,2,0:0:0:0:
255,90,61176,2,0,L|191:78,1,59.9999981689454
254,175,61361,2,0,L|180:175,1,59.9999981689454,10|0,0:0|0:0,0:0:0:0:
271,250,61546,2,0,L|160:303,1,119.999996337891,10|0,0:0|0:0,0:0:0:0:
67,352,61916,1,2,0:0:0:0:
285,350,62102,1,8,0:0:0:0:
161,227,62287,6,0,L|94:189,1,59.9999981689454,10|0,0:0|0:0,0:0:0:0:
270,28,62657,1,2,0:0:0:0:
138,295,62842,6,0,L|68:240,1,59.9999981689454,10|0,0:0|0:0,0:0:0:0:
93,197,63027,1,8,0:0:0:0:
270,30,63213,2,0,L|350:30,1,59.9999981689454,2|0,0:0|0:0,0:0:0:0:
381,111,63398,2,0,L|308:111,1,59.9999981689454,2|0,0:0|0:0,0:0:0:0:
352,187,63583,2,8,L|219:187,1,119.999996337891,10|8,0:0|0:0,0:0:0:0:
231,226,63861,1,0,0:0:0:0:
229,260,63953,2,0,L|374:260,1,119.999996337891,2|0,0:0|0:0,0:0:0:0:
280,160,64324,1,8,0:0:0:0:
201,250,64509,5,12,0:0:0:0:
349,77,64694,1,0,0:0:0:0:
404,298,64879,5,4,0:0:0:0:
174,70,65064,1,8,0:0:0:0:
106,172,65250,6,0,P|90:249|156:347,1,182.999992460633,12|0,0:0|0:0,0:0:0:0:
163,344,65620,1,8,0:0:0:0:
284,341,65805,2,2,P|314:271|305:131,1,182.999992460633
287,140,66176,1,8,0:0:0:0:
393,81,66361,1,8,0:0:0:0:
309,243,66546,1,0,0:0:0:0:
480,180,66731,1,0,0:0:0:0:
306,123,66916,2,2,P|226:106|133:141,1,182.999992460633
306,123,67287,6,2,P|287:198|275:271,1,121.999994973755
420,357,67657,1,0,0:0:0:0:
280,246,67842,1,8,0:0:0:0:
120,155,68027,1,0,0:0:0:0:
133,313,68213,6,2,P|205:329|342:289,1,182.999992460633
322,287,68583,2,2,L|331:144,1,121.999994973755
233,39,68953,1,0,0:0:0:0:
182,190,69139,1,8,0:0:0:0:
358,142,69324,1,8,0:0:0:0:
303,316,69509,1,8,0:0:0:0:
485,313,69694,1,2,0:0:0:0:
298,209,69879,1,0,0:0:0:0:
225,304,70064,5,2,0:0:0:0:
160,223,70250,1,0,0:0:0:0:
149,121,70435,5,4,0:0:0:0:
328,85,70620,1,0,0:0:0:0:
397,250,70805,5,4,0:0:0:0:
219,82,70990,1,0,0:0:0:0:
450,12,71176,6,0,P|469:68|464:127,1,119.999996337891,2|0,0:0|0:0,0:0:0:0:
298,300,71546,1,2,0:0:0:0:
298,60,71731,2,0,B|342:137|342:137|320:193,1,119.999996337891,2|0,0:0|0:0,0:0:0:0:
103,245,72102,1,2,0:0:0:0:
15,21,72287,2,0,B|69:46|111:19|111:19|166:45,1,119.999996337891,2|0,0:0|0:0,0:0:0:0:
231,144,72657,5,0,0:0:0:0:
231,252,72842,1,2,0:0:0:0:
131,81,73027,1,0,0:0:0:0:
330,81,73213,1,2,0:0:0:0:
131,81,73398,2,0,L|68:190,1,119.999996337891,2|0,0:0|0:0,0:0:0:0:
390,184,73768,2,0,L|329:80,1,119.999996337891,2|0,0:0|0:0,0:0:0:0:
231,252,74139,6,0,P|303:280|359:254,1,119.999996337891,6|0,0:0|0:0,0:0:0:0:
484,106,74509,1,2,0:0:0:0:
268,106,74694,2,0,B|317:193|317:193|361:193,1,119.999996337891,6|0,0:0|0:0,0:0:0:0:
480,31,75064,1,2,0:0:0:0:
263,31,75250,1,6,0:0:0:0:
484,106,75435,6,0,L|394:208,1,100,2|0,0:0|0:0,0:0:0:0:
200,254,75805,2,0,L|267:180,1,100,2|0,0:0|0:0,0:0:0:0:
398,370,76176,1,2,0:0:0:0:
200,254,76361,2,0,P|135:239|88:276,1,110.000003356934,2|0,0:0|0:0,0:0:0:0:
312,339,76731,2,0,P|338:289|340:232,1,115.000002193451,2|0,0:0|0:0,0:0:0:0:
145,41,77102,6,0,P|141:100|155:158,1,119.999996337891,6|0,0:0|0:0,0:0:0:0:
312,339,77472,1,2,0:0:0:0:
360,104,77657,2,0,B|266:76|266:76|226:102,1,119.999996337891,6|0,0:0|0:0,0:0:0:0:
61,239,78027,1,2,0:0:0:0:
298,196,78213,2,0,P|353:146|357:90,2,119.999996337891,6|0|0,0:0|0:0|0:0,0:0:0:0:
100,128,78768,1,2,0:0:0:0:
271,110,78953,1,0,0:0:0:0:
167,247,79139,1,2,0:0:0:0:
190,31,79324,2,0,P|243:56|270:109,1,119.999996337891,2|0,0:0|0:0,0:0:0:0:
22,207,79694,2,0,P|46:153|99:127,1,119.999996337891,2|0,0:0|0:0,0:0:0:0:
319,276,80064,6,0,L|427:327,1,119.999996337891,6|0,0:0|0:0,0:0:0:0:
427,111,80435,1,2,0:0:0:0:
260,248,80620,2,0,L|368:299,1,119.999996337891,6|0,0:0|0:0,0:0:0:0:
368,83,80991,1,2,0:0:0:0:
201,220,81176,1,6,0:0:0:0:
426,111,81361,6,0,P|429:62|397:25,1,100,2|0,0:0|0:0,0:0:0:0:
142,191,81731,2,0,P|139:239|171:277,1,100,2|0,0:0|0:0,0:0:0:0:
370,303,82102,1,2,0:0:0:0:
265,111,82287,2,0,L|265:0,1,110.000003356934,6|0,0:0|0:0,0:0:0:0:
454,218,82657,2,0,L|368:303,1,119.999996337891,6|0,0:0|0:0,0:0:0:0:
170,280,83027,5,6,0:0:0:0:
267,257,83213,1,8,0:0:0:0:
152,359,83398,1,2,0:0:0:0:
63,232,83583,1,0,0:0:0:0:
317,192,83768,2,0,P|348:253|328:311,1,100,2|8,0:0|0:0,0:0:0:0:
344,101,84139,2,0,P|313:162|333:220,1,100,2|0,0:0|0:0,0:0:0:0:
317,192,84509,2,0,P|348:253|328:311,1,100,2|8,0:0|0:0,0:0:0:0:
391,166,84879,5,2,0:0:0:0:
315,355,85064,1,0,0:0:0:0:
299,30,85250,2,0,P|364:24|416:52,1,100,2|8,0:0|0:0,0:0:0:0:
202,23,85620,2,0,P|249:37|298:29,1,100,2|0,0:0|0:0,0:0:0:0:
105,29,85990,2,0,P|152:14|201:22,1,100,2|8,0:0|0:0,0:0:0:0:
343,101,86361,1,2,0:0:0:0:
243,110,86546,5,0,0:0:0:0:
445,167,86731,2,0,P|441:122|453:67,1,100,2|8,0:0|0:0,0:0:0:0:
453,264,87102,2,0,P|456:214|444:166,1,100,2|0,0:0|0:0,0:0:0:0:
259,266,87472,6,0,B|297:278|297:278|382:269,1,100,2|8,0:0|0:0,0:0:0:0:
161,271,87842,2,0,B|199:259|199:259|284:268,1,100,2|8,0:0|0:0,0:0:0:0:
259,266,88213,2,0,B|297:278|297:278|382:269,1,100,2|8,0:0|0:0,0:0:0:0:
161,271,88583,2,0,B|199:259|199:259|284:268,1,100,2|8,0:0|0:0,0:0:0:0:
356,271,88953,2,0,B|296:277|296:277|262:266|262:266|197:259|197:259|110:291,1,195.999998205566,2|0,0:0|0:0,0:0:0:0:
260,363,89324,5,2,0:0:0:0:
315,188,89509,1,8,0:0:0:0:
89,241,89694,2,0,P|94:314|122:343,1,100,2|0,0:0|0:0,0:0:0:0:
109,149,90064,2,0,P|104:222|76:251,1,100,2|8,0:0|0:0,0:0:0:0:
89,241,90435,2,0,P|94:314|122:343,1,100,2|0,0:0|0:0,0:0:0:0:
35,181,90805,5,2,0:0:0:0:
172,363,90990,1,8,0:0:0:0:
195,130,91176,2,0,L|204:23,1,100,2|0,0:0|0:0,0:0:0:0:
203,229,91546,2,0,L|194:129,1,100,2|8,0:0|0:0,0:0:0:0:
340,52,91916,2,0,P|399:57|450:77,1,100,2|0,0:0|0:0,0:0:0:0:
497,5,92287,5,2,0:0:0:0:
440,208,92472,1,8,0:0:0:0:
340,52,92657,2,0,L|207:64,1,100,2|0,0:0|0:0,0:0:0:0:
439,60,93027,2,0,L|339:51,1,100,2|8,0:0|0:0,0:0:0:0:
230,241,93398,6,0,L|227:130,1,100,2|8,0:0|0:0,0:0:0:0:
310,114,93768,2,0,L|307:201,1,88.0000026855469,2|8,0:0|0:0,0:0:0:0:
388,260,94139,2,0,L|385:184,1,75.9999990722656,2|8,0:0|0:0,0:0:0:0:
464,119,94509,2,0,L|459:182,1,64,2|8,0:0|0:0,0:0:0:0:
352,291,94879,6,0,P|247:301|159:266,1,189.999994926453,4|0,0:0|0:0,0:0:0:0:
129,185,95435,1,0,0:0:0:0:
107,277,95620,1,8,0:0:0:0:
181,217,95805,2,2,L|194:150,1,47.4999987316132
181,215,96176,2,2,B|214:163|266:208|302:241|374:163,1,189.999994926453
281,121,96731,1,0,0:0:0:0:
327,298,96916,2,2,B|360:246|412:291|448:324|520:246,1,189.999994926453
428,201,97472,1,0,0:0:0:0:
359,355,97657,1,0,0:0:0:0:
268,327,97842,6,0,P|235:273|263:131,1,189.999994926453,8|0,0:0|0:0,0:0:0:0:
150,260,98398,1,0,0:0:0:0:
162,232,98490,1,0,0:0:0:0:
170,209,98583,1,0,0:0:0:0:
237,141,98768,1,0,0:0:0:0:
372,98,98953,1,8,0:0:0:0:
137,97,99139,1,0,0:0:0:0:
148,238,99324,6,2,P|236:214|258:216,1,94.9999974632264,2|0,0:0|0:0,0:0:0:0:
377,246,99694,2,2,P|329:284|268:305,1,94.9999974632264,2|0,0:0|0:0,0:0:0:0:
213,183,100064,1,8,0:0:0:0:
143,58,100250,1,8,0:0:0:0:
271,312,100620,1,8,0:0:0:0:
413,306,100805,6,0,P|422:229|359:110,1,189.999994926453,8|0,0:0|0:0,0:0:0:0:
263,214,101361,1,0,0:0:0:0:
249,180,101453,1,0,0:0:0:0:
223,151,101546,1,0,0:0:0:0:
80,155,101731,2,2,L|84:95,1,47.4999987316132
81,155,102102,2,2,P|127:198|126:329,1,189.999994926453
62,254,102657,1,0,0:0:0:0:
123,112,102842,2,2,P|194:189|177:351,1,250
62,254,103398,1,0,0:0:0:0:
156,245,103583,1,0,0:0:0:0:
233,299,103768,6,0,P|275:258|295:124,1,189.999994926453,8|0,0:0|0:0,0:0:0:0:
210,171,104324,1,0,0:0:0:0:
344,259,104509,1,2,0:0:0:0:
187,296,104694,1,0,0:0:0:0:
326,117,104879,1,2,0:0:0:0:
104,202,105064,1,0,0:0:0:0:
196,344,105250,6,0,P|158:288|158:235,1,94.9999974632264,2|0,0:0|0:0,0:0:0:0:
235,213,105620,1,0,0:0:0:0:
270,31,105805,2,8,P|275:94|231:217,1,189.999994926453
188,105,106361,1,8,0:0:0:0:
369,233,106546,1,8,0:0:0:0:
167,325,106731,6,0,P|156:249|181:211,2,100,6|0|2,0:0|0:0|0:0,0:0:0:0:
304,262,107287,1,0,0:0:0:0:
215,168,107472,1,8,0:0:0:0:
311,75,107657,1,0,0:0:0:0:
326,94,107749,1,0,0:0:0:0:
335,117,107842,1,2,0:0:0:0:
337,142,107934,1,0,0:0:0:0:
331,166,108027,6,0,P|273:205|232:191,1,100,0|8,0:0|0:0,0:0:0:0:
92,129,108398,1,0,0:0:0:0:
80,151,108490,1,0,0:0:0:0:
74,175,108583,1,2,0:0:0:0:
74,200,108675,1,0,0:0:0:0:
79,224,108768,2,8,P|165:279|239:197,1,200
213,63,109324,1,2,0:0:0:0:
156,195,109509,1,0,0:0:0:0:
387,223,109694,6,0,P|308:171|232:226,1,200,6|2,0:0|0:0,0:0:0:0:
183,335,110250,1,0,0:0:0:0:
359,362,110435,1,8,0:0:0:0:
310,253,110620,1,0,0:0:0:0:
437,312,110805,1,2,0:0:0:0:
417,194,110990,6,0,P|368:160|320:166,1,100,8|0,0:0|0:0,0:0:0:0:
216,123,111361,2,0,P|265:89|313:95,1,100,8|2,0:0|0:0,0:0:0:0:
417,52,111731,1,8,0:0:0:0:
390,26,111823,1,0,0:0:0:0:
354,16,111916,1,2,0:0:0:0:
216,123,112102,1,8,0:0:0:0:
329,162,112287,1,2,0:0:0:0:
206,13,112472,1,8,0:0:0:0:
108,215,112657,6,0,P|153:286|261:263,1,200,6|2,0:0|0:0,0:0:0:0:
283,113,113213,1,0,0:0:0:0:
191,213,113398,1,8,0:0:0:0:
190,245,113490,1,0,0:0:0:0:
201,275,113583,1,0,0:0:0:0:
223,299,113675,1,0,0:0:0:0:
252,313,113768,1,2,0:0:0:0:
284,315,113860,1,0,0:0:0:0:
315,305,113953,5,0,0:0:0:0:
414,220,114139,1,8,0:0:0:0:
293,174,114324,2,0,P|357:166|400:206,1,100,0|2,0:0|0:0,0:0:0:0:
260,213,114694,2,8,P|338:161|413:219,1,200
292,320,115250,1,2,0:0:0:0:
236,181,115435,1,0,0:0:0:0:
430,295,115620,5,6,0:0:0:0:
486,156,115805,2,0,P|411:195|464:311,1,200
486,156,116361,1,8,0:0:0:0:
382,62,116546,1,0,0:0:0:0:
325,190,116731,1,2,0:0:0:0:
300,183,116823,1,0,0:0:0:0:
279,170,116916,2,0,P|257:113|278:79,1,100,2|8,0:0|0:0,0:0:0:0:
226,221,117287,5,2,0:0:0:0:
208,203,117379,1,0,0:0:0:0:
194,179,117472,1,0,0:0:0:0:
124,198,117657,1,2,0:0:0:0:
118,173,117749,1,0,0:0:0:0:
118,144,117842,2,0,P|135:108|150:100,1,50
205,62,118027,2,0,P|218:99|213:115,1,50,2|0,0:0|0:0,0:0:0:0:
201,181,118213,2,0,P|164:164|157:149,1,50,2|0,0:0|0:0,0:0:0:0:
119,94,118398,2,0,P|156:80|172:85,1,50,2|0,0:0|0:0,0:0:0:0:
