osu file format v14

[General]
AudioFilename: audio.mp3
AudioLeadIn: 0
PreviewTime: 21882
Countdown: 1
SampleSet: Normal
StackLeniency: 0.7
Mode: 0
LetterboxInBreaks: 0
WidescreenStoryboard: 0

[Editor]
DistanceSpacing: 0.5
BeatDivisor: 3
GridSize: 4
TimelineZoom: 1.2

[Metadata]
Title:Ghost Town
TitleUnicode:Ghost Town
Artist:Blythe Joustra
ArtistUnicode:Blythe Joustra
Creator:Nitronic Techno
Version:Ghost Town!
Source:Crash Bandicoot
Tags:
BeatmapID:1290626
BeatmapSetID:611352

[Difficulty]
HPDrainRate:5.5
CircleSize:4
OverallDifficulty:8
ApproachRate:9.3
SliderMultiplier:2.5
SliderTickRate:2

[Events]
//Background and Video events
0,0,"Wocghosttown.png",0,0
//Break Periods
//Storyboard Layer 0 (Background)
//Storyboard Layer 1 (Fail)
//Storyboard Layer 2 (Pass)
//Storyboard Layer 3 (Foreground)
//Storyboard Sound Samples

[TimingPoints]
64,340.909090909091,4,1,0,50,1,0
5518,-83.3333333333333,4,1,0,50,0,0
10973,-125,4,1,0,50,0,0
21882,-100,4,1,0,50,0,0
26314,-83.3333333333333,4,1,0,50,0,0
26654,-71.4285714285714,4,1,0,50,0,0
26995,-62.5,4,1,0,50,0,0
27336,-100,4,1,0,50,0,1
43700,-133.333333333333,4,1,0,50,0,0
49154,-125,4,1,0,50,0,0
54609,-100,4,1,0,50,0,0
65518,-83.3333333333333,4,1,0,50,0,0
76427,-95.2380952380952,4,1,0,50,0,0
81882,-95.2380952380952,4,1,0,50,0,0
87336,-111.111111111111,4,1,0,50,0,0
98245,-100,4,1,0,50,0,1
109154,-133.333333333333,4,1,0,50,0,0
114609,-117.647058823529,4,1,0,50,0,0

[HitObjects]
69,348,64,6,0,P|79:280|185:238,1,166.666666666667
154,320,404,2,0,P|220:338|373:219,2,250
121,79,1314,1,0,0:0:0:0:
75,132,1427,6,0,P|72:216|150:334,1,166.666666666667
201,317,1768,2,0,L|279:149,1,166.666666666667
179,124,2109,2,0,P|227:56|316:32,1,166.666666666667
384,92,2450,2,0,P|437:135|445:252,1,166.666666666667
386,282,2791,6,0,P|264:288|190:259,1,166.666666666667
214,190,3132,2,0,P|124:195|42:336,2,250
378,75,4041,1,0,0:0:0:0:
310,40,4154,6,0,P|231:44|197:143,1,166.666666666667
292,115,4495,2,0,P|291:190|201:241,1,166.666666666667
175,151,4836,2,0,P|109:176|115:280,1,166.666666666667
194,299,5177,2,0,P|274:340|378:334,1,166.666666666667
467,363,5518,6,0,P|488:270|458:160,1,199.999993896485
341,33,5859,2,0,P|320:113|357:275,1,199.999993896485
216,355,6200,2,0,P|238:265|213:115,1,199.999993896485
128,33,6541,2,0,P|104:133|125:265,1,199.999993896485
75,340,6882,5,0,0:0:0:0:
276,161,7109,1,0,0:0:0:0:
366,163,7223,1,0,0:0:0:0:
101,112,7450,1,0,0:0:0:0:
99,202,7564,1,0,0:0:0:0:
325,282,7791,2,0,L|240:337,2,99.9999969482423
390,272,8132,1,0,0:0:0:0:
436,221,8245,6,0,P|434:134|310:80,1,199.999993896485
190,77,8586,2,0,P|90:114|76:212,1,199.999993896485
145,173,8927,2,0,P|226:153|347:183,1,199.999993896485
251,261,9268,2,0,P|333:321|431:298,1,199.999993896485
367,209,9609,6,0,P|394:138|412:229,1,199.999993896485
294,208,9950,2,0,P|317:112|444:107,1,199.999993896485
299,28,10291,2,0,P|210:76|111:130,1,199.999993896485
60,176,10632,1,0,0:0:0:0:
65,267,10745,1,0,0:0:0:0:
150,309,10859,1,0,0:0:0:0:
241,346,10973,6,0,P|299:255|401:241,1,200
236,47,11654,2,0,P|188:119|111:149,1,133.333333333333
72,153,11995,1,0,0:0:0:0:
213,346,12336,6,0,L|213:124,1,200
435,55,13018,2,0,P|378:124|369:193,1,133.333333333333
366,242,13359,2,0,P|351:334|289:338,1,133.333333333333
246,348,13700,6,0,L|36:348,1,200
230,193,14382,2,0,L|387:193,1,133.333333333333
412,142,14723,2,0,L|263:143,1,133.333333333333
230,90,15064,6,0,P|155:138|119:277,1,200
264,339,15632,1,0,0:0:0:0:
208,316,15745,2,0,P|260:273|311:329,1,133.333333333333
189,233,16086,2,0,P|228:215|336:243,1,133.333333333333
404,277,16427,6,0,P|408:211|289:98,1,200
89,85,17109,2,0,P|126:151|127:240,1,133.333333333333
69,247,17450,2,0,P|121:282|197:247,1,133.333333333333
261,231,17791,6,0,P|314:199|470:187,1,200
291,95,18359,1,0,0:0:0:0:
230,100,18473,2,0,P|154:134|126:210,1,133.333333333333
150,252,18814,1,0,0:0:0:0:
224,272,18927,2,0,P|262:276|312:266,2,66.6666666666667
55,100,19495,6,0,P|153:88|194:101,1,133.333333333333
242,60,19836,2,0,P|302:97|335:184,1,133.333333333333
395,167,20177,2,0,P|389:238|352:314,1,133.333333333333
305,341,20518,6,0,P|217:353|104:317,1,200
56,238,20973,2,0,P|45:194|53:162,1,66.6666666666667
129,118,21200,2,0,P|181:111|306:135,1,150
129,118,21541,2,0,P|134:217|186:279,1,150
233,279,21882,5,0,0:0:0:0:
332,288,21995,1,0,0:0:0:0:
405,219,22109,1,0,0:0:0:0:
416,119,22223,5,0,0:0:0:0:
334,61,22336,1,0,0:0:0:0:
233,67,22450,1,0,0:0:0:0:
175,149,22564,5,0,0:0:0:0:
157,246,22677,1,0,0:0:0:0:
238,305,22791,1,0,0:0:0:0:
332,275,22904,6,0,L|417:287,2,83.3333333333333
110,230,23245,2,0,L|24:220,2,83.3333333333333
339,154,23586,2,0,L|432:120,2,83.3333333333333
142,337,23927,2,0,L|56:388,2,83.3333333333333
228,154,24268,2,0,L|228:54,2,83.3333333333333
298,224,24609,6,0,P|408:232|497:119,1,250
295,161,25177,1,0,0:0:0:0:
236,242,25291,2,0,P|135:296|39:265,1,166.666666666667
131,200,25632,2,0,P|166:305|253:349,1,166.666666666667
264,253,25973,6,0,P|291:181|318:225,1,166.666666666667
325,214,26314,2,0,P|287:181|267:278,1,199.999993896485
261,276,26654,2,0,P|237:190|346:216,1,233.333326212565
342,202,26995,2,0,P|233:179|249:304,1,266.666666666667
320,306,27336,5,0,0:0:0:0:
400,327,27450,1,0,0:0:0:0:
474,365,27564,1,0,0:0:0:0:
462,282,27677,5,0,0:0:0:0:
437,202,27791,1,0,0:0:0:0:
412,122,27904,1,0,0:0:0:0:
358,185,28018,5,0,0:0:0:0:
308,252,28132,1,0,0:0:0:0:
259,319,28245,1,0,0:0:0:0:
180,346,28359,1,0,0:0:0:0:
97,357,28473,1,0,0:0:0:0:
29,309,28586,1,0,0:0:0:0:
50,228,28700,5,0,0:0:0:0:
113,173,28814,1,0,0:0:0:0:
134,253,28927,1,0,0:0:0:0:
50,228,29041,5,0,0:0:0:0:
118,154,29155,1,0,0:0:0:0:
151,247,29268,1,0,0:0:0:0:
50,228,29382,5,0,0:0:0:0:
125,138,29496,1,0,0:0:0:0:
169,245,29609,1,0,0:0:0:0:
50,228,29723,5,0,0:0:0:0:
135,126,29836,1,0,0:0:0:0:
213,234,29950,1,0,0:0:0:0:
286,273,30064,6,0,L|384:285,2,83.3333333333333
202,125,30404,2,0,L|222:40,2,83.3333333333333
72,278,30745,2,0,L|5:338,2,83.3333333333333
323,155,31086,2,0,L|428:143,2,83.3333333333333
99,151,31427,2,0,L|6:92,2,83.3333333333333
313,326,31768,2,0,L|435:374,2,83.3333333333333
227,114,32109,2,0,L|238:22,2,83.3333333333333
206,318,32450,2,0,L|194:407,2,83.3333333333333
214,196,32791,5,0,0:0:0:0:
288,144,32904,1,0,0:0:0:0:
307,54,33018,1,0,0:0:0:0:
388,96,33132,5,0,0:0:0:0:
478,86,33245,1,0,0:0:0:0:
470,177,33359,1,0,0:0:0:0:
475,268,33473,5,0,0:0:0:0:
384,254,33586,1,0,0:0:0:0:
333,330,33700,1,0,0:0:0:0:
298,244,33814,5,0,0:0:0:0:
302,152,33927,1,0,0:0:0:0:
222,192,34041,1,0,0:0:0:0:
131,200,34154,6,0,L|39:189,2,83.3333333333333
310,140,34495,2,0,L|367:55,2,83.3333333333333
379,264,34836,2,0,L|473:315,2,83.3333333333333
225,279,35177,2,0,L|165:374,2,83.3333333333333
219,162,35518,5,0,0:0:0:0:
302,124,35632,1,0,0:0:0:0:
390,144,35745,1,0,0:0:0:0:
417,231,35859,1,0,0:0:0:0:
375,313,35973,1,0,0:0:0:0:
287,338,36086,1,0,0:0:0:0:
199,308,36200,1,0,0:0:0:0:
158,225,36314,1,0,0:0:0:0:
158,133,36427,1,0,0:0:0:0:
217,63,36541,1,0,0:0:0:0:
307,54,36654,1,0,0:0:0:0:
393,84,36768,1,0,0:0:0:0:
447,158,36882,6,0,L|466:264,2,83.3333333333333
65,158,37223,2,0,L|50:240,2,83.3333333333333
373,192,37564,2,0,L|386:290,2,83.3333333333333
139,192,37904,2,0,L|128:274,2,83.3333333333333
351,81,38245,6,0,L|456:81,2,83.3333333333333
255,249,38586,2,0,L|255:355,2,83.3333333333333
161,81,38927,2,0,L|56:81,5,83.3333333333333
53,169,39609,5,0,0:0:0:0:
142,188,39723,1,0,0:0:0:0:
203,295,39836,1,0,0:0:0:0:
294,301,39950,5,0,0:0:0:0:
372,252,40064,1,0,0:0:0:0:
358,128,40177,1,0,0:0:0:0:
284,72,40291,5,0,0:0:0:0:
193,80,40404,1,0,0:0:0:0:
139,193,40518,1,0,0:0:0:0:
141,284,40632,5,0,0:0:0:0:
206,347,40745,1,0,0:0:0:0:
324,307,40859,1,0,0:0:0:0:
388,241,40973,6,0,L|407:144,2,83.3333333333333
314,119,41314,2,0,L|294:33,2,83.3333333333333
203,232,41654,2,0,L|173:362,2,83.3333333333333
110,113,41995,2,0,L|64:35,2,83.3333333333333
93,200,42336,5,0,0:0:0:0:
88,216,42450,1,0,0:0:0:0:
83,232,42564,1,0,0:0:0:0:
78,247,42677,1,0,0:0:0:0:
73,263,42791,1,0,0:0:0:0:
68,278,42904,1,0,0:0:0:0:
66,294,43018,6,0,L|58:342,1,41.6666666666667
99,302,43132,2,0,L|89:351,1,41.6666666666667
137,309,43245,2,0,L|127:361,1,41.6666666666667
176,312,43359,2,0,L|163:372,1,41.6666666666667
216,309,43473,2,0,L|207:370,1,41.6666666666667
258,307,43586,2,0,L|247:361,1,41.6666666666667
318,293,43700,6,0,L|389:293,2,62.5000023841859
294,228,44041,2,0,L|207:228,2,62.5000023841859
348,186,44382,2,0,P|282:127|226:123,1,125.000004768372
184,146,44723,1,0,0:0:0:0:
161,203,44836,1,0,0:0:0:0:
177,263,44950,1,0,0:0:0:0:
228,298,45064,6,0,P|311:321|378:300,1,125.000004768372
400,281,45404,2,0,P|442:209|443:157,1,125.000004768372
428,108,45745,2,0,P|373:62|302:61,1,125.000004768372
275,98,46086,2,0,P|176:126|130:96,1,125.000004768372
120,71,46427,6,0,P|65:135|66:180,1,125.000004768372
78,233,46768,2,0,P|127:284|195:300,1,125.000004768372
239,288,47109,2,0,P|326:280|396:310,1,125.000004768372
417,316,47450,2,0,B|479:353|479:353|470:275,1,125.000004768372
471,237,47791,6,0,P|449:169|400:126,1,125.000004768372
353,109,48132,2,0,P|248:113|182:142,1,125.000004768372
176,152,48473,1,0,0:0:0:0:
147,207,48586,1,0,0:0:0:0:
143,269,48700,1,0,0:0:0:0:
170,325,48814,1,0,0:0:0:0:
228,346,48927,1,0,0:0:0:0:
290,341,49041,1,0,0:0:0:0:
348,310,49154,5,0,0:0:0:0:
407,278,49268,1,0,0:0:0:0:
354,236,49382,1,0,0:0:0:0:
297,201,49495,5,0,0:0:0:0:
248,154,49609,1,0,0:0:0:0:
314,144,49723,1,0,0:0:0:0:
380,144,49836,5,0,0:0:0:0:
446,144,49950,1,0,0:0:0:0:
413,202,50064,1,0,0:0:0:0:
376,257,50177,5,0,0:0:0:0:
339,313,50291,1,0,0:0:0:0:
300,259,50404,1,0,0:0:0:0:
259,205,50518,5,0,0:0:0:0:
218,151,50632,1,0,0:0:0:0:
182,206,50745,1,0,0:0:0:0:
147,263,50859,5,0,0:0:0:0:
117,323,50973,1,0,0:0:0:0:
182,329,51086,1,0,0:0:0:0:
248,324,51200,5,0,0:0:0:0:
314,319,51314,1,0,0:0:0:0:
275,264,51427,1,0,0:0:0:0:
235,209,51541,5,0,0:0:0:0:
192,157,51654,1,0,0:0:0:0:
156,213,51768,1,0,0:0:0:0:
122,270,51882,6,0,P|46:283|43:216,1,133.333333333333
49,178,52223,1,0,0:0:0:0:
94,129,52336,2,0,P|165:106|230:109,1,133.333333333333
289,100,52677,1,0,0:0:0:0:
353,119,52791,1,0,0:0:0:0:
404,160,52904,1,0,0:0:0:0:
429,221,53018,1,0,0:0:0:0:
435,287,53132,1,0,0:0:0:0:
397,341,53245,6,0,L|361:407,2,66.6666666666667
334,228,53586,2,0,L|363:152,2,66.6666666666667
180,316,53927,2,0,L|138:403,2,66.6666666666667
122,56,54268,2,0,L|169:-6,2,66.6666666666667
14,291,54609,5,0,0:0:0:0:
498,93,54950,1,0,0:0:0:0:
195,378,55291,1,0,0:0:0:0:
317,6,55518,1,0,0:0:0:0:
317,6,55632,1,0,0:0:0:0:
449,377,55973,1,0,0:0:0:0:
63,7,56314,1,0,0:0:0:0:
510,284,56654,1,0,0:0:0:0:
2,100,56882,1,0,0:0:0:0:
2,100,56995,1,0,0:0:0:0:
281,61,57336,6,0,P|374:100|431:243,1,250
211,350,58018,2,0,P|132:289|111:181,1,166.666666666667
109,144,58359,1,0,0:0:0:0:
257,92,58700,2,0,L|257:352,1,250
257,175,59268,1,0,0:0:0:0:
256,228,59382,1,0,0:0:0:0:
257,209,59609,1,0,0:0:0:0:
256,156,59723,1,0,0:0:0:0:
498,291,60064,5,0,0:0:0:0:
14,93,60405,1,0,0:0:0:0:
317,378,60746,1,0,0:0:0:0:
195,6,60973,1,0,0:0:0:0:
195,6,61087,1,0,0:0:0:0:
63,377,61428,1,0,0:0:0:0:
449,7,61769,1,0,0:0:0:0:
2,284,62109,1,0,0:0:0:0:
510,100,62337,1,0,0:0:0:0:
510,100,62450,1,0,0:0:0:0:
263,56,62791,5,0,0:0:0:0:
185,84,62904,1,0,0:0:0:0:
137,152,63018,1,0,0:0:0:0:
116,232,63132,1,0,0:0:0:0:
167,296,63245,1,0,0:0:0:0:
236,342,63359,1,0,0:0:0:0:
319,333,63473,5,0,0:0:0:0:
373,270,63586,1,0,0:0:0:0:
390,188,63700,1,0,0:0:0:0:
373,105,63814,1,0,0:0:0:0:
303,59,63927,1,0,0:0:0:0:
219,64,64041,1,0,0:0:0:0:
174,133,64154,5,0,0:0:0:0:
255,271,65177,6,0,L|256:177,2,83.3333333333333
179,336,65518,5,0,0:0:0:0:
80,315,65632,1,0,0:0:0:0:
67,216,65745,1,0,0:0:0:0:
150,159,65859,1,0,0:0:0:0:
188,66,65973,1,0,0:0:0:0:
284,42,66086,1,0,0:0:0:0:
378,77,66200,6,0,L|463:154,2,99.9999969482423
400,237,66541,2,0,L|506:247,2,99.9999969482423
314,288,66882,5,0,0:0:0:0:
225,333,66995,1,0,0:0:0:0:
124,337,67109,1,0,0:0:0:0:
62,257,67223,1,0,0:0:0:0:
77,158,67336,1,0,0:0:0:0:
152,91,67450,1,0,0:0:0:0:
252,85,67564,6,0,L|396:86,2,99.9999969482423
142,195,67904,2,0,L|21:195,2,99.9999969482423
234,233,68245,5,0,0:0:0:0:
329,262,68359,1,0,0:0:0:0:
418,216,68473,1,0,0:0:0:0:
427,117,68586,1,0,0:0:0:0:
361,40,68700,1,0,0:0:0:0:
260,39,68814,1,0,0:0:0:0:
179,96,68927,6,0,L|129:193,2,99.9999969482423
260,259,69268,2,0,L|230:361,2,99.9999969482423
348,211,69609,5,0,0:0:0:0:
439,169,69723,1,0,0:0:0:0:
440,69,69836,1,0,0:0:0:0:
351,21,69950,1,0,0:0:0:0:
264,72,70064,1,0,0:0:0:0:
265,171,70177,1,0,0:0:0:0:
350,223,70291,6,0,L|425:294,2,99.9999969482423
104,142,70632,2,0,L|20:71,2,99.9999969482423
130,238,70973,5,0,0:0:0:0:
162,331,71086,1,0,0:0:0:0:
262,331,71200,1,0,0:0:0:0:
309,242,71314,1,0,0:0:0:0:
273,148,71427,1,0,0:0:0:0:
172,143,71541,1,0,0:0:0:0:
132,51,71654,6,0,L|251:51,2,99.9999969482423
132,190,71995,2,0,L|132:308,2,99.9999969482423
225,152,72336,6,0,P|346:189|449:181,1,199.999993896485
374,96,72677,1,0,0:0:0:0:
312,175,72791,1,0,0:0:0:0:
326,273,72904,1,0,0:0:0:0:
405,334,73018,1,0,0:0:0:0:
463,252,73132,1,0,0:0:0:0:
445,154,73245,1,0,0:0:0:0:
361,99,73359,2,0,L|245:49,2,99.9999969482423
284,163,73700,6,0,L|158:207,2,99.9999969482423
197,111,74041,2,0,L|78:83,2,99.9999969482423
248,197,74382,1,0,0:0:0:0:
338,237,74495,1,0,0:0:0:0:
427,192,74609,1,0,0:0:0:0:
427,91,74723,1,0,0:0:0:0:
339,43,74836,1,0,0:0:0:0:
238,44,74950,1,0,0:0:0:0:
137,39,75064,5,0,0:0:0:0:
127,40,75177,1,0,0:0:0:0:
117,41,75291,1,0,0:0:0:0:
107,42,75404,1,0,0:0:0:0:
96,41,75518,1,0,0:0:0:0:
85,40,75632,1,0,0:0:0:0:
75,40,75745,6,0,L|24:39,1,49.9999984741211
77,78,75859,2,0,L|18:77,1,49.9999984741211
83,120,75973,2,0,L|15:120,1,49.9999984741211
93,158,76086,2,0,L|24:158,1,49.9999984741211
105,192,76200,2,0,L|45:192,1,49.9999984741211
119,228,76314,2,0,L|51:226,1,49.9999984741211
124,255,76427,6,0,P|216:291|319:281,1,174.999994659424
401,360,76768,2,0,P|435:265|406:147,1,174.999994659424
327,48,77109,6,0,P|246:129|145:117,1,174.999994659424
99,38,77450,2,0,P|69:137|110:237,1,174.999994659424
230,304,77791,6,0,P|306:217|425:216,1,174.999994659424
394,76,78132,2,0,P|290:113|199:103,1,174.999994659424
104,236,78473,6,0,B|66:344|66:344|157:351,1,174.999994659424
254,320,78814,2,0,B|278:212|278:212|200:204,1,174.999994659424
93,154,79154,5,0,0:0:0:0:
351,104,79382,1,0,0:0:0:0:
414,218,79495,1,0,0:0:0:0:
172,323,79723,1,0,0:0:0:0:
129,199,79836,1,0,0:0:0:0:
350,56,80064,1,0,0:0:0:0:
422,164,80177,1,0,0:0:0:0:
377,287,80291,5,0,0:0:0:0:
255,334,80404,1,0,0:0:0:0:
125,308,80518,6,0,P|79:200|117:101,1,174.999994659424
203,81,80859,2,0,P|315:119|340:177,1,174.999994659424
419,318,81200,6,0,P|463:219|442:123,1,174.999994659424
368,56,81541,2,0,P|349:184|380:239,1,174.999994659424
438,32,81882,6,0,L|197:51,1,174.999994659424
48,80,82223,6,0,L|289:99,1,174.999994659424
449,115,82564,6,0,L|208:134,1,174.999994659424
59,163,82905,6,0,L|300:182,1,174.999994659424
451,210,83245,6,0,L|210:229,1,174.999994659424
61,258,83586,6,0,L|302:277,1,174.999994659424
462,293,83927,6,0,L|221:312,1,174.999994659424
72,341,84268,6,0,L|313:360,1,174.999994659424
334,349,84609,6,0,P|431:295|453:223,1,174.999994659424
425,155,84950,1,0,0:0:0:0:
364,91,85064,1,0,0:0:0:0:
278,74,85177,1,0,0:0:0:0:
190,85,85291,2,0,P|91:131|43:188,1,174.999994659424
70,264,85632,1,0,0:0:0:0:
151,293,85745,1,0,0:0:0:0:
238,300,85859,1,0,0:0:0:0:
322,274,85973,6,0,L|427:275,2,87.499997329712
250,223,86314,2,0,L|142:223,2,87.499997329712
316,167,86654,2,0,L|419:167,2,87.499997329712
253,105,86995,2,0,L|142:105,2,87.499997329712
321,50,87336,5,0,0:0:0:0:
396,52,87450,1,0,0:0:0:0:
399,127,87564,1,0,0:0:0:0:
324,130,87677,2,0,L|160:130,1,149.999995422363
98,131,88018,5,0,0:0:0:0:
22,134,88132,1,0,0:0:0:0:
22,208,88245,1,0,0:0:0:0:
97,209,88359,2,0,L|266:209,1,149.999995422363
322,208,88700,5,0,0:0:0:0:
397,208,88814,1,0,0:0:0:0:
396,282,88927,1,0,0:0:0:0:
320,284,89041,2,0,L|139:284,1,149.999995422363
94,284,89382,5,0,0:0:0:0:
19,284,89495,1,0,0:0:0:0:
20,359,89609,1,0,0:0:0:0:
95,355,89723,2,0,L|273:355,1,149.999995422363
305,309,90064,5,0,0:0:0:0:
370,345,90177,1,0,0:0:0:0:
445,344,90291,1,0,0:0:0:0:
488,283,90404,2,0,P|450:176|383:135,1,149.999995422363
351,136,90745,5,0,0:0:0:0:
276,124,90859,1,0,0:0:0:0:
226,180,90973,1,0,0:0:0:0:
247,251,91086,2,0,B|247:326|247:326|155:326,1,149.999995422363
101,298,91427,5,0,0:0:0:0:
88,223,91541,1,0,0:0:0:0:
139,168,91654,1,0,0:0:0:0:
214,169,91768,2,0,L|365:200,1,149.999995422363
409,141,92109,5,0,0:0:0:0:
444,74,92223,1,0,0:0:0:0:
373,50,92336,1,0,0:0:0:0:
345,119,92450,2,0,L|287:277,1,149.999995422363
233,305,92791,5,0,0:0:0:0:
168,342,92904,1,0,0:0:0:0:
92,340,93018,1,0,0:0:0:0:
31,294,93132,2,0,L|86:116,1,149.999995422363
137,109,93473,5,0,0:0:0:0:
224,92,93586,1,0,0:0:0:0:
121,84,93700,1,0,0:0:0:0:
241,134,93814,2,0,L|420:200,1,149.999995422363
431,241,94154,5,0,0:0:0:0:
339,256,94268,1,0,0:0:0:0:
443,290,94382,1,0,0:0:0:0:
342,199,94495,2,0,P|246:178|176:212,1,149.999995422363
162,259,94836,5,0,0:0:0:0:
125,324,94950,1,0,0:0:0:0:
49,327,95064,1,0,0:0:0:0:
24,256,95177,2,0,B|79:198|79:198|79:109,1,149.999995422363
143,89,95518,5,0,0:0:0:0:
211,58,95632,1,0,0:0:0:0:
285,56,95745,1,0,0:0:0:0:
350,92,95859,2,0,B|437:136|437:136|438:224,1,149.999995422363
409,258,96200,5,0,0:0:0:0:
354,309,96314,1,0,0:0:0:0:
284,337,96427,1,0,0:0:0:0:
208,340,96541,2,0,B|88:340|88:340|90:291,1,149.999995422363
37,254,96882,6,0,L|-50:177,2,74.9999977111817
228,296,97223,2,0,L|291:367,2,74.9999977111817
196,75,97564,2,0,L|135:-10,2,74.9999977111817
496,229,97904,2,0,L|594:336,2,74.9999977111817
454,114,98245,5,0,0:0:0:0:
346,99,98359,1,0,0:0:0:0:
439,154,98473,1,0,0:0:0:0:
385,60,98586,1,0,0:0:0:0:
103,223,98927,5,0,0:0:0:0:
117,330,99041,1,0,0:0:0:0:
140,224,99154,1,0,0:0:0:0:
72,308,99268,1,0,0:0:0:0:
393,259,99609,5,0,0:0:0:0:
293,303,99723,1,0,0:0:0:0:
372,230,99836,1,0,0:0:0:0:
351,336,99950,1,0,0:0:0:0:
169,66,100291,5,0,0:0:0:0:
176,173,100404,1,0,0:0:0:0:
214,71,100518,1,0,0:0:0:0:
134,144,100632,1,0,0:0:0:0:
83,209,100745,1,0,0:0:0:0:
79,292,100859,1,0,0:0:0:0:
151,333,100973,5,0,0:0:0:0:
220,287,101086,1,0,0:0:0:0:
301,270,101200,1,0,0:0:0:0:
380,296,101314,5,0,0:0:0:0:
354,217,101427,1,0,0:0:0:0:
361,133,101541,1,0,0:0:0:0:
396,58,101654,5,0,0:0:0:0:
317,86,101768,1,0,0:0:0:0:
233,92,101882,1,0,0:0:0:0:
160,52,101995,5,0,0:0:0:0:
173,134,102109,1,0,0:0:0:0:
172,217,102223,1,0,0:0:0:0:
137,292,102336,6,0,L|93:383,2,83.3333333333333
199,236,102677,1,0,0:0:0:0:
261,180,102791,1,0,0:0:0:0:
258,97,102904,1,0,0:0:0:0:
339,77,103018,6,0,L|452:41,2,83.3333333333333
358,158,103359,1,0,0:0:0:0:
361,241,103473,1,0,0:0:0:0:
343,321,103586,1,0,0:0:0:0:
259,327,103700,6,0,L|149:326,1,83.3333333333333
92,328,103927,1,0,0:0:0:0:
92,244,104041,2,0,L|191:244,1,83.3333333333333
258,244,104268,1,0,0:0:0:0:
257,160,104382,2,0,L|155:160,1,83.3333333333333
90,161,104609,1,0,0:0:0:0:
92,77,104723,2,0,L|195:77,1,83.3333333333333
258,77,104950,1,0,0:0:0:0:
337,102,105064,5,0,0:0:0:0:
409,203,105177,1,0,0:0:0:0:
414,77,105291,1,0,0:0:0:0:
340,177,105404,1,0,0:0:0:0:
56,336,105745,5,0,0:0:0:0:
146,248,105859,1,0,0:0:0:0:
20,250,105973,1,0,0:0:0:0:
121,321,106086,1,0,0:0:0:0:
402,72,106427,6,0,L|467:163,2,83.3333333333333
278,51,106768,2,0,P|153:100|157:128,1,166.666666666667
134,221,107109,2,0,L|66:131,2,83.3333333333333
245,278,107450,2,0,P|337:294|410:260,1,166.666666666667
446,149,107791,5,0,0:0:0:0:
344,76,107904,1,0,0:0:0:0:
233,134,108018,1,0,0:0:0:0:
279,250,108132,5,0,0:0:0:0:
168,308,108246,1,0,0:0:0:0:
66,235,108359,1,0,0:0:0:0:
66,149,108473,5,0,0:0:0:0:
168,76,108586,1,0,0:0:0:0:
279,134,108700,1,0,0:0:0:0:
233,250,108814,5,0,0:0:0:0:
344,308,108928,1,0,0:0:0:0:
446,235,109041,1,0,0:0:0:0:
457,142,109154,6,0,P|367:86|266:77,1,187.500007152558
124,167,109836,2,0,P|203:218|274:217,1,125.000004768372
294,223,110177,1,0,0:0:0:0:
442,337,110518,6,0,P|466:220|434:143,1,187.500007152558
300,37,111200,2,0,P|267:121|276:182,1,125.000004768372
282,215,111541,1,0,0:0:0:0:
122,314,111882,6,0,P|134:221|102:126,1,187.500007152558
283,70,112564,2,0,P|361:92|400:144,1,125.000004768372
348,169,112904,2,0,P|352:299|354:300,1,125.000004768372
277,316,113245,6,0,P|190:320|100:229,1,187.500007152558
184,86,113927,2,0,P|272:74|322:82,1,125.000004768372
365,101,114268,2,0,P|400:172|400:237,1,125.000004768372
367,278,114609,5,0,0:0:0:0:
300,303,114723,1,0,0:0:0:0:
229,297,114836,1,0,0:0:0:0:
171,255,114950,1,0,0:0:0:0:
155,185,115064,1,0,0:0:0:0:
190,123,115177,1,0,0:0:0:0:
251,87,115291,1,0,0:0:0:0:
321,92,115404,1,0,0:0:0:0:
386,118,115518,1,0,0:0:0:0:
430,173,115632,1,0,0:0:0:0:
434,243,115745,1,0,0:0:0:0:
415,311,115859,1,0,0:0:0:0:
352,345,115973,6,0,P|249:359|171:331,1,141.666669368744
149,320,116314,2,0,P|90:241|91:162,1,141.666669368744
113,136,116654,2,0,P|185:87|285:75,1,141.666669368744
308,74,116995,2,0,P|418:100|487:164,1,141.666669368744
475,176,117336,5,0,0:0:0:0:
464,246,117450,1,0,0:0:0:0:
428,307,117564,1,0,0:0:0:0:
364,338,117677,1,0,0:0:0:0:
293,342,117791,1,0,0:0:0:0:
232,306,117904,1,0,0:0:0:0:
191,247,118018,1,0,0:0:0:0:
178,177,118132,1,0,0:0:0:0:
197,109,118245,1,0,0:0:0:0:
247,59,118359,1,0,0:0:0:0:
316,44,118473,1,0,0:0:0:0:
386,48,118586,1,0,0:0:0:0:
454,66,118700,5,0,0:0:0:0:
453,73,118814,1,0,0:0:0:0:
452,80,118927,1,0,0:0:0:0:
451,87,119041,1,0,0:0:0:0:
450,94,119154,1,0,0:0:0:0:
449,101,119268,1,0,0:0:0:0:
447,136,119382,6,0,L|447:192,1,35.416667342186
395,161,119495,2,0,L|395:216,1,35.416667342186
339,144,119609,2,0,L|339:89,1,35.416667342186
288,117,119723,2,0,L|288:58,1,35.416667342186
239,138,119836,2,0,L|239:184,1,35.416667342186
189,154,119950,2,0,L|189:204,1,35.416667342186
141,165,120064,5,0,0:0:0:0:
