osu file format v14

[General]
AudioFilename: audio.mp3
AudioLeadIn: 0
PreviewTime: 21882
Countdown: 1
SampleSet: None
StackLeniency: 0.7
Mode: 0
LetterboxInBreaks: 0
WidescreenStoryboard: 1

[Editor]
DistanceSpacing: 1.5
BeatDivisor: 3
GridSize: 4
TimelineZoom: 1.2

[Metadata]
Title:Ghost Town
TitleUnicode:Ghost Town
Artist:Blythe Joustra
ArtistUnicode:Blythe Joustra
Creator:Nitronic Techno
Version:Extra
Source:Crash Bandicoot
Tags:
BeatmapID:1311487
BeatmapSetID:611352

[Difficulty]
HPDrainRate:6
CircleSize:5.5
OverallDifficulty:7.7
ApproachRate:9
SliderMultiplier:2.2
SliderTickRate:1

[Events]
//Background and Video events
0,0,"Wocghosttown.png",0,0
//Break Periods
2,109354,114009
//Storyboard Layer 0 (Background)
//Storyboard Layer 1 (Fail)
//Storyboard Layer 2 (Pass)
//Storyboard Layer 3 (Foreground)
//Storyboard Sound Samples

[TimingPoints]
64,340.909090909091,4,1,0,50,1,0
5518,-83.3333333333333,4,1,0,50,0,0
10973,-125,4,1,0,50,0,0
21882,-100,4,1,0,50,0,0
26314,-83.3333333333333,4,1,0,50,0,0
26654,-71.4285714285714,4,1,0,50,0,0
26995,-62.5,4,1,0,50,0,0
27336,-100,4,1,0,50,0,1
43700,-133.333333333333,4,1,0,50,0,0
49154,-125,4,1,0,50,0,0
54609,-100,4,1,0,50,0,0
65518,-83.3333333333333,4,1,0,50,0,0
76427,-95.2380952380952,4,1,0,50,0,0
81882,-95.2380952380952,4,1,0,50,0,0
87336,-111.111111111111,4,1,0,50,0,0
98245,-100,4,1,0,50,0,1
109154,-133.333333333333,4,1,0,50,0,0
114609,-117.647058823529,4,1,0,50,0,0

[HitObjects]
63,97,64,6,0,P|159:121|224:92,1,146.666666666667
260,63,404,2,0,P|346:81|441:203,2,220
192,194,1314,1,0,0:0:0:0:
192,194,1427,6,0,P|250:260|396:269,1,220
390,130,1995,1,0,0:0:0:0:
390,130,2109,2,0,P|300:151|188:104,1,146.666666666667
186,101,2450,2,0,P|137:164|142:255,1,146.666666666667
191,273,2791,6,0,P|229:341|331:355,1,146.666666666667
364,360,3132,2,0,P|436:328|459:267,1,146.666666666667
458,194,3473,2,0,P|418:131|352:106,1,146.666666666667
279,104,3814,2,0,P|206:145|188:212,1,146.666666666667
122,168,4154,6,0,L|122:338,1,146.666666666667
122,168,4495,6,0,L|122:338,1,146.666666666667
122,168,4836,6,0,L|122:338,1,146.666666666667
122,168,5177,6,0,L|122:338,1,146.666666666667
205,285,5518,6,0,P|298:275|402:314,1,175.999994628906
442,356,5859,2,0,P|422:259|462:151,1,175.999994628906
488,111,6200,2,0,P|390:142|303:118,1,175.999994628906
262,60,6541,2,0,P|277:153|249:250,1,175.999994628906
184,183,6882,6,0,P|288:151|359:223,1,175.999994628906
390,112,7223,2,0,P|399:214|359:290,1,175.999994628906
432,339,7564,2,0,P|329:357|231:317,1,175.999994628906
183,374,7904,2,0,P|158:265|205:195,1,175.999994628906
134,140,8245,5,0,0:0:0:0:
308,111,8473,1,0,0:0:0:0:
307,198,8586,1,0,0:0:0:0:
395,197,8814,1,0,0:0:0:0:
395,109,8927,1,0,0:0:0:0:
308,111,9154,1,0,0:0:0:0:
307,198,9267,1,0,0:0:0:0:
218,198,9495,1,0,0:0:0:0:
221,109,9609,6,0,P|145:51|82:101,1,175.999994628906
151,114,9950,2,0,P|119:210|176:249,1,175.999994628906
173,174,10291,2,0,P|252:201|315:134,1,175.999994628906
237,138,10632,2,0,P|199:51|116:51,1,175.999994628906
77,76,10973,5,0,0:0:0:0:
77,252,11314,1,0,0:0:0:0:
246,297,11654,2,0,L|329:158,1,117.333333333333
306,196,11995,2,0,L|258:69,1,117.333333333333
264,86,12336,5,0,0:0:0:0:
125,194,12677,1,0,0:0:0:0:
125,194,12791,1,0,0:0:0:0:
125,194,12904,1,0,0:0:0:0:
125,194,13018,2,0,L|256:243,1,117.333333333333
234,235,13359,2,0,L|400:188,1,117.333333333333
347,202,13700,5,0,0:0:0:0:
190,124,14041,1,0,0:0:0:0:
53,235,14382,2,0,L|189:254,1,117.333333333333
169,251,14723,2,0,L|321:227,1,117.333333333333
284,232,15064,5,0,0:0:0:0:
368,78,15404,1,0,0:0:0:0:
486,208,15745,2,0,P|443:307|410:320,1,117.333333333333
440,308,16086,2,0,P|378:319|320:281,1,117.333333333333
331,294,16427,5,0,0:0:0:0:
256,135,16768,1,0,0:0:0:0:
201,302,17109,2,0,L|324:224,1,117.333333333333
300,239,17450,2,0,L|417:164,1,117.333333333333
398,175,17791,5,0,0:0:0:0:
255,72,18132,1,0,0:0:0:0:
124,189,18473,2,0,P|153:266|231:309,1,117.333333333333
177,288,18814,2,0,P|257:340|270:385,1,117.333333333333
264,357,19154,5,0,0:0:0:0:
319,190,19495,1,0,0:0:0:0:
255,25,19836,2,0,P|196:110|188:166,1,117.333333333333
192,121,20177,2,0,P|189:218|169:256,1,117.333333333333
181,235,20518,5,0,0:0:0:0:
357,238,20859,1,0,0:0:0:0:
421,74,21200,2,0,P|357:58|291:88,1,117.333333333333
309,73,21541,2,0,P|248:57|192:78,1,117.333333333333
198,73,21882,6,0,P|121:125|46:100,1,146.666666666667
72,117,22223,2,0,L|73:347,2,220
205,181,23132,1,0,0:0:0:0:
265,221,23245,6,0,P|330:283|414:278,1,146.666666666667
440,241,23586,2,0,L|486:143,2,73.3333333333333
367,228,23927,2,0,P|279:228|208:155,1,146.666666666667
187,138,24268,2,0,L|129:72,2,73.3333333333333
240,87,24609,6,0,P|331:68|407:95,1,146.666666666667
431,134,24950,2,0,P|450:209|431:278,1,146.666666666667
371,314,25291,2,0,P|288:328|224:299,1,146.666666666667
193,242,25632,2,0,P|179:152|223:99,1,146.666666666667
149,65,25973,6,0,P|87:149|91:200,1,146.666666666667
149,65,26314,6,0,P|89:139|109:237,1,175.999994628906
149,65,26654,6,0,P|86:151|123:254,1,205.333327067058
149,65,26995,6,0,P|82:163|135:263,1,234.666666666667
199,272,27336,6,0,P|297:302|419:268,1,220
268,230,27904,1,0,0:0:0:0:
200,199,28018,2,0,P|277:161|340:210,1,146.666666666667
378,135,28359,2,0,L|261:7,1,146.666666666667
205,33,28700,6,0,L|123:192,1,146.666666666667
111,231,29041,2,0,L|63:342,2,73.3333333333333
179,204,29382,2,0,P|268:196|340:210,1,146.666666666667
401,231,29723,2,0,L|449:342,2,73.3333333333333
454,180,30064,6,0,P|484:103|445:17,1,146.666666666667
415,94,30404,2,0,P|331:115|248:89,1,146.666666666667
270,29,30745,2,0,P|163:60|133:107,1,146.666666666667
212,110,31086,2,0,P|184:189|131:227,1,146.666666666667
81,175,31427,6,0,P|52:275|100:326,1,146.666666666667
117,248,31768,2,0,P|218:242|291:258,1,146.666666666667
286,318,32109,2,0,P|387:323|444:279,1,146.666666666667
365,256,32450,2,0,P|379:167|424:113,1,146.666666666667
396,51,32791,5,0,0:0:0:0:
325,32,32904,1,0,0:0:0:0:
253,48,33018,1,0,0:0:0:0:
201,100,33132,1,0,0:0:0:0:
203,172,33245,1,0,0:0:0:0:
233,238,33359,1,0,0:0:0:0:
291,282,33473,2,0,P|403:304|460:266,1,146.666666666667
466,229,33814,2,0,P|464:126|444:78,1,146.666666666667
384,52,34154,5,0,0:0:0:0:
311,61,34268,1,0,0:0:0:0:
238,71,34382,1,0,0:0:0:0:
172,103,34495,2,0,L|67:103,2,73.3333333333333
239,132,34836,1,0,0:0:0:0:
311,143,34950,1,0,0:0:0:0:
383,155,35064,1,0,0:0:0:0:
450,182,35177,2,0,L|481:261,2,73.3333333333333
382,152,35518,6,0,L|301:136,2,73.3333333333333
337,228,35859,2,0,L|274:275,2,73.3333333333333
232,192,36200,2,0,L|123:162,2,73.3333333333333
202,298,36541,2,0,L|138:334,2,73.3333333333333
301,346,36882,6,0,L|381:275,2,73.3333333333333
256,245,37223,2,0,L|256:130,2,73.3333333333333
179,165,37564,2,0,L|254:97,2,73.3333333333333
333,165,37904,2,0,L|258:97,2,73.3333333333333
211,346,38245,6,0,L|131:275,2,73.3333333333333
176,241,38586,2,0,L|158:166,2,73.3333333333333
255,164,38927,2,0,L|255:89,2,73.3333333333333
336,241,39268,2,0,L|354:166,2,73.3333333333333
387,338,39609,6,0,P|460:300|464:219,1,146.666666666667
369,282,39950,2,0,P|397:195|465:166,1,146.666666666667
450,59,40291,2,0,P|395:122|298:130,1,146.666666666667
390,40,40632,2,0,P|307:59|261:125,1,146.666666666667
211,150,40973,5,0,0:0:0:0:
139,166,41086,1,0,0:0:0:0:
78,123,41200,1,0,0:0:0:0:
92,50,41314,1,0,0:0:0:0:
163,35,41427,1,0,0:0:0:0:
225,73,41541,1,0,0:0:0:0:
287,111,41654,2,0,L|381:121,2,73.3333333333333
274,183,41995,2,0,L|372:216,2,73.3333333333333
235,245,42336,6,0,L|285:343,2,73.3333333333333
163,264,42677,2,0,L|171:355,2,73.3333333333333
166,136,43018,6,0,L|118:98,11,36.6666666666667
138,85,43700,6,0,P|196:42|256:42,1,110.000004196167
286,44,44041,1,0,0:0:0:0:
340,47,44154,1,0,0:0:0:0:
394,53,44268,1,0,0:0:0:0:
448,60,44382,2,0,P|475:125|471:188,1,110.000004196167
451,213,44723,1,0,0:0:0:0:
408,247,44836,1,0,0:0:0:0:
353,252,44950,1,0,0:0:0:0:
301,272,45064,6,0,P|235:308|184:313,1,110.000004196167
146,311,45404,2,0,P|74:280|47:233,1,110.000004196167
67,202,45745,2,0,P|105:154|165:140,1,110.000004196167
205,140,46086,2,0,P|282:143|333:167,1,110.000004196167
366,146,46427,6,0,P|435:151|486:122,1,110.000004196167
476,79,46768,2,0,P|412:77|356:107,1,110.000004196167
317,107,47109,2,0,P|254:87|186:103,1,110.000004196167
190,143,47450,2,0,P|250:164|308:155,1,110.000004196167
315,210,47791,6,0,L|242:318,1,110.000004196167
198,303,48132,2,0,L|238:178,1,110.000004196167
222,143,48473,2,0,L|190:71,2,55.0000020980836
173,168,48814,2,0,L|127:124,2,55.0000020980836
142,217,49154,5,0,0:0:0:0:
142,217,49268,1,0,0:0:0:0:
142,217,49382,1,0,0:0:0:0:
145,275,49495,5,0,0:0:0:0:
145,275,49609,1,0,0:0:0:0:
145,275,49723,1,0,0:0:0:0:
189,312,49836,5,0,0:0:0:0:
189,312,49950,1,0,0:0:0:0:
189,312,50064,1,0,0:0:0:0:
246,324,50177,5,0,0:0:0:0:
246,324,50291,1,0,0:0:0:0:
246,324,50405,1,0,0:0:0:0:
304,324,50518,5,0,0:0:0:0:
304,324,50632,1,0,0:0:0:0:
304,324,50746,1,0,0:0:0:0:
356,297,50859,5,0,0:0:0:0:
356,297,50973,1,0,0:0:0:0:
356,297,51087,1,0,0:0:0:0:
398,256,51200,5,0,0:0:0:0:
398,256,51314,1,0,0:0:0:0:
398,256,51428,1,0,0:0:0:0:
422,203,51541,5,0,0:0:0:0:
422,203,51655,1,0,0:0:0:0:
422,203,51769,1,0,0:0:0:0:
443,148,51882,6,0,P|419:83|362:50,6,117.333333333333
408,195,53359,1,0,0:0:0:0:
359,228,53473,1,0,0:0:0:0:
301,240,53586,1,0,0:0:0:0:
243,229,53700,1,0,0:0:0:0:
191,200,53814,1,0,0:0:0:0:
171,145,53927,1,0,0:0:0:0:
171,86,54041,1,0,0:0:0:0:
215,48,54154,1,0,0:0:0:0:
273,43,54268,1,0,0:0:0:0:
330,56,54382,1,0,0:0:0:0:
382,81,54495,1,0,0:0:0:0:
423,141,54609,6,0,L|468:360,2,220
89,141,55518,1,0,0:0:0:0:
89,141,55632,2,0,L|44:360,2,220
256,283,56654,2,0,L|256:129,1,146.666666666667
256,62,56995,1,0,0:0:0:0:
123,237,57336,6,0,L|210:29,2,220
389,237,58245,1,0,0:0:0:0:
389,237,58359,2,0,L|302:29,2,220
255,61,59382,2,0,L|256:232,1,146.666666666667
255,281,59723,1,0,0:0:0:0:
143,314,60064,6,0,L|380:264,2,220
143,70,60973,1,0,0:0:0:0:
143,70,61086,2,0,L|380:120,2,220
326,193,62109,2,0,L|177:193,1,146.666666666667
105,191,62450,1,0,0:0:0:0:
308,274,62791,6,0,L|208:244,2,73.3333333333333
284,204,63132,2,0,L|202:181,2,73.3333333333333
316,138,63473,2,0,L|234:117,2,73.3333333333333
290,68,63814,2,0,L|214:51,2,73.3333333333333
355,35,64154,6,0,P|399:115|49:184,1,660
50,194,65291,1,0,0:0:0:0:
50,194,65404,1,0,0:0:0:0:
84,112,65518,6,0,L|62:22,2,87.9999973144532
166,143,65859,1,0,0:0:0:0:
248,173,65973,1,0,0:0:0:0:
331,147,66086,1,0,0:0:0:0:
412,115,66200,2,0,L|434:25,2,87.9999973144532
375,195,66541,2,0,P|354:307|396:359,1,175.999994628906
427,273,66882,6,0,P|322:273|243:304,1,175.999994628906
291,215,67223,2,0,P|195:204|102:165,1,175.999994628906
69,246,67564,2,0,P|48:149|87:75,1,175.999994628906
164,60,67904,2,0,P|261:72|389:51,1,175.999994628906
400,126,68245,5,0,0:0:0:0:
342,192,68359,1,0,0:0:0:0:
400,257,68473,1,0,0:0:0:0:
338,319,68586,1,0,0:0:0:0:
277,254,68700,1,0,0:0:0:0:
340,192,68814,1,0,0:0:0:0:
280,128,68927,2,0,P|155:137|123:181,1,175.999994628906
216,175,69268,2,0,P|310:189|383:134,1,175.999994628906
243,126,69609,6,0,P|156:112|75:168,1,175.999994628906
188,171,69950,2,0,P|273:207|371:163,1,175.999994628906
137,192,70291,2,0,P|134:300|195:340,1,175.999994628906
185,230,70632,2,0,P|215:137|180:61,1,175.999994628906
81,51,70973,6,0,L|-15:11,2,87.9999973144532
205,95,71314,2,0,L|327:149,2,87.9999973144532
84,146,71654,2,0,L|1:92,2,87.9999973144532
200,208,71995,2,0,L|281:241,2,87.9999973144532
71,240,72336,5,0,0:0:0:0:
135,312,72450,1,0,0:0:0:0:
231,324,72564,1,0,0:0:0:0:
321,291,72677,1,0,0:0:0:0:
370,207,72791,1,0,0:0:0:0:
363,110,72904,1,0,0:0:0:0:
281,56,73018,1,0,0:0:0:0:
183,57,73132,1,0,0:0:0:0:
133,139,73245,1,0,0:0:0:0:
168,229,73359,1,0,0:0:0:0:
257,267,73473,1,0,0:0:0:0:
337,213,73586,1,0,0:0:0:0:
295,125,73700,6,0,L|249:41,2,87.9999973144532
374,181,74041,2,0,L|387:84,2,87.9999973144532
406,272,74382,2,0,L|477:197,2,87.9999973144532
326,328,74723,2,0,L|440:363,2,87.9999973144532
268,249,75064,6,0,L|168:193,2,87.9999973144532
228,161,75404,2,0,L|190:71,2,87.9999973144532
254,67,75745,6,0,L|283:11,11,43.9999986572266
317,23,76427,6,0,L|388:187,1,153.999995300293
382,48,76768,1,0,0:0:0:0:
125,280,77109,2,0,L|182:112,1,153.999995300293
104,226,77450,1,0,0:0:0:0:
430,343,77791,6,0,L|356:181,1,153.999995300293
370,318,78132,5,0,0:0:0:0:
295,335,78245,1,0,0:0:0:0:
218,321,78359,1,0,0:0:0:0:
151,280,78473,6,0,L|231:118,1,153.999995300293
202,256,78814,1,0,0:0:0:0:
463,29,79154,6,0,L|422:205,1,153.999995300293
428,63,79495,1,0,0:0:0:0:
81,64,79836,2,0,L|127:218,1,153.999995300293
123,95,80177,1,0,0:0:0:0:
413,283,80518,6,0,L|218:237,1,153.999995300293
378,239,80859,1,0,0:0:0:0:
60,100,81200,2,0,L|218:163,1,153.999995300293
106,93,81541,1,0,0:0:0:0:
447,34,81882,6,0,L|438:205,1,153.999995300293
398,357,82223,6,0,L|386:193,1,153.999995300293
296,130,82564,5,0,0:0:0:0:
256,357,82791,5,0,0:0:0:0:
256,357,82904,1,0,0:0:0:0:
65,34,83245,6,0,L|74:205,1,153.999995300293
114,357,83586,6,0,L|126:193,1,153.999995300293
216,130,83927,5,0,0:0:0:0:
256,357,84154,5,0,0:0:0:0:
256,357,84267,1,0,0:0:0:0:
253,9,84609,6,0,P|348:29|385:111,1,153.999995300293
285,74,84950,2,0,P|328:151|396:171,1,153.999995300293
459,114,85291,2,0,P|470:190|411:284,1,153.999995300293
353,223,85632,2,0,P|343:326|391:375,1,153.999995300293
443,304,85973,2,0,P|335:301|269:343,1,153.999995300293
207,348,86314,2,0,L|117:318,2,76.9999976501466
181,259,86654,2,0,L|147:174,2,76.9999976501466
240,188,86995,2,0,L|273:271,2,76.9999976501466
209,114,87336,5,0,0:0:0:0:
209,114,87450,1,0,0:0:0:0:
209,114,87564,1,0,0:0:0:0:
164,65,87677,2,0,P|228:52|323:151,1,197.99999395752
320,133,88132,5,0,0:0:0:0:
320,133,88245,1,0,0:0:0:0:
320,133,88359,2,0,P|359:217|298:299,1,197.99999395752
303,296,88814,5,0,0:0:0:0:
303,296,88927,1,0,0:0:0:0:
303,296,89041,2,0,P|210:313|127:254,1,197.99999395752
128,256,89495,5,0,0:0:0:0:
128,256,89609,1,0,0:0:0:0:
128,256,89723,2,0,P|151:179|66:95,1,197.99999395752
200,43,90291,5,0,0:0:0:0:
200,43,90404,2,0,P|278:67|346:134,1,131.99999597168
381,80,90745,2,0,P|406:171|375:232,1,131.99999597168
453,235,91086,2,0,P|398:315|335:326,1,131.99999597168
303,337,91427,5,0,0:0:0:0:
303,337,91541,1,0,0:0:0:0:
303,337,91654,1,0,0:0:0:0:
303,337,91768,2,0,L|90:337,1,197.99999395752
105,270,92223,5,0,0:0:0:0:
105,270,92336,1,0,0:0:0:0:
105,270,92450,2,0,L|315:270,1,197.99999395752
302,203,92904,5,0,0:0:0:0:
302,203,93018,1,0,0:0:0:0:
302,203,93132,2,0,L|91:203,1,197.99999395752
103,136,93586,5,0,0:0:0:0:
103,136,93700,1,0,0:0:0:0:
103,136,93814,2,0,L|316:136,1,197.99999395752
412,63,94382,5,0,0:0:0:0:
464,102,94495,2,0,P|444:185|377:228,1,131.99999597168
368,163,94836,2,0,P|342:239|356:300,1,131.99999597168
415,273,95177,2,0,P|398:353|261:378,2,197.99999395752
262,146,96200,5,0,0:0:0:0:
198,127,96314,1,0,0:0:0:0:
136,150,96427,1,0,0:0:0:0:
130,215,96541,1,0,0:0:0:0:
152,276,96654,1,0,0:0:0:0:
211,304,96768,1,0,0:0:0:0:
277,307,96882,6,0,L|402:307,2,65.9999979858399
256,244,97223,2,0,L|316:159,2,65.9999979858399
189,242,97564,2,0,L|151:184,2,65.9999979858399
141,287,97904,2,0,L|66:287,2,65.9999979858399
171,353,98245,6,0,P|253:366|348:341,1,146.666666666667
366,302,98586,1,0,0:0:0:0:
366,302,98700,1,0,0:0:0:0:
366,302,98814,1,0,0:0:0:0:
402,238,98927,2,0,P|403:154|365:94,1,146.666666666667
309,63,99268,2,0,P|220:62|146:92,1,146.666666666667
132,145,99609,6,0,P|209:170|296:148,1,146.666666666667
317,101,99950,1,0,0:0:0:0:
317,101,100064,1,0,0:0:0:0:
317,101,100177,1,0,0:0:0:0:
390,93,100291,2,0,P|424:175|405:266,1,146.666666666667
347,245,100632,2,0,P|338:323|429:366,1,146.666666666667
403,293,100973,6,0,P|416:216|367:161,1,146.666666666667
382,92,101314,2,0,P|289:79|225:101,1,146.666666666667
244,166,101654,2,0,P|160:184|91:164,1,146.666666666667
112,96,101995,2,0,P|34:147|30:210,1,146.666666666667
54,262,102336,5,0,0:0:0:0:
54,262,102450,1,0,0:0:0:0:
54,262,102564,1,0,0:0:0:0:
114,302,102677,2,0,P|193:327|285:302,1,146.666666666667
257,243,103018,2,0,P|331:234|414:257,1,146.666666666667
415,322,103359,2,0,P|471:258|474:171,1,146.666666666667
436,139,103700,5,0,0:0:0:0:
436,139,103814,1,0,0:0:0:0:
436,139,103927,1,0,0:0:0:0:
377,94,104041,1,0,0:0:0:0:
377,94,104154,1,0,0:0:0:0:
377,94,104268,1,0,0:0:0:0:
303,84,104382,1,0,0:0:0:0:
303,84,104495,1,0,0:0:0:0:
303,84,104609,1,0,0:0:0:0:
238,119,104723,1,0,0:0:0:0:
238,119,104836,1,0,0:0:0:0:
238,119,104950,1,0,0:0:0:0:
233,192,105064,5,0,0:0:0:0:
233,192,105177,1,0,0:0:0:0:
233,192,105291,1,0,0:0:0:0:
230,264,105404,2,0,L|230:350,2,73.3333333333333
233,192,105745,1,0,0:0:0:0:
233,192,105858,1,0,0:0:0:0:
233,192,105972,1,0,0:0:0:0:
191,131,106086,1,0,0:0:0:0:
191,131,106200,1,0,0:0:0:0:
191,131,106314,1,0,0:0:0:0:
133,86,106427,6,0,P|69:141|64:221,1,146.666666666667
62,272,106768,2,0,P|129:300|219:298,1,146.666666666667
309,301,107109,2,0,P|382:300|450:272,1,146.666666666667
452,199,107450,2,0,P|436:129|379:86,1,146.666666666667
171,131,107791,6,0,L|83:57,2,73.3333333333333
341,131,108132,6,0,L|429:57,2,73.3333333333333
341,253,108473,6,0,L|429:327,2,73.3333333333333
171,253,108814,6,0,L|83:327,2,73.3333333333333
256,193,109154,5,0,0:0:0:0:
257,69,114609,6,0,L|331:50,2,62.3333345222473
254,131,114950,2,0,L|150:94,2,62.3333345222473
255,193,115291,2,0,L|356:174,2,62.3333345222473
255,255,115632,2,0,L|152:237,2,62.3333345222473
255,317,115973,6,0,P|332:323|404:302,1,124.666669044495
427,275,116314,2,0,P|469:192|474:155,1,124.666669044495
457,101,116654,2,0,P|385:52|338:52,1,124.666669044495
288,60,116995,2,0,P|224:108|162:113,1,124.666669044495
136,158,117336,6,0,L|65:221,2,62.3333345222473
161,215,117677,2,0,L|124:274,2,62.3333345222473
208,256,118018,2,0,L|194:335,2,62.3333345222473
270,252,118359,2,0,L|280:329,2,62.3333345222473
325,222,118700,2,0,L|369:278,2,62.3333345222473
365,174,119041,2,0,L|443:195,2,62.3333345222473
274,148,119382,6,0,L|239:112,1,31.1666672611237
252,172,119495,2,0,L|219:149,1,31.1666672611237
234,201,119609,2,0,L|191:197,1,31.1666672611237
232,235,119723,2,0,L|190:257,1,31.1666672611237
249,261,119836,2,0,L|222:303,1,31.1666672611237
277,272,119950,2,0,L|277:328,1,31.1666672611237
316,275,120064,5,0,0:0:0:0:
