osu file format v14

[General]
AudioFilename: audio.mp3
AudioLeadIn: 0
PreviewTime: 59103
Countdown: 0
SampleSet: Soft
StackLeniency: 0.6
Mode: 0
LetterboxInBreaks: 0
WidescreenStoryboard: 1

[Editor]
DistanceSpacing: 0.75
BeatDivisor: 4
GridSize: 8
TimelineZoom: 1

[Metadata]
Title:Intermission
TitleUnicode:Intermission
Artist:Blur
ArtistUnicode:Blur
Creator:Skidooskei
Version:Over-Speed
Source:
Tags:BBC Radio 6 Live Maida Vale
BeatmapID:1928370
BeatmapSetID:922467

[Difficulty]
HPDrainRate:6.5
CircleSize:4.8
OverallDifficulty:9.2
ApproachRate:9.8
SliderMultiplier:1.9
SliderTickRate:1

[Events]
//Background and Video events
0,0,"loco.jpg",0,0
//Break Periods
//Storyboard Layer 0 (Background)
//Storyboard Layer 1 (Fail)
//Storyboard Layer 2 (Pass)
//Storyboard Layer 3 (Foreground)
//Storyboard Sound Samples

[TimingPoints]
125,612.244897959184,4,2,1,30,1,0
125,-93.4579439252336,4,2,1,30,0,0
510,612.244897959184,4,2,1,30,1,0
737,550.45871559633,4,2,1,30,1,0
737,-111.111111111111,4,2,1,30,0,0
1287,483.870967741935,4,2,1,30,1,0
1287,-125,4,2,1,30,0,0
1770,437.956204379562,4,2,1,30,1,0
1770,-121.951219512195,4,2,1,30,0,0
2207,-133.333333333333,4,2,1,30,0,0
3083,394.736842105263,4,2,1,30,1,0
3477,-133.333333333333,4,2,1,30,0,0
5846,416.666666666667,4,2,1,30,1,0
6262,434.782608695652,4,2,1,30,1,0
6696,387.096774193548,4,2,1,30,1,0
6696,-133.333333333333,4,2,1,30,0,0
7083,408.163265306122,4,2,1,30,1,0
7083,-133.333333333333,4,2,1,30,0,0
10348,389.61038961039,4,2,1,30,1,0
11127,-133.333333333333,4,2,1,30,0,0
11906,402.684563758389,4,2,1,30,1,0
11906,-133.333333333333,4,2,1,30,0,0
13516,387.096774193548,4,2,1,30,1,0
13516,-133.333333333333,4,2,1,30,0,0
15064,394.736842105263,4,2,1,30,1,0
15064,-133.333333333333,4,2,1,30,0,0
16642,389.61038961039,4,2,1,30,1,0
16642,-133.333333333333,4,2,1,30,0,0
17810,480,4,2,1,30,1,0
17810,-117.647058823529,4,2,1,30,0,0
18290,508.474576271186,4,2,1,30,1,0
18290,-133.333333333333,4,2,1,30,0,0
20578,555.555555555556,4,2,1,30,1,0
21683,495.867768595041,4,2,1,40,1,0
21683,-111.111111111111,4,2,1,40,0,0
22178,521.739130434783,4,2,1,40,1,0
22699,461.538461538462,4,2,1,40,1,0
22699,-111.111111111111,4,2,1,40,0,0
23160,413.793103448276,4,2,1,40,1,0
23573,434.782608695652,4,2,1,40,1,0
23573,-133.333333333333,4,2,1,40,0,0
25312,422.535211267606,4,2,1,40,1,0
25312,-133.333333333333,4,2,1,40,0,0
27002,434.782608695652,4,2,1,40,1,0
27002,-133.333333333333,4,2,1,40,0,0
30480,444.444444444444,4,2,1,40,1,0
30480,-133.333333333333,4,2,1,40,0,0
34035,451.127819548872,4,2,1,40,1,0
34035,-133.333333333333,4,2,1,40,0,0
35839,428.571428571429,4,2,1,40,1,0
35839,-133.333333333333,4,2,1,40,0,0
37553,444.444444444444,4,2,1,40,1,0
37553,-133.333333333333,4,2,1,40,0,0
39330,422.535211267606,4,2,1,40,1,0
39330,-133.333333333333,4,2,1,40,0,0
41442,451.127819548872,4,2,1,40,1,0
41893,408.163265306122,4,2,1,40,1,0
41893,-100,4,2,1,40,0,0
42710,394.736842105263,4,2,1,50,1,1
42710,-90.9090909090909,4,2,1,50,0,1
42808,-90.9090909090909,4,2,1,50,0,0
43499,-100,4,2,1,50,0,0
44288,387.096774193548,4,2,1,50,1,0
47384,382.165605095541,4,2,1,50,1,0
50441,377.358490566038,4,2,1,50,1,0
51950,363.636363636364,4,2,1,50,1,0
56313,348.837209302326,4,2,1,50,1,0
59103,333.333333333333,4,2,1,50,1,0
60436,329.67032967033,4,2,1,60,1,1
60436,-90.9090909090909,4,2,1,60,0,1
60518,-90.9090909090909,4,2,1,60,0,0
61095,-100,4,2,1,60,0,0
63073,322.58064516129,4,2,1,60,1,0
68234,315.789473684211,4,2,1,60,1,0
69497,324.324324324324,4,2,1,60,1,0
70794,322.58064516129,4,2,1,60,1,0
70794,-76.9230769230769,4,2,1,60,0,0
72084,327.868852459016,4,2,1,60,1,0
72084,-76.9230769230769,4,2,1,60,0,0
73390,315.789473684211,4,2,1,60,1,0
73390,-76.9230769230769,4,2,1,60,0,0
74653,304.568527918782,4,2,1,60,1,0
74653,-76.9230769230769,4,2,1,60,0,0
75262,-76.9230769230769,4,2,1,60,0,0
75871,-71.4285714285714,4,2,1,70,0,1
76175,-76.9230769230769,4,2,1,70,0,1
77089,303.030303030303,4,2,1,70,1,0
78301,-71.4285714285714,4,2,1,70,0,1
78604,-76.9230769230769,4,2,1,70,0,1
79513,283.018867924528,4,2,1,70,1,0
80645,297.029702970297,4,2,1,70,1,1
80645,-71.4285714285714,4,2,1,70,0,1
80942,-76.9230769230769,4,2,1,70,0,1
81833,283.018867924528,4,2,1,70,1,0
82965,292.682926829268,4,2,1,70,1,1
82965,-71.4285714285714,4,2,1,70,0,1
83257,-76.9230769230769,4,2,1,70,0,1
84135,285.714285714286,4,2,1,70,1,0
85277,-71.4285714285714,4,2,1,70,0,1
85563,-76.9230769230769,4,2,1,70,0,1
86420,280.373831775701,4,2,1,70,1,0
86420,-133.333333333333,4,2,1,70,0,0
87541,285.714285714286,4,2,1,70,1,1
87541,-71.4285714285714,4,2,1,70,0,1
87826,-76.9230769230769,4,2,1,70,0,1
88683,-100,4,2,1,70,0,0
89826,272.727272727273,4,2,1,80,1,1
89826,-76.9230769230769,4,2,1,80,0,1
90916,270.27027027027,4,2,1,80,1,1
90916,-76.9230769230769,4,2,1,80,0,1
91997,266.666666666667,4,2,1,80,1,1
91997,-76.9230769230769,4,2,1,80,0,1
93063,262.008733624454,4,2,1,80,1,1
93063,-76.9230769230769,4,2,1,80,0,1
94111,256.410256410256,4,2,1,80,1,1
94111,-76.9230769230769,4,2,1,80,0,1
95136,254.237288135593,4,2,1,80,1,1
95136,-76.9230769230769,4,2,1,80,0,1
98186,252.100840336134,4,2,1,90,1,1
98186,-71.4285714285714,4,2,1,90,0,1
100202,258.620689655172,4,2,1,90,1,1
100202,-71.4285714285714,4,2,1,90,0,1
101236,250,4,2,1,100,1,1
101736,-100,4,2,1,100,0,0

[Colours]
Combo1 : 162,204,213
Combo2 : 128,192,255
Combo3 : 179,205,203
Combo4 : 126,159,247

[HitObjects]
51,275,125,6,0,B|122:257|96:300|184:278,1,126.82500009676,0|0,0:0|0:0,0:0:0:0:
250,204,737,2,0,L|241:115,1,85.4999973907472,2|0,0:1|0:0,0:0:0:0:
368,273,1287,2,0,P|371:317|358:364,1,76,0|0,0:0|0:0,0:0:0:0:
444,158,1770,2,0,P|441:202|454:249,1,77.9000011886597,2|0,0:1|0:0,0:0:0:0:
336,153,2207,2,0,B|326:65|365:102|356:9,2,142.500005435944,0|2|2,0:1|0:1|0:1,0:0:0:0:
135,46,3477,2,0,P|172:32|213:33,1,71.2500027179719,0|0,0:0|0:0,0:0:0:0:
65,162,3872,5,0,0:0:0:0:
69,136,4069,1,0,0:0:0:0:
150,264,4267,1,2,0:1:0:0:
146,238,4464,1,0,0:0:0:0:
70,341,4661,2,0,L|-10:333,1,71.2500027179719,0|0,0:0|0:0,0:0:0:0:
203,210,5056,2,0,L|122:217,1,71.2500027179719,2|0,0:1|0:0,0:0:0:0:
300,331,5451,2,0,P|345:289|430:319,1,142.500005435944,0|2,0:0|0:1,0:0:0:0:
325,131,6262,1,2,0:1:0:0:
213,304,6696,2,0,P|222:263|219:224,1,71.2500027179719,0|0,0:0|0:0,0:0:0:0:
33,148,7083,6,0,B|64:148|80:165|80:165|118:134|169:145,1,142.500005435944,0|2,0:1|0:1,0:0:0:0:
331,71,7695,1,0,0:0:0:0:
331,71,7899,2,0,P|284:73|245:62,1,71.2500027179719,0|0,0:0|0:0,0:0:0:0:
448,197,8307,2,0,P|401:195|362:206,1,71.2500027179719,2|0,0:1|0:1,0:0:0:0:
229,347,8715,2,0,P|290:323|354:373,2,142.500005435944,0|2|2,0:0|0:1|0:1,0:0:0:0:
64,166,9940,2,0,P|78:203|77:244,1,71.2500027179719,0|0,0:0|0:0,0:0:0:0:
195,105,10348,5,0,0:0:0:0:
169,101,10542,1,0,0:0:0:0:
304,41,10737,1,2,0:1:0:0:
278,45,10932,1,0,0:0:0:0:
362,203,11127,2,0,L|368:129,1,71.2500027179719,0|0,0:0|0:0,0:0:0:0:
278,339,11516,2,0,L|271:265,1,71.2500027179719,2|0,0:1|0:1,0:0:0:0:
93,148,11906,2,0,P|149:161|220:94,1,142.500005435944,0|2,0:1|0:1,0:0:0:0:
31,67,12711,1,2,0:1:0:0:
161,222,13114,2,0,P|201:214|232:186,1,71.2500027179719,0|0,0:0|0:0,0:0:0:0:
337,66,13516,6,0,P|299:67|261:73,1,71.2500027179719,0|0,0:0|0:0,0:0:0:0:
413,161,13903,1,2,0:1:0:0:
413,161,14096,2,0,P|375:155|336:154,1,71.2500027179719,0|0,0:0|0:0,0:0:0:0:
489,256,14483,1,2,0:1:0:0:
489,256,14677,2,0,P|451:257|413:263,1,71.2500027179719,0|2,0:0|0:1,0:0:0:0:
181,195,15064,2,0,P|250:180|309:226,1,142.500005435944,0|2,0:0|0:1,0:0:0:0:
114,338,15853,2,0,B|120:250|78:289|91:184,1,142.500005435944,2|0,0:1|0:0,0:0:0:0:
231,42,16445,1,0,0:0:0:0:
161,110,16642,6,0,P|199:111|237:117,1,71.2500027179719,0|0,0:0|0:0,0:0:0:0:
85,205,17031,1,2,0:1:0:0:
85,205,17226,2,0,P|123:199|162:198,1,71.2500027179719,0|0,0:0|0:0,0:0:0:0:
9,300,17616,1,2,0:1:0:0:
8,299,17810,2,0,P|49:300|90:306,1,80.750001540184,0|2,0:0|0:1,0:0:0:0:
309,202,18290,2,0,B|236:185|249:241|159:217,1,142.500005435944,0|2,0:0|0:1,0:0:0:0:
439,81,19306,6,0,L|436:54,2,17.812500679493,0|0|2,0:0|0:0|0:1,0:0:0:0:
0,147,21683,6,0,B|42:118|42:118|166:163,1,170.999994781494,0|2,0:0|0:1,0:0:0:0:
434,291,22699,2,0,B|392:262|392:262|268:307,1,170.999994781494,0|2,0:0|0:1,0:0:0:0:
450,146,23366,1,0,0:0:0:0:
450,146,23470,1,0,0:0:0:0:
450,146,23573,2,0,P|458:189|456:229,1,71.2500027179719,0|0,0:0|0:0,0:0:0:0:
250,100,24007,2,0,P|307:94|371:155,1,142.500005435944,2|2,0:1|0:1,0:0:0:0:
55,308,24877,2,0,L|62:238,1,71.2500027179719,0|0,0:0|0:0,0:0:0:0:
145,384,25312,6,0,B|137:291|180:346|174:227,1,142.500005435944,0|2,0:0|0:1,0:0:0:0:
105,125,25945,1,0,0:0:0:0:
105,125,26157,2,0,P|110:83|123:54,1,71.2500027179719,0|0,0:0|0:0,0:0:0:0:
195,264,26579,1,2,0:1:0:0:
299,133,26790,1,0,0:0:0:0:
299,133,26896,1,0,0:0:0:0:
299,133,27002,2,0,B|387:124|342:169|450:157,1,142.500005435944,0|2,0:0|0:1,0:0:0:0:
386,374,27871,1,2,0:1:0:0:
341,90,28306,2,0,L|334:168,1,71.2500027179719,0|0,0:0|0:0,0:0:0:0:
71,160,28741,6,0,P|126:154|214:199,1,142.500005435944,0|2,0:0|0:1,0:0:0:0:
115,315,29393,1,0,0:0:0:0:
115,315,29610,2,0,L|121:236,1,71.2500027179719,0|0,0:0|0:0,0:0:0:0:
230,108,30045,1,2,0:1:0:0:
347,270,30262,1,0,0:0:0:0:
347,270,30371,1,0,0:0:0:0:
347,270,30480,2,0,P|300:265|264:272,1,71.2500027179719,0|0,0:0|0:0,0:0:0:0:
495,309,30924,2,0,P|425:309|372:354,1,142.500005435944,2|2,0:1|0:1,0:0:0:0:
320,110,31813,2,0,L|314:185,1,71.2500027179719,0|0,0:0|0:0,0:0:0:0:
509,38,32257,6,0,P|454:55|367:36,1,142.500005435944,0|2,0:0|0:1,0:0:0:0:
256,140,32924,1,0,0:0:0:0:
256,140,33146,2,0,L|248:220,1,71.2500027179719,0|0,0:0|0:0,0:0:0:0:
320,335,33591,1,2,0:1:0:0:
173,263,33813,1,0,0:0:0:0:
173,263,33924,1,0,0:0:0:0:
173,263,34035,2,0,P|126:263|92:278,1,71.2500027179719,0|0,0:0|0:0,0:0:0:0:
9,382,34486,2,0,L|2:308,1,71.2500027179719,2|0,0:1|0:0,0:0:0:0:
84,108,34937,2,0,B|69:160|69:160|86:254,1,142.500005435944,2|0,0:1|0:0,0:0:0:0:
277,177,35613,1,0,0:0:0:0:
277,177,35839,6,0,P|229:167|194:172,1,71.2500027179719,0|0,0:0|0:0,0:0:0:0:
362,255,36267,1,2,0:1:0:0:
362,255,36481,2,0,P|363:205|352:172,1,71.2500027179719,0|0,0:0|0:0,0:0:0:0:
299,352,36910,1,2,0:1:0:0:
299,352,37124,2,0,P|347:344|378:328,1,71.2500027179719,0|2,0:0|0:1,0:0:0:0:
428,121,37553,2,0,B|413:216|460:179|447:270,1,142.500005435944,0|2,0:0|0:1,0:0:0:0:
249,98,38441,2,0,P|294:61|377:64,1,142.500005435944,2|0,0:1|0:0,0:0:0:0:
242,197,39108,1,0,0:0:0:0:
242,197,39330,6,0,P|290:187|325:192,1,71.2500027179719,0|0,0:0|0:0,0:0:0:0:
157,275,39752,1,2,0:1:0:0:
157,275,39963,2,0,P|155:225|166:192,1,71.2500027179719,0|0,0:0|0:0,0:0:0:0:
220,372,40386,1,2,0:1:0:0:
220,372,40597,2,0,P|171:364|140:348,1,71.2500027179719,0|2,0:0|0:1,0:0:0:0:
83,154,41020,2,0,L|69:303,1,142.500005435944,0|2,0:0|0:1,0:0:0:0:
198,73,41893,2,0,B|159:41|159:41|20:65,1,190,4|0,0:0|0:0,0:0:0:0:
104,263,42505,1,0,0:0:0:0:
269,28,42710,6,0,B|294:161|218:83|248:244,1,209.000006378174,6|0,0:0|0:0,0:0:0:0:
309,354,43302,1,2,0:0:0:0:
438,253,43499,2,0,P|379:259|344:275,1,95,8|0,0:0|0:0,0:0:0:0:
224,384,43894,1,2,0:0:0:0:
258,141,44091,1,2,0:0:0:0:
71,293,44288,6,0,B|159:271|128:326|234:299,1,142.5,2|0,0:0|0:0,0:0:0:0:
290,217,44675,2,0,L|190:225,1,95,2|0,0:0|0:0,0:0:0:0:
84,43,45062,2,0,P|100:93|96:146,1,95,12|0,0:0|0:0,0:0:0:0:
46,313,45449,1,0,0:0:0:0:
204,113,45642,1,0,0:0:0:0:
307,297,45836,6,0,L|315:196,1,95,6|0,0:0|0:0,0:0:0:0:
443,70,46223,1,0,0:0:0:0:
404,248,46417,1,2,0:0:0:0:
223,168,46610,2,0,P|272:167|318:180,1,95,8|0,0:0|0:0,0:0:0:0:
176,356,46997,1,2,0:0:0:0:
140,118,47191,1,2,0:0:0:0:
384,258,47384,2,0,B|289:241|330:285|236:270,1,142.5,6|0,0:0|0:0,0:0:0:0:
190,166,47766,2,0,P|246:175|274:207,1,95,2|0,0:0|0:0,0:0:0:0:
406,360,48148,2,0,P|402:304|415:252,1,95,8|0,0:0|0:0,0:0:0:0:
459,115,48530,1,2,0:0:0:0:
486,327,48721,1,2,0:0:0:0:
278,214,48912,6,0,L|374:205,1,95,6|0,0:0|0:0,0:0:0:0:
173,144,49294,1,0,0:0:0:0:
268,375,49485,1,0,0:0:0:0:
379,218,49676,2,0,P|322:227|283:249,1,95,8|0,0:0|0:0,0:0:0:0:
185,356,50059,1,2,0:0:0:0:
234,104,50250,1,2,0:0:0:0:
34,203,50441,2,0,B|123:194|92:236|188:225,1,142.5,6|0,0:0|0:0,0:0:0:0:
257,139,50818,2,0,L|161:147,1,95,2|0,0:0|0:0,0:0:0:0:
378,44,51195,2,0,P|374:97|393:146,1,95,8|0,0:0|0:0,0:0:0:0:
509,288,51573,1,2,0:0:0:0:
276,223,51761,1,2,0:0:0:0:
373,345,51950,6,0,L|381:247,1,95,6|0,0:0|0:0,0:0:0:0:
265,76,52313,1,0,0:0:0:0:
223,301,52495,1,2,0:0:0:0:
111,136,52677,2,0,P|165:135|207:150,1,95,8|0,0:0|0:0,0:0:0:0:
64,347,53040,1,2,0:0:0:0:
88,141,53222,1,2,0:0:0:0:
338,327,53404,2,0,B|249:314|282:358|182:339,1,142.5,6|0,0:0|0:0,0:0:0:0:
170,199,53768,2,0,P|212:235|227:279,1,95,2|0,0:0|0:0,0:0:0:0:
329,75,54131,2,0,P|316:126|320:174,1,95,8|0,0:0|0:0,0:0:0:0:
488,315,54495,1,2,0:0:0:0:
396,130,54677,1,2,0:0:0:0:
301,351,54859,6,0,L|309:253,1,95,6|0,0:0|0:0,0:0:0:0:
216,97,55222,1,2,0:0:0:0:
326,341,55404,2,0,L|317:243,1,95,2|8,0:0|0:0,0:0:0:0:
200,107,55767,1,2,0:0:0:0:
115,357,55950,1,2,0:0:0:0:
221,207,56131,1,2,0:0:0:0:
221,207,56313,2,0,P|163:201|122:207,1,95,6|8,0:0|0:0,0:0:0:0:
353,115,56661,2,0,P|299:91|267:65,1,95,2|0,0:0|0:0,0:0:0:0:
490,216,57010,2,0,P|425:212|347:248,1,142.5,10|0,0:0|0:0,0:0:0:0:
308,312,57359,1,8,0:0:0:0:
320,85,57533,1,2,0:0:0:0:
132,231,57708,6,0,L|230:223,1,95,6|0,0:0|0:0,0:0:0:0:
397,322,58057,1,2,0:0:0:0:
142,206,58231,2,0,L|240:215,1,95,0|8,0:0|0:0,0:0:0:0:
389,344,58580,1,2,0:0:0:0:
320,90,58754,1,2,0:0:0:0:
252,328,58929,1,2,0:0:0:0:
433,167,59103,6,0,L|428:214,3,47.5,6|2|2|2,0:0|0:0|0:0|0:0,0:0:0:0:
338,114,59436,1,2,0:0:0:0:
334,130,59519,1,2,0:0:0:0:
332,146,59602,1,2,0:0:0:0:
332,163,59686,1,2,0:0:0:0:
347,191,59769,5,2,0:0:0:0:
304,171,59852,1,2,0:0:0:0:
256,169,59935,1,2,0:0:0:0:
212,184,60019,1,2,0:0:0:0:
176,215,60102,1,2,0:0:0:0:
284,346,60269,1,2,0:0:0:0:
44,219,60436,6,0,B|176:201|107:272|254:249,1,209.000006378174,6|8,0:0|0:0,0:0:0:0:
209,106,60930,1,2,0:0:0:0:
76,375,61095,2,0,P|90:322|90:270,1,95,2|0,0:0|0:0,0:0:0:0:
53,74,61425,1,8,0:0:0:0:
196,227,61589,1,0,0:0:0:0:
16,148,61754,2,0,L|168:134,1,142.5,2|0,0:0|0:0,0:0:0:0:
296,62,62084,2,0,P|242:54|195:24,1,95,8|0,0:0|0:0,0:0:0:0:
342,291,62414,2,0,L|351:183,1,95,2|0,0:0|0:0,0:0:0:0:
365,24,62743,1,8,0:0:0:0:
459,213,62908,1,0,0:0:0:0:
251,110,63073,5,6,0:0:0:0:
477,220,63234,1,0,0:0:0:0:
230,312,63395,2,0,P|280:291|333:290,1,95,8|0,0:0|0:0,0:0:0:0:
138,92,63718,1,2,0:0:0:0:
183,376,63879,1,0,0:0:0:0:
151,111,64040,1,8,0:0:0:0:
54,346,64202,1,0,0:0:0:0:
307,249,64363,2,0,L|150:235,1,142.5,2|0,0:0|0:0,0:0:0:0:
29,186,64685,2,0,L|133:176,1,95,8|0,0:0|0:0,0:0:0:0:
297,72,65008,2,0,P|235:72|196:48,1,95,2|0,0:0|0:0,0:0:0:0:
330,271,65331,1,8,0:0:0:0:
366,33,65492,1,0,0:0:0:0:
415,327,65653,5,6,0:0:0:0:
368,56,65814,1,0,0:0:0:0:
302,337,65976,1,8,0:0:0:0:
476,204,66137,1,0,0:0:0:0:
233,242,66298,2,0,P|289:242|333:258,1,95,2|0,0:0|0:0,0:0:0:0:
451,369,66621,1,8,0:0:0:0:
351,113,66782,1,0,0:0:0:0:
221,322,66943,2,0,L|233:174,1,142.5,2|0,0:0|0:0,0:0:0:0:
153,48,67266,2,0,P|162:104|147:150,1,95,8|0,0:0|0:0,0:0:0:0:
0,257,67589,2,0,L|93:265,1,95,2|0,0:0|0:0,0:0:0:0:
303,209,67911,1,8,0:0:0:0:
72,143,68073,1,0,0:0:0:0:
323,187,68234,5,6,0:0:0:0:
72,239,68391,1,0,0:0:0:0:
281,318,68549,2,0,P|223:321|181:342,1,95,8|0,0:0|0:0,0:0:0:0:
199,145,68865,1,2,0:0:0:0:
131,384,69023,1,0,0:0:0:0:
133,81,69181,1,8,0:0:0:0:
312,310,69339,1,0,0:0:0:0:
104,225,69497,2,0,L|247:212,1,142.5,2|0,0:0|0:0,0:0:0:0:
365,137,69821,2,0,L|267:128,1,95,8|0,0:0|0:0,0:0:0:0:
52,47,70145,2,0,P|103:43|155:72,1,95,2|0,0:0|0:0,0:0:0:0:
242,345,70469,1,8,0:0:0:0:
320,69,70632,1,2,0:0:0:0:
70,208,70794,6,0,B|125:186|125:186|192:196,1,123.499994346619,6|0,0:0|0:0,0:0:0:0:
428,231,71116,1,8,0:0:0:0:
98,322,71277,2,0,B|142:282|142:282|208:268,1,123.499994346619,2|2,0:0|0:0,0:0:0:0:
443,227,71599,1,2,0:0:0:0:
160,125,71761,1,8,0:0:0:0:
275,352,71923,1,2,0:0:0:0:
288,51,72084,2,0,B|278:173|335:111|322:243,1,185.249991519928,6|0,0:0|0:0,0:0:0:0:
448,108,72411,2,0,P|381:110|325:140,1,123.499994346619,8|0,0:0|0:0,0:0:0:0:
221,298,72739,2,0,L|343:308,1,123.499994346619,2|0,0:0|0:0,0:0:0:0:
153,98,73067,1,8,0:0:0:0:
166,355,73231,1,2,0:0:0:0:
418,208,73390,6,0,B|363:186|363:186|296:196,1,123.499994346619,6|0,0:0|0:0,0:0:0:0:
33,227,73705,1,8,0:0:0:0:
390,322,73863,2,0,B|346:282|346:282|280:268,1,123.499994346619,0|6,0:0|0:0,0:0:0:0:
18,223,74179,1,0,0:0:0:0:
271,116,74337,1,8,0:0:0:0:
174,384,74495,1,0,0:0:0:0:
128,57,74653,5,6,0:0:0:0:
217,318,74805,1,0,0:0:0:0:
203,21,74957,5,12,0:0:0:0:
145,374,75109,1,0,0:0:0:0:
336,86,75262,5,2,0:0:0:0:
327,121,75338,1,2,0:0:0:0:
321,164,75414,1,2,0:0:0:0:
327,212,75490,1,2,0:0:0:0:
339,250,75566,1,2,0:0:0:0:
287,199,75642,1,2,0:0:0:0:
217,179,75718,1,2,0:0:0:0:
146,191,75794,1,2,0:0:0:0:
90,235,75871,6,0,B|78:273|78:273|86:369,1,132.999995941162,6|0,0:0|0:0,0:0:0:0:
330,325,76175,1,8,0:0:0:0:
54,160,76328,1,0,0:0:0:0:
108,384,76480,5,2,0:0:0:0:
200,65,76632,1,2,0:0:0:0:
273,373,76784,1,8,0:0:0:0:
31,152,76937,1,2,0:0:0:0:
431,212,77089,1,14,0:0:0:0:
400,205,78301,6,0,B|362:193|362:193|266:201,1,132.999995941162,6|0,0:0|0:0,0:0:0:0:
371,357,78604,1,8,0:0:0:0:
331,64,78755,1,0,0:0:0:0:
231,378,78907,5,2,0:0:0:0:
475,168,79058,1,2,0:0:0:0:
201,208,79210,1,8,0:0:0:0:
495,341,79361,1,2,0:0:0:0:
110,264,79513,1,6,0:0:0:0:
121,339,80645,6,0,B|159:327|159:327|255:335,1,132.999995941162,6|0,0:0|0:0,0:0:0:0:
340,173,80942,1,8,0:0:0:0:
54,288,81090,1,0,0:0:0:0:
280,358,81239,5,2,0:0:0:0:
209,80,81387,1,2,0:0:0:0:
88,349,81536,1,8,0:0:0:0:
359,271,81684,1,2,0:0:0:0:
3,195,81833,1,14,0:0:0:0:
80,171,82965,6,0,B|118:159|118:159|214:167,1,132.999995941162,6|0,0:0|0:0,0:0:0:0:
126,313,83257,1,8,0:0:0:0:
56,87,83404,1,0,0:0:0:0:
348,374,83550,5,2,0:0:0:0:
302,115,83696,1,2,0:0:0:0:
197,353,83843,1,8,0:0:0:0:
218,51,83989,1,2,0:0:0:0:
416,319,84135,1,6,0:0:0:0:
452,215,85277,6,0,P|377:218|317:257,1,132.999995941162,6|0,0:0|0:0,0:0:0:0:
192,369,85563,1,8,0:0:0:0:
374,114,85706,2,0,P|303:142|260:199,1,123.499994346619,2|2,0:0|0:0,0:0:0:0:
209,384,85992,1,2,0:0:0:0:
270,54,86135,1,8,0:0:0:0:
409,297,86277,1,2,0:0:0:0:
82,261,86420,6,0,B|115:227|128:190|128:190|142:356|142:356|183:270|183:270|221:261|221:261|188:183|243:100,1,534.375020384789,6|0,0:0|0:0,0:0:0:0:
251,102,87541,6,0,P|326:105|386:144,1,132.999995941162,6|0,0:0|0:0,0:0:0:0:
511,256,87827,1,8,0:0:0:0:
329,1,87970,2,0,P|399:29|442:86,1,123.499994346619,2|2,0:0|0:0,0:0:0:0:
268,325,88256,1,2,0:0:0:0:
318,74,88398,1,8,0:0:0:0:
420,344,88541,1,2,0:0:0:0:
204,190,88683,6,0,B|253:201|278:267|278:267|272:194|301:149|301:149|270:79|270:79|320:107|320:107|357:80|357:80|357:120|375:155|375:155|347:215|382:219|348:303|348:303|379:268|417:262,1,712.5,6|0,0:0|0:0,0:0:0:0:
510,183,89826,6,0,B|476:174|476:174|379:188,1,123.499994346619,6|2,0:0|0:0,0:0:0:0:
160,342,90098,2,0,P|230:337|286:368,1,123.499994346619,8|0,0:0|0:0,0:0:0:0:
318,71,90371,1,2,0:0:0:0:
367,357,90507,1,2,0:0:0:0:
257,29,90644,1,8,0:0:0:0:
163,322,90780,1,2,0:0:0:0:
46,182,90916,6,0,B|172:162|92:227|253:201,1,185.249991519928,6|0,0:0|0:0,0:0:0:0:
382,342,91186,2,0,L|258:331,1,123.499994346619,12|0,0:0|0:0,0:0:0:0:
466,158,91456,2,0,P|508:210|512:269,1,123.499994346619,6|0,0:0|0:0,0:0:0:0:
261,141,91726,1,8,0:0:0:0:
499,49,91861,1,2,0:0:0:0:
322,232,91997,6,0,B|288:241|288:241|191:227,1,123.499994346619,6|2,0:0|0:0,0:0:0:0:
496,352,92263,2,0,B|462:343|462:343|365:357,1,123.499994346619,8|0,0:0|0:0,0:0:0:0:
351,46,92530,1,2,0:0:0:0:
254,384,92663,1,2,0:0:0:0:
172,34,92797,1,8,0:0:0:0:
394,259,92930,1,0,0:0:0:0:
83,156,93063,6,0,B|212:137|158:195|280:178,1,185.249991519928,6|0,0:0|0:0,0:0:0:0:
394,29,93325,2,0,P|324:28|278:64,1,123.499994346619,12|0,0:0|0:0,0:0:0:0:
474,307,93587,2,0,L|484:183,1,123.499994346619,6|2,0:0|0:0,0:0:0:0:
394,384,93849,1,8,0:0:0:0:
357,103,93980,1,2,0:0:0:0:
158,174,94111,6,0,B|192:165|192:165|289:179,1,123.499994346619,6|2,0:0|0:0,0:0:0:0:
425,308,94367,2,0,P|369:307|306:342,1,123.499994346619,8|0,0:0|0:0,0:0:0:0:
188,37,94623,1,2,0:0:0:0:
122,332,94752,1,2,0:0:0:0:
299,51,94880,1,8,0:0:0:0:
307,359,95008,1,0,0:0:0:0:
495,211,95136,6,0,B|369:191|449:256|288:230,1,185.249991519928,6|0,0:0|0:0,0:0:0:0:
194,80,95390,2,0,L|317:90,1,123.499994346619,12|0,0:0|0:0,0:0:0:0:
78,270,95644,2,0,P|59:204|76:150,1,123.499994346619,6|0,0:0|0:0,0:0:0:0:
204,364,95898,1,8,0:0:0:0:
260,66,96025,1,2,0:0:0:0:
349,357,96152,6,0,B|315:348|315:348|218:362,1,123.499994346619,6|2,0:0|0:0,0:0:0:0:
512,261,96407,2,0,B|478:270|478:270|381:256,1,123.499994346619,8|0,0:0|0:0,0:0:0:0:
209,21,96661,1,2,0:0:0:0:
317,316,96788,1,2,0:0:0:0:
307,41,96915,1,8,0:0:0:0:
219,347,97042,1,0,0:0:0:0:
478,184,97169,6,0,B|352:164|432:229|271:203,1,185.249991519928,6|0,0:0|0:0,0:0:0:0:
215,68,97424,2,0,P|287:54|337:86,1,123.499994346619,12|0,0:0|0:0,0:0:0:0:
102,283,97678,2,0,L|91:160,1,123.499994346619,6|2,0:0|0:0,0:0:0:0:
437,249,97932,1,8,0:0:0:0:
164,357,98059,1,2,0:0:0:0:
411,147,98186,6,0,P|355:136|278:166,1,132.999995941162,6|2,0:0|0:0,0:0:0:0:
76,380,98438,1,8,0:0:0:0:
310,70,98564,2,0,P|255:93|203:148,1,132.999995941162,6|2,0:0|0:0,0:0:0:0:
101,380,98816,1,2,0:0:0:0:
88,75,98942,1,12,0:0:0:0:
0,345,99068,1,2,0:0:0:0:
316,239,99194,6,0,B|198:212|231:276|103:245,1,199.499993911743,6|0,0:0|0:0,0:0:0:0:
411,328,99446,2,0,L|275:339,1,132.999995941162,12|0,0:0|0:0,0:0:0:0:
511,123,99698,2,0,L|375:111,1,132.999995941162,6|0,0:0|0:0,0:0:0:0:
257,341,99950,1,8,0:0:0:0:
341,43,100076,1,2,0:0:0:0:
57,124,100202,6,0,P|112:113|189:143,1,132.999995941162,6|2,0:0|0:0,0:0:0:0:
436,380,100460,1,8,0:0:0:0:
158,47,100589,2,0,P|212:70|264:125,1,132.999995941162,6|2,0:0|0:0,0:0:0:0:
411,380,100848,1,2,0:0:0:0:
293,0,100977,1,12,0:0:0:0:
88,308,101107,1,2,0:0:0:0:
512,343,101236,5,6,0:0:0:0:
0,216,101486,1,6,0:0:0:0:
512,74,101736,1,6,0:0:0:0:
