osu file format v14

[General]
AudioFilename: audio.mp3
AudioLeadIn: 0
PreviewTime: 59103
Countdown: 0
SampleSet: Soft
StackLeniency: 0.6
Mode: 0
LetterboxInBreaks: 0
WidescreenStoryboard: 0

[Editor]
DistanceSpacing: 0.75
BeatDivisor: 4
GridSize: 8
TimelineZoom: 1

[Metadata]
Title:Intermission
TitleUnicode:Intermission
Artist:Blur
ArtistUnicode:Blur
Creator:Skidooskei
Version:Max-Speed
Source:
Tags:BBC Radio 6 Live Maida Vale
BeatmapID:1926371
BeatmapSetID:922467

[Difficulty]
HPDrainRate:6
CircleSize:4.2
OverallDifficulty:9
ApproachRate:9.7
SliderMultiplier:1.7
SliderTickRate:1

[Events]
//Background and Video events
0,0,"loco.jpg",0,0
//Break Periods
//Storyboard Layer 0 (Background)
//Storyboard Layer 1 (Fail)
//Storyboard Layer 2 (Pass)
//Storyboard Layer 3 (Foreground)
//Storyboard Sound Samples

[TimingPoints]
125,612.244897959184,4,2,1,30,1,0
125,-120.481927710843,4,2,1,30,0,0
510,612.244897959184,4,2,1,30,1,0
737,550.45871559633,4,2,1,30,1,0
737,-125,4,2,1,30,0,0
1287,483.870967741935,4,2,1,30,1,0
1287,-125,4,2,1,30,0,0
1770,437.956204379562,4,2,1,30,1,0
1770,-121.951219512195,4,2,1,30,0,0
2207,-133.333333333333,4,2,1,30,0,0
3083,394.736842105263,4,2,1,30,1,0
3477,-133.333333333333,4,2,1,30,0,0
5846,416.666666666667,4,2,1,30,1,0
6262,434.782608695652,4,2,1,30,1,0
6696,387.096774193548,4,2,1,30,1,0
6696,-133.333333333333,4,2,1,30,0,0
7083,408.163265306122,4,2,1,30,1,0
7083,-133.333333333333,4,2,1,30,0,0
10348,389.61038961039,4,2,1,30,1,0
11127,-133.333333333333,4,2,1,30,0,0
11906,402.684563758389,4,2,1,30,1,0
11906,-133.333333333333,4,2,1,30,0,0
13516,387.096774193548,4,2,1,30,1,0
13516,-133.333333333333,4,2,1,30,0,0
15064,394.736842105263,4,2,1,30,1,0
15064,-133.333333333333,4,2,1,30,0,0
16642,389.61038961039,4,2,1,30,1,0
16642,-133.333333333333,4,2,1,30,0,0
17810,480,4,2,1,30,1,0
18290,508.474576271186,4,2,1,30,1,0
18290,-133.333333333333,4,2,1,30,0,0
20578,555.555555555556,4,2,1,30,1,0
21683,495.867768595041,4,2,1,40,1,0
21683,-111.111111111111,4,2,1,40,0,0
22178,521.739130434783,4,2,1,40,1,0
22699,461.538461538462,4,2,1,40,1,0
22699,-111.111111111111,4,2,1,40,0,0
23160,413.793103448276,4,2,1,40,1,0
23573,434.782608695652,4,2,1,40,1,0
23573,-133.333333333333,4,2,1,40,0,0
25312,422.535211267606,4,2,1,40,1,0
25312,-133.333333333333,4,2,1,40,0,0
27002,434.782608695652,4,2,1,40,1,0
27002,-133.333333333333,4,2,1,40,0,0
30480,444.444444444444,4,2,1,40,1,0
30480,-133.333333333333,4,2,1,40,0,0
34035,451.127819548872,4,2,1,40,1,0
34035,-133.333333333333,4,2,1,40,0,0
35839,428.571428571429,4,2,1,40,1,0
35839,-133.333333333333,4,2,1,40,0,0
37553,444.444444444444,4,2,1,40,1,0
37553,-133.333333333333,4,2,1,40,0,0
39330,422.535211267606,4,2,1,40,1,0
39330,-133.333333333333,4,2,1,40,0,0
41442,451.127819548872,4,2,1,40,1,0
41893,408.163265306122,4,2,1,40,1,0
41893,-100,4,2,1,40,0,0
42710,394.736842105263,4,2,1,40,1,1
42710,-90.9090909090909,4,2,1,50,0,1
42808,-90.9090909090909,4,2,1,50,0,0
43499,-100,4,2,1,50,0,0
44288,387.096774193548,4,2,1,50,1,0
47384,382.165605095541,4,2,1,50,1,0
50441,377.358490566038,4,2,1,50,1,0
51950,363.636363636364,4,2,1,50,1,0
56313,348.837209302326,4,2,1,50,1,0
59103,333.333333333333,4,2,1,50,1,0
60436,329.67032967033,4,2,1,60,1,1
60436,-90.9090909090909,4,2,1,60,0,1
60518,-90.9090909090909,4,2,1,60,0,0
61095,-100,4,2,1,60,0,0
63073,322.58064516129,4,2,1,60,1,0
68234,315.789473684211,4,2,1,60,1,0
69497,324.324324324324,4,2,1,60,1,0
70794,322.58064516129,4,2,1,60,1,0
70794,-76.9230769230769,4,2,1,60,0,0
72084,327.868852459016,4,2,1,60,1,0
72084,-76.9230769230769,4,2,1,60,0,0
73390,315.789473684211,4,2,1,60,1,0
73390,-76.9230769230769,4,2,1,60,0,0
74653,304.568527918782,4,2,1,60,1,0
74653,-76.9230769230769,4,2,1,60,0,0
75262,-76.9230769230769,4,2,1,60,0,0
75871,-71.4285714285714,4,2,1,70,0,1
76175,-76.9230769230769,4,2,1,70,0,1
77089,303.030303030303,4,2,1,70,1,0
78301,-71.4285714285714,4,2,1,70,0,1
78604,-76.9230769230769,4,2,1,70,0,1
79513,283.018867924528,4,2,1,70,1,0
80645,297.029702970297,4,2,1,70,1,1
80645,-71.4285714285714,4,2,1,70,0,1
80942,-76.9230769230769,4,2,1,70,0,1
81833,283.018867924528,4,2,1,70,1,0
82965,292.682926829268,4,2,1,70,1,1
82965,-71.4285714285714,4,2,1,70,0,1
83257,-76.9230769230769,4,2,1,70,0,1
84135,285.714285714286,4,2,1,70,1,0
85277,-71.4285714285714,4,2,1,70,0,1
85563,-76.9230769230769,4,2,1,70,0,1
86420,280.373831775701,4,2,1,70,1,0
86420,-133.333333333333,4,2,1,70,0,0
87541,285.714285714286,4,2,1,70,1,1
87541,-71.4285714285714,4,2,1,70,0,1
87826,-76.9230769230769,4,2,1,70,0,1
88683,-133.333333333333,4,2,1,70,0,0
89826,272.727272727273,4,2,1,80,1,1
89826,-76.9230769230769,4,2,1,80,0,1
90916,270.27027027027,4,2,1,80,1,1
90916,-76.9230769230769,4,2,1,80,0,1
91997,266.666666666667,4,2,1,80,1,1
91997,-76.9230769230769,4,2,1,80,0,1
93063,262.008733624454,4,2,1,80,1,1
93063,-76.9230769230769,4,2,1,80,0,1
94111,256.410256410256,4,2,1,80,1,1
94111,-76.9230769230769,4,2,1,80,0,1
95136,254.237288135593,4,2,1,80,1,1
95136,-76.9230769230769,4,2,1,80,0,1
98186,252.100840336134,4,2,1,90,1,1
98186,-71.4285714285714,4,2,1,90,0,1
100202,258.620689655172,4,2,1,90,1,1
100202,-71.4285714285714,4,2,1,90,0,1
101236,250,4,2,1,100,1,1
101736,-100,4,2,1,100,0,0

[Colours]
Combo1 : 162,204,213
Combo2 : 128,192,255
Combo3 : 179,205,203
Combo4 : 126,159,247

[HitObjects]
91,357,125,6,0,P|99:311|96:253,1,88.3999994604492
50,185,737,2,0,P|48:144|56:110,1,68,2|0,0:1|0:0,0:0:0:0:
140,66,1287,2,0,L|210:71,1,68
253,181,1770,2,0,L|323:175,1,69.7000010635376,2|0,0:1|0:0,0:0:0:0:
387,94,2207,2,0,B|454:81|439:115|514:101,2,127.500004863739,0|2|2,0:1|0:1|0:1,0:1:0:0:
494,295,3477,2,0,P|490:253|494:224,1,63.7500024318696
390,359,3872,5,0,0:0:0:0:
390,359,4069,1,0,0:0:0:0:
296,299,4267,1,2,0:1:0:0:
296,299,4464,1,0,0:0:0:0:
172,361,4661,2,0,L|235:366,1,63.7500024318696
71,275,5056,2,0,L|134:269,1,63.7500024318696,2|0,0:1|0:0,0:0:0:0:
234,191,5451,2,0,P|224:122|178:77,1,127.500004863739,0|2,0:0|0:1,0:0:0:0:
113,303,6262,1,2,0:1:0:0:
249,204,6696,2,0,L|314:209,1,63.7500024318696
444,130,7083,6,0,B|451:98|451:98|408:73|355:89,1,127.500004863739,0|2,0:1|0:1,0:1:0:0:
280,248,7695,1,0,0:0:0:0:
280,248,7899,2,0,P|281:209|276:175,1,63.7500024318696
375,336,8307,2,0,P|374:297|379:263,1,63.7500024318696,2|0,0:1|0:1,0:1:0:0:
199,142,8715,2,0,P|134:148|74:195,2,127.500004863739,0|2|2,0:0|0:1|0:1,0:0:0:0:
33,340,9940,2,0,P|38:300|35:271,1,63.7500024318696
88,81,10348,5,0,0:0:0:0:
88,81,10542,1,0,0:0:0:0:
139,179,10737,1,2,0:1:0:0:
139,179,10932,1,0,0:0:0:0:
229,115,11127,2,0,L|223:51,1,63.7500024318696
328,225,11516,2,0,L|334:161,1,63.7500024318696,2|0,0:1|0:1,0:1:0:0:
457,40,11906,2,0,P|398:32|334:74,1,127.500004863739,0|2,0:1|0:1,0:1:0:0:
458,241,12711,1,2,0:1:0:0:
322,171,13114,1,0,0:0:0:0:
346,84,13315,1,0,0:0:0:0:
346,84,13516,6,0,L|268:77,2,63.7500024318696,0|0|2,0:0|0:0|0:1,0:0:0:0:
188,173,14096,2,0,L|251:167,2,63.7500024318696,0|0|2,0:0|0:0|0:1,0:0:0:0:
368,263,14677,2,0,L|305:258,1,63.7500024318696,0|2,0:0|0:1,0:0:0:0:
208,329,15064,2,0,B|131:318|156:354|65:342,1,127.500004863739,0|2,0:0|0:1,0:0:0:0:
45,153,15853,2,0,P|105:216|101:258,1,127.500004863739,2|0,0:1|0:0,0:0:0:0:
158,91,16445,1,0,0:0:0:0:
158,91,16642,6,0,L|230:84,2,63.7500024318696,0|0|2,0:0|0:0|0:1,0:0:0:0:
328,191,17226,2,0,L|263:185,2,63.7500024318696,0|0|2,0:0|0:0|0:1,0:0:0:0:
409,125,17810,2,0,P|430:161|428:216,1,85,0|2,0:0|0:1,0:0:0:0:
313,329,18290,2,0,P|380:301|441:314,1,127.500004863739,0|2,0:0|0:1,0:0:0:0:
153,218,19306,6,0,L|154:201,2,15.9375006079674,0|0|2,0:0|0:0|0:1,0:0:0:0:
30,195,21683,6,0,B|93:173|93:221|182:185,1,152.999995330811,0|2,0:0|0:1,0:0:0:0:
478,337,22699,2,0,B|415:315|415:363|326:327,1,152.999995330811,0|2,0:0|0:1,0:0:0:0:
401,185,23366,1,0,0:0:0:0:
401,185,23470,1,0,0:0:0:0:
401,185,23573,2,0,L|406:252,1,63.7500024318696
323,94,24007,2,0,P|363:68|448:75,1,127.500004863739,2|2,0:1|0:1,0:0:0:0:
315,332,24877,2,0,L|247:326,1,63.7500024318696
134,221,25312,6,0,P|103:227|64:227,1,63.7500024318696
196,138,25734,1,2,0:1:0:0:
292,321,26157,2,0,P|323:318|360:308,1,63.7500024318696
220,254,26579,1,2,0:1:0:0:
419,189,26790,1,0,0:0:0:0:
419,189,26896,1,0,0:0:0:0:
419,189,27002,6,0,L|412:264,1,63.7500024318696
313,124,27436,2,0,P|337:94|374:76,1,63.7500024318696,2|0,0:1|0:0,0:0:0:0:
512,62,27871,2,0,B|429:75|461:32|371:48,1,127.500004863739,2|0,0:1|0:0,0:0:0:0:
333,203,28523,1,0,0:0:0:0:
252,98,28741,6,0,P|209:97|178:106,1,63.7500024318696
116,191,29175,1,2,0:1:0:0:
40,40,29610,2,0,P|82:39|113:48,1,63.7500024318696
190,137,30044,1,2,0:1:0:0:
62,222,30262,1,0,0:0:0:0:
62,222,30371,1,0,0:0:0:0:
62,222,30480,2,0,L|68:297,1,63.7500024318696
259,347,30924,2,0,P|208:331|133:367,1,127.500004863739,2|2,0:1|0:1,0:0:0:0:
305,199,31813,2,0,L|369:204,1,63.7500024318696
496,296,32257,6,0,P|453:295|422:304,1,63.7500024318696
350,384,32702,1,2,0:1:0:0:
306,163,33146,2,0,P|348:162|379:171,1,63.7500024318696
452,265,33591,1,2,0:1:0:0:
256,260,33813,1,0,0:0:0:0:
256,260,33924,1,0,0:0:0:0:
256,260,34035,2,0,L|262:334,1,63.7500024318696
179,186,34486,2,0,B|199:143|199:143|189:55,2,127.500004863739,2|2|0,0:1|0:1|0:0,0:0:0:0:
89,321,35613,1,0,0:0:0:0:
48,201,35839,6,0,P|16:229|0:254,1,63.7500024318696
169,150,36267,1,2,0:1:0:0:
169,150,36481,2,0,P|208:165|231:183,1,63.7500024318696
67,37,36910,1,2,0:1:0:0:
30,188,37124,1,0,0:0:0:0:
212,86,37339,1,2,0:1:0:0:
212,86,37553,6,0,P|274:79|345:111,1,127.500004863739,0|2,0:0|0:1,0:0:0:0:
394,311,38441,2,0,B|367:277|367:277|374:180,1,127.500004863739,2|0,0:1|0:0,0:0:0:0:
466,101,39108,1,0,0:0:0:0:
392,255,39330,6,0,P|423:283|439:308,1,63.7500024318696
253,209,39752,1,2,0:1:0:0:
253,209,39963,2,0,P|213:224|190:242,1,63.7500024318696
406,170,40386,1,2,0:1:0:0:
309,304,40597,1,0,0:0:0:0:
282,116,40808,1,2,0:1:0:0:
282,116,41020,2,0,P|339:83|416:102,1,127.500004863739,0|2,0:0|0:1,0:0:0:0:
214,268,41893,2,0,B|229:151|177:206|193:84,1,170,4|0,0:0|0:0,0:0:0:0:
99,316,42505,1,0,0:0:0:0:
44,194,42710,6,0,B|96:170|96:170|226:207,1,187.000005706787,6|0,0:0|0:0,0:0:0:0:
311,370,43302,1,2,0:0:0:0:
311,370,43499,2,0,P|257:371|219:393,1,85,8|0,0:0|0:0,0:0:0:0:
303,141,43894,1,2,0:0:0:0:
402,367,44091,1,2,0:0:0:0:
328,216,44288,2,0,L|336:120,1,85,2|0,0:0|0:0,0:0:0:0:
512,303,44675,2,0,P|465:317|376:299,1,127.5,2|0,0:0|0:0,0:0:0:0:
323,247,45062,2,0,P|270:246|234:263,1,85,12|0,0:0|0:0,0:0:0:0:
149,384,45449,1,0,0:0:0:0:
199,156,45642,1,0,0:0:0:0:
199,156,45836,6,0,B|183:256|228:231|207:341,1,170,6|0,0:0|0:0,0:0:0:0:
55,73,46417,1,2,0:0:0:0:
55,73,46610,2,0,P|108:60|146:61,1,85,8|0,0:0|0:0,0:0:0:0:
241,259,46997,1,2,0:0:0:0:
61,182,47191,1,2,0:0:0:0:
207,38,47384,2,0,L|195:173,1,127.5,6|0,0:0|0:0,0:0:0:0:
210,247,47766,2,0,P|224:204|261:167,1,85,2|0,0:0|0:0,0:0:0:0:
452,238,48148,2,0,B|403:236|373:270|373:270|335:240|284:250,1,170,8|2,0:0|0:0,0:0:0:0:
360,91,48721,1,2,0:0:0:0:
495,350,48912,6,0,B|448:324|448:324|329:360,1,170,6|0,0:0|0:0,0:0:0:0:
203,201,49485,1,0,0:0:0:0:
203,201,49676,2,0,P|255:209|293:197,1,85,8|0,0:0|0:0,0:0:0:0:
137,52,50059,1,2,0:0:0:0:
152,302,50250,1,2,0:0:0:0:
55,175,50441,2,0,L|62:88,1,85,6|0,0:0|0:0,0:0:0:0:
246,306,50818,2,0,P|268:248|247:162,1,127.5,2|0,0:0|0:0,0:0:0:0:
202,111,51195,2,0,P|201:68|222:21,1,85,8|0,0:0|0:0,0:0:0:0:
470,110,51573,1,2,0:0:0:0:
305,245,51761,1,2,0:0:0:0:
305,245,51950,6,0,B|413:230|371:284|489:267,1,170,6|0,0:0|0:0,0:0:0:0:
165,363,52495,1,2,0:0:0:0:
165,363,52677,2,0,P|208:347|263:350,1,85,8|0,0:0|0:0,0:0:0:0:
439,193,53040,1,2,0:0:0:0:
360,384,53222,1,2,0:0:0:0:
206,221,53404,2,0,L|335:232,1,127.5,6|0,0:0|0:0,0:0:0:0:
410,205,53768,2,0,P|358:200|328:184,1,85,2|0,0:0|0:0,0:0:0:0:
505,79,54131,2,0,L|411:87,1,85,8|0,0:0|0:0,0:0:0:0:
293,306,54495,1,2,0:0:0:0:
333,60,54677,1,2,0:0:0:0:
406,269,54859,6,0,P|360:284|318:284,1,85,6|0,0:0|0:0,0:0:0:0:
209,133,55222,1,2,0:0:0:0:
369,303,55404,2,0,P|320:301|281:286,1,85,2|8,0:0|0:0,0:0:0:0:
201,114,55767,1,2,0:0:0:0:
99,352,55950,1,2,0:0:0:0:
141,162,56131,1,2,0:0:0:0:
141,162,56313,2,0,L|148:249,1,85,6|8,0:0|0:0,0:0:0:0:
62,46,56661,2,0,L|54:136,1,85,2|0,0:0|0:0,0:0:0:0:
291,191,57010,2,0,P|232:210|166:197,1,127.5,10|0,0:0|0:0,0:0:0:0:
145,183,57359,1,8,0:0:0:0:
225,35,57533,1,2,0:0:0:0:
177,280,57708,6,0,P|224:286|266:279,1,85,6|0,0:0|0:0,0:0:0:0:
368,137,58057,1,2,0:0:0:0:
227,332,58231,2,0,P|274:321|310:300,1,85,0|8,0:0|0:0,0:0:0:0:
372,117,58580,1,2,0:0:0:0:
425,335,58754,1,2,0:0:0:0:
487,152,58929,1,2,0:0:0:0:
487,152,59103,6,0,L|491:207,3,42.5,6|2|2|2,0:0|0:0|0:0|0:0,0:0:0:0:
409,89,59436,2,0,L|373:131,3,42.5,2|2|2|2,0:0|0:0|0:0|0:0,0:0:0:0:
261,165,59769,5,2,0:0:0:0:
303,174,59852,1,2,0:0:0:0:
336,200,59935,1,2,0:0:0:0:
354,237,60019,1,2,0:0:0:0:
354,280,60102,1,2,0:0:0:0:
205,366,60269,1,2,0:0:0:0:
92,230,60436,6,0,B|209:212|169:264|281:246,1,187.000005706787,6|8,0:0|0:0,0:0:0:0:
195,65,60930,1,2,0:0:0:0:
70,254,61095,2,0,L|78:350,1,85,2|0,0:0|0:0,0:0:0:0:
90,46,61425,1,8,0:0:0:0:
177,269,61589,1,0,0:0:0:0:
34,147,61754,2,0,P|94:158|167:131,1,127.5,2|0,0:0|0:0,0:0:0:0:
230,70,62084,2,0,P|273:61|319:70,1,85,8|0,0:0|0:0,0:0:0:0:
393,272,62414,2,0,L|400:188,1,85,2|0,0:0|0:0,0:0:0:0:
379,25,62743,1,8,0:0:0:0:
274,225,62908,1,0,0:0:0:0:
482,93,63073,5,6,0:0:0:0:
252,231,63234,1,0,0:0:0:0:
472,333,63395,2,0,P|419:346|378:337,1,85,8|0,0:0|0:0,0:0:0:0:
295,143,63718,1,2,0:0:0:0:
308,384,63879,1,0,0:0:0:0:
170,266,64040,2,0,P|116:270|80:293,1,85,8|0,0:0|0:0,0:0:0:0:
356,231,64363,2,0,L|226:219,1,127.5,2|0,0:0|0:0,0:0:0:0:
137,145,64685,2,0,P|187:149|230:127,1,85,8|0,0:0|0:0,0:0:0:0:
368,23,65008,2,0,L|375:106,1,85,2|0,0:0|0:0,0:0:0:0:
302,301,65331,1,8,0:0:0:0:
195,111,65492,1,0,0:0:0:0:
202,363,65653,5,6,0:0:0:0:
179,87,65814,1,0,0:0:0:0:
66,267,65976,2,0,P|115:269|157:251,1,85,8|0,0:0|0:0,0:0:0:0:
205,107,66298,1,2,0:0:0:0:
285,351,66460,1,0,0:0:0:0:
355,89,66621,2,0,L|363:183,1,85,8|0,0:0|0:0,0:0:0:0:
427,331,66943,2,0,P|416:271|443:198,1,127.5,2|0,0:0|0:0,0:0:0:0:
484,131,67266,2,0,P|477:87|453:47,1,85,8|0,0:0|0:0,0:0:0:0:
259,183,67589,2,0,L|345:175,1,85,2|0,0:0|0:0,0:0:0:0:
305,68,67911,1,8,0:0:0:0:
192,329,68073,1,0,0:0:0:0:
226,94,68234,5,6,0:0:0:0:
310,369,68391,1,0,0:0:0:0:
156,222,68549,2,0,P|108:222|70:241,1,85,8|0,0:0|0:0,0:0:0:0:
190,94,68865,1,2,0:0:0:0:
83,333,69023,1,0,0:0:0:0:
230,187,69181,2,0,P|272:182|319:196,1,85,8|0,0:0|0:0,0:0:0:0:
403,369,69497,2,0,L|391:239,1,127.5,2|0,0:0|0:0,0:0:0:0:
454,122,69821,2,0,P|467:174|496:205,1,85,8|0,0:0|0:0,0:0:0:0:
335,90,70145,2,0,L|242:98,1,85,2|0,0:0|0:0,0:0:0:0:
114,317,70469,1,8,0:0:0:0:
157,63,70632,1,2,0:0:0:0:
5,195,70794,6,0,B|-7:247|-7:247|5:307,1,110.499994941712,6|0,0:0|0:0,0:0:0:0:
182,133,71116,1,8,0:0:0:0:
115,382,71277,2,0,B|168:375|168:375|220:343,1,110.499994941712,2|2,0:0|0:0,0:0:0:0:
99,113,71600,1,2,0:0:0:0:
41,366,71761,1,8,0:0:0:0:
295,213,71923,1,2,0:0:0:0:
295,213,72084,2,0,B|200:205|224:246|130:233,1,165.749992412568,6|0,0:0|0:0,0:0:0:0:
263,292,72411,2,0,P|322:299|376:339,1,110.499994941712,8|0,0:0|0:0,0:0:0:0:
499,133,72739,2,0,L|489:242,1,110.499994941712,2|0,0:0|0:0,0:0:0:0:
310,328,73067,1,8,0:0:0:0:
346,47,73231,1,2,0:0:0:0:
276,229,73390,6,0,B|328:222|328:222|381:190,1,110.499994941712,6|0,0:0|0:0,0:0:0:0:
165,75,73705,1,8,0:0:0:0:
153,325,73863,2,0,B|202:345|202:345|263:344,1,110.499994941712,0|6,0:0|0:0,0:0:0:0:
38,124,74178,1,0,0:0:0:0:
56,346,74337,1,8,0:0:0:0:
133,104,74495,1,0,0:0:0:0:
133,104,74653,2,0,B|141:199|100:175|113:269,1,165.749992412568,6|0,0:0|0:0,0:0:0:0:
51,136,74957,2,0,P|43:87|-10:44,1,110.499994941712,12|0,0:0|0:0,0:0:0:0:
189,231,75262,5,2,0:0:0:0:
239,210,75338,1,2,0:0:0:0:
294,215,75414,1,2,0:0:0:0:
343,246,75490,1,2,0:0:0:0:
410,275,75566,1,2,0:0:0:0:
477,246,75642,1,2,0:0:0:0:
501,174,75718,1,2,0:0:0:0:
453,110,75795,1,2,0:0:0:0:
372,111,75871,6,0,B|345:131|345:131|258:116,1,118.999996368408,6|0,0:0|0:0,0:0:0:0:
126,281,76175,2,0,L|238:271,1,110.499994941712,8|0,0:0|0:0,0:0:0:0:
144,95,76480,1,2,0:0:0:0:
195,384,76632,1,2,0:0:0:0:
304,147,76784,1,8,0:0:0:0:
60,248,76937,1,2,0:0:0:0:
395,337,77089,1,14,0:0:0:0:
324,299,78301,6,0,B|297:284|297:284|206:311,1,118.999996368408,6|0,0:0|0:0,0:0:0:0:
456,167,78604,2,0,L|336:156,1,110.499994941712,8|0,0:0|0:0,0:0:0:0:
375,384,78907,1,2,0:0:0:0:
255,105,79058,1,2,0:0:0:0:
212,348,79210,1,8,0:0:0:0:
433,265,79361,1,2,0:0:0:0:
103,210,79513,1,6,0:0:0:0:
182,210,80645,6,0,B|215:185|215:185|302:204,1,118.999996368408,6|0,0:0|0:0,0:0:0:0:
94,348,80942,2,0,L|84:234,1,110.499994941712,8|0,0:0|0:0,0:0:0:0:
271,88,81239,1,2,0:0:0:0:
225,348,81387,1,2,0:0:0:0:
45,109,81536,1,8,0:0:0:0:
113,368,81684,1,2,0:0:0:0:
175,52,81833,1,14,0:0:0:0:
175,73,82965,6,0,B|201:50|201:50|296:68,1,118.999996368408,6|0,0:0|0:0,0:0:0:0:
71,224,83257,2,0,L|181:214,1,110.499994941712,8|0,0:0|0:0,0:0:0:0:
284,371,83550,1,2,0:0:0:0:
222,95,83696,1,2,0:0:0:0:
70,327,83843,1,8,0:0:0:0:
130,50,83989,1,2,0:0:0:0:
173,364,84135,1,6,0:0:0:0:
188,378,85277,6,0,P|249:344|304:336,1,118.999996368408,6|0,0:0|0:0,0:0:0:0:
474,381,85563,1,8,0:0:0:0:
249,238,85706,2,0,P|318:239|370:259,1,110.499994941712,2|2,0:0|0:0,0:0:0:0:
503,368,85992,1,2,0:0:0:0:
275,75,86135,1,8,0:0:0:0:
291,324,86277,1,2,0:0:0:0:
507,173,86420,6,0,B|386:283|348:189|348:189|434:97|466:240|531:265|531:265|513:284|506:314,1,478.125018239022,6|0,0:0|0:0,0:0:0:0:
490,345,87541,6,0,P|429:311|374:303,1,118.999996368408,6|0,0:0|0:0,0:0:0:0:
164,365,87826,1,8,0:0:0:0:
404,195,87969,2,0,P|334:196|282:216,1,110.499994941712,2|2,0:0|0:0,0:0:0:0:
146,346,88255,1,2,0:0:0:0:
211,40,88398,1,8,0:0:0:0:
340,294,88541,1,2,0:0:0:0:
123,157,88683,6,0,B|182:157|221:116|221:116|251:143|251:143|259:68|323:58|323:58|381:106|345:194|345:194|363:157|398:137,1,478.125018239022,6|0,0:0|0:0,0:0:0:0:
456,239,89826,6,0,B|417:222|417:222|342:230,1,110.499994941712,6|2,0:0|0:0,0:0:0:0:
203,377,90098,2,0,P|257:370|313:386,1,110.499994941712,8|0,0:0|0:0,0:0:0:0:
244,116,90371,1,2,0:0:0:0:
98,345,90507,1,2,0:0:0:0:
143,69,90644,1,8,0:0:0:0:
254,281,90780,1,2,0:0:0:0:
75,237,90916,6,0,B|176:216|144:270|238:249,1,165.749992412568,6|0,0:0|0:0,0:0:0:0:
369,137,91186,2,0,P|315:136|260:105,1,110.499994941712,12|0,0:0|0:0,0:0:0:0:
428,244,91456,2,0,L|417:361,1,110.499994941712,6|0,0:0|0:0,0:0:0:0:
336,61,91726,1,8,0:0:0:0:
312,338,91861,1,2,0:0:0:0:
210,108,91997,5,6,0:0:0:0:
166,317,92130,1,2,0:0:0:0:
96,4,92263,2,0,B|78:24|78:24|86:118,1,110.499994941712,8|0,0:0|0:0,0:0:0:0:
225,223,92530,1,2,0:0:0:0:
64,356,92663,1,2,0:0:0:0:
176,111,92797,2,0,L|286:120,1,110.499994941712,8|0,0:0|0:0,0:0:0:0:
506,278,93063,6,0,B|409:268|443:317|332:308,1,165.749992412568,6|0,0:0|0:0,0:0:0:0:
479,158,93325,2,0,P|507:205|511:269,1,110.499994941712,12|0,0:0|0:0,0:0:0:0:
404,61,93587,1,6,0:0:0:0:
485,354,93718,1,2,0:0:0:0:
404,90,93849,1,8,0:0:0:0:
346,308,93980,1,2,0:0:0:0:
195,142,94111,6,0,B|215:124|215:124|309:132,1,110.499994941712,6|2,0:0|0:0,0:0:0:0:
162,332,94367,2,0,P|108:325|52:341,1,110.499994941712,8|0,0:0|0:0,0:0:0:0:
19,86,94623,1,2,0:0:0:0:
27,368,94752,1,2,0:0:0:0:
201,111,94880,1,8,0:0:0:0:
161,374,95008,1,0,0:0:0:0:
363,276,95136,6,0,B|262:255|294:309|200:288,1,165.749992412568,6|0,0:0|0:0,0:0:0:0:
94,198,95390,2,0,P|148:197|203:166,1,110.499994941712,12|0,0:0|0:0,0:0:0:0:
33,17,95644,2,0,L|22:131,1,110.499994941712,6|0,0:0|0:0,0:0:0:0:
160,369,95898,1,8,0:0:0:0:
131,119,96025,1,2,0:0:0:0:
350,139,96152,5,6,0:0:0:0:
290,358,96280,1,2,0:0:0:0:
225,79,96407,2,0,B|207:99|207:99|215:193,1,110.499994941712,8|0,0:0|0:0,0:0:0:0:
512,183,96661,1,2,0:0:0:0:
306,138,96788,1,2,0:0:0:0:
457,260,96915,2,0,L|447:369,1,110.499994941712,8|0,0:0|0:0,0:0:0:0:
203,261,97169,6,0,B|300:251|266:300|377:291,1,165.749992412568,6|0,0:0|0:0,0:0:0:0:
316,112,97424,2,0,P|265:141|240:199,1,110.499994941712,12|0,0:0|0:0,0:0:0:0:
174,41,97678,1,6,0:0:0:0:
57,345,97805,1,2,0:0:0:0:
92,84,97932,1,8,0:0:0:0:
210,327,98059,1,2,0:0:0:0:
75,214,98186,6,0,P|131:201|202:218,1,118.999996368408,6|2,0:0|0:0,0:0:0:0:
323,376,98438,1,8,0:0:0:0:
55,227,98564,2,0,P|96:187|166:166,1,118.999996368408,6|2,0:0|0:0,0:0:0:0:
342,370,98816,1,2,0:0:0:0:
233,67,98942,1,12,0:0:0:0:
152,325,99068,1,2,0:0:0:0:
428,170,99194,6,0,B|324:155|349:204|239:187,1,178.499994552612,6|0,0:0|0:0,0:0:0:0:
504,108,99446,2,0,P|518:162|502:235,1,118.999996368408,12|0,0:0|0:0,0:0:0:0:
258,345,99698,2,0,P|297:305|368:283,1,118.999996368408,6|0,0:0|0:0,0:0:0:0:
503,358,99950,1,8,0:0:0:0:
291,114,100076,1,2,0:0:0:0:
137,335,100202,6,0,P|193:348|264:331,1,118.999996368408,6|2,0:0|0:0,0:0:0:0:
392,106,100460,1,8,0:0:0:0:
117,322,100589,2,0,P|158:361|228:382,1,118.999996368408,6|2,0:0|0:0,0:0:0:0:
411,112,100848,1,2,0:0:0:0:
68,144,100977,1,12,0:0:0:0:
332,359,101107,1,2,0:0:0:0:
207,57,101236,5,6,0:0:0:0:
33,341,101486,1,6,0:0:0:0:
475,226,101736,1,6,0:0:0:0:
