osu file format v14

[General]
AudioFilename: audio.mp3
AudioLeadIn: 0
PreviewTime: 59103
Countdown: 0
SampleSet: Soft
StackLeniency: 0.5
Mode: 0
LetterboxInBreaks: 0
WidescreenStoryboard: 1

[Editor]
DistanceSpacing: 0.75
BeatDivisor: 4
GridSize: 8
TimelineZoom: 1

[Metadata]
Title:Intermission
TitleUnicode:Intermission
Artist:Blur
ArtistUnicode:Blur
Creator:Skidooskei
Version:Extreme-Speed
Source:
Tags:BBC Radio 6 Live Maida Vale
BeatmapID:1948149
BeatmapSetID:922467

[Difficulty]
HPDrainRate:5.5
CircleSize:4
OverallDifficulty:8.2
ApproachRate:9.5
SliderMultiplier:1.7
SliderTickRate:1

[Events]
//Background and Video events
0,0,"loco.jpg",0,0
//Break Periods
//Storyboard Layer 0 (Background)
//Storyboard Layer 1 (Fail)
//Storyboard Layer 2 (Pass)
//Storyboard Layer 3 (Foreground)
//Storyboard Sound Samples

[TimingPoints]
125,612.244897959184,4,2,1,30,1,0
125,-142.857142857143,4,2,1,30,0,0
510,612.244897959184,4,2,1,30,1,0
737,550.45871559633,4,2,1,30,1,0
737,-125,4,2,1,30,0,0
1287,483.870967741935,4,2,1,30,1,0
1287,-125,4,2,1,30,0,0
1770,437.956204379562,4,2,1,30,1,0
1770,-121.951219512195,4,2,1,30,0,0
2207,-133.333333333333,4,2,1,30,0,0
3083,394.736842105263,4,2,1,30,1,0
3477,-133.333333333333,4,2,1,30,0,0
5846,416.666666666667,4,2,1,30,1,0
6262,434.782608695652,4,2,1,30,1,0
6696,387.096774193548,4,2,1,30,1,0
6696,-133.333333333333,4,2,1,30,0,0
7083,408.163265306122,4,2,1,30,1,0
7083,-133.333333333333,4,2,1,30,0,0
10348,389.61038961039,4,2,1,30,1,0
10348,-125,4,2,1,30,0,0
11127,-133.333333333333,4,2,1,30,0,0
11906,402.684563758389,4,2,1,30,1,0
11906,-133.333333333333,4,2,1,30,0,0
13516,387.096774193548,4,2,1,30,1,0
13516,-133.333333333333,4,2,1,30,0,0
15064,394.736842105263,4,2,1,30,1,0
15064,-133.333333333333,4,2,1,30,0,0
16642,389.61038961039,4,2,1,30,1,0
16642,-133.333333333333,4,2,1,30,0,0
17810,480,4,2,1,30,1,0
18290,508.474576271186,4,2,1,30,1,0
18290,-133.333333333333,4,2,1,30,0,0
20578,555.555555555556,4,2,1,30,1,0
21683,495.867768595041,4,2,1,40,1,0
21683,-111.111111111111,4,2,1,40,0,0
22178,521.739130434783,4,2,1,40,1,0
22699,461.538461538462,4,2,1,40,1,0
22699,-111.111111111111,4,2,1,40,0,0
23160,413.793103448276,4,2,1,40,1,0
23573,434.782608695652,4,2,1,40,1,0
23573,-133.333333333333,4,2,1,40,0,0
25312,422.535211267606,4,2,1,40,1,0
25312,-133.333333333333,4,2,1,40,0,0
27002,434.782608695652,4,2,1,40,1,0
27002,-133.333333333333,4,2,1,40,0,0
30480,444.444444444444,4,2,1,40,1,0
30480,-133.333333333333,4,2,1,40,0,0
34035,451.127819548872,4,2,1,40,1,0
34035,-133.333333333333,4,2,1,40,0,0
35839,428.571428571429,4,2,1,40,1,0
35839,-133.333333333333,4,2,1,40,0,0
37553,444.444444444444,4,2,1,40,1,0
37553,-133.333333333333,4,2,1,40,0,0
39330,422.535211267606,4,2,1,40,1,0
39330,-133.333333333333,4,2,1,40,0,0
41442,451.127819548872,4,2,1,40,1,0
41893,408.163265306122,4,2,1,40,1,0
41893,-100,4,2,1,40,0,0
42710,394.736842105263,4,2,1,40,1,1
42710,-90.9090909090909,4,2,1,50,0,1
42808,-90.9090909090909,4,2,1,50,0,0
43499,-100,4,2,1,50,0,0
44288,387.096774193548,4,2,1,50,1,0
47384,382.165605095541,4,2,1,50,1,0
50441,377.358490566038,4,2,1,50,1,0
51950,363.636363636364,4,2,1,50,1,0
56313,348.837209302326,4,2,1,50,1,0
59103,333.333333333333,4,2,1,50,1,0
60436,329.67032967033,4,2,1,60,1,1
60436,-90.9090909090909,4,2,1,60,0,1
60518,-90.9090909090909,4,2,1,60,0,0
61095,-100,4,2,1,60,0,0
63073,322.58064516129,4,2,1,60,1,0
68234,315.789473684211,4,2,1,60,1,0
69497,324.324324324324,4,2,1,60,1,0
70794,322.58064516129,4,2,1,60,1,0
70794,-76.9230769230769,4,2,1,60,0,0
72084,327.868852459016,4,2,1,60,1,0
72084,-76.9230769230769,4,2,1,60,0,0
73390,315.789473684211,4,2,1,60,1,0
73390,-76.9230769230769,4,2,1,60,0,0
74653,304.568527918782,4,2,1,60,1,0
74653,-76.9230769230769,4,2,1,60,0,0
75262,-76.9230769230769,4,2,1,60,0,0
75871,-71.4285714285714,4,2,1,70,0,1
76175,-76.9230769230769,4,2,1,70,0,1
77089,303.030303030303,4,2,1,70,1,0
78301,-71.4285714285714,4,2,1,70,0,1
78604,-76.9230769230769,4,2,1,70,0,1
79513,283.018867924528,4,2,1,70,1,0
80645,297.029702970297,4,2,1,70,1,1
80645,-71.4285714285714,4,2,1,70,0,1
80942,-76.9230769230769,4,2,1,70,0,1
81833,283.018867924528,4,2,1,70,1,0
82965,292.682926829268,4,2,1,70,1,1
82965,-71.4285714285714,4,2,1,70,0,1
83257,-76.9230769230769,4,2,1,70,0,1
84135,285.714285714286,4,2,1,70,1,0
85277,-71.4285714285714,4,2,1,70,0,1
85563,-76.9230769230769,4,2,1,70,0,1
86420,280.373831775701,4,2,1,70,1,0
86420,-133.333333333333,4,2,1,70,0,0
87541,285.714285714286,4,2,1,70,1,1
87541,-71.4285714285714,4,2,1,70,0,1
87826,-76.9230769230769,4,2,1,70,0,1
88683,-133.333333333333,4,2,1,70,0,0
89826,272.727272727273,4,2,1,80,1,1
89826,-76.9230769230769,4,2,1,80,0,1
90916,270.27027027027,4,2,1,80,1,1
90916,-76.9230769230769,4,2,1,80,0,1
91997,266.666666666667,4,2,1,80,1,1
91997,-76.9230769230769,4,2,1,80,0,1
93063,262.008733624454,4,2,1,80,1,1
93063,-76.9230769230769,4,2,1,80,0,1
94111,256.410256410256,4,2,1,80,1,1
94111,-76.9230769230769,4,2,1,80,0,1
95136,254.237288135593,4,2,1,80,1,1
95136,-76.9230769230769,4,2,1,80,0,1
98186,252.100840336134,4,2,1,90,1,1
98186,-71.4285714285714,4,2,1,90,0,1
100202,258.620689655172,4,2,1,90,1,1
100202,-71.4285714285714,4,2,1,90,0,1
101236,250,4,2,1,100,1,1
101736,-100,4,2,1,100,0,0

[Colours]
Combo1 : 162,204,213
Combo2 : 128,192,255
Combo3 : 179,205,203
Combo4 : 126,159,247

[HitObjects]
29,302,125,6,0,P|67:298|111:304,1,75
180,358,737,2,0,L|258:351,1,68
370,265,1287,2,0,L|292:258,1,68
440,298,1770,2,0,L|362:291,1,69.7000010635376
230,173,2207,2,0,P|169:169|98:196,2,127.500004863739
411,92,3477,2,0,P|370:94|344:91,1,63.7500024318696
215,154,3872,6,0,L|287:147,1,63.7500024318696,0|0,0:0|0:0,0:0:0:0:
253,229,4267,2,0,L|325:222,1,63.7500024318696,0|0,0:0|0:0,0:0:0:0:
140,283,4661,2,0,L|212:288,1,63.7500024318696,0|0,0:0|0:0,0:0:0:0:
164,363,5056,2,0,L|236:368,1,63.7500024318696,0|0,0:0|0:0,0:0:0:0:
108,152,5451,2,0,P|125:209|117:288,1,127.500004863739
23,365,6262,1,0,0:0:0:0:
214,214,6696,2,0,P|181:219|148:217,1,63.7500024318696
399,140,7083,6,0,L|406:68,1,63.7500024318696
324,102,7491,2,0,L|331:30,1,63.7500024318696
437,276,7899,2,0,L|430:204,1,63.7500024318696,0|0,0:0|0:0,0:0:0:0:
512,238,8307,2,0,L|505:166,1,63.7500024318696
272,347,8715,2,0,P|345:332|397:344,2,127.500004863739
101,214,9940,2,0,P|138:216|172:213,1,63.7500024318696
261,67,10348,6,0,L|254:139,1,68,0|0,0:0|0:0,0:0:0:0:
336,105,10737,2,0,L|329:177,1,68
197,190,11127,2,0,L|204:262,1,63.7500024318696
122,228,11516,2,0,L|129:300,1,63.7500024318696
387,306,11906,2,0,P|312:290|256:302,1,127.500004863739
179,382,12711,1,0,0:0:0:0:
419,175,13114,2,0,P|417:212|421:248,1,63.7500024318696
342,54,13516,6,0,P|303:63|268:64,2,63.7500024318696
154,134,14096,2,0,P|186:138|218:146,2,63.7500024318696
353,220,14677,2,0,P|321:224|290:232,1,63.7500024318696
126,332,15064,2,0,L|259:342,1,127.500004863739
39,166,15853,2,0,B|31:242|61:209|57:297,1,127.500004863739
152,141,16445,1,0,0:0:0:0:
135,134,16642,6,0,P|177:143|214:144,2,63.7500024318696
323,207,17226,2,0,P|289:210|256:218,2,63.7500024318696
147,294,17810,2,0,P|179:297|229:318,1,85
405,354,18290,2,0,P|349:355|285:384,1,127.500004863739
476,273,19306,6,0,L|477:289,2,15.9375006079674
34,19,21689,6,0,B|46:125|46:125|23:172,1,152.999995330811
136,334,22699,2,0,B|123:228|123:228|146:181,1,152.999995330811
265,246,23366,1,0,0:0:0:0:
265,246,23470,1,0,0:0:0:0:
265,246,23573,2,0,P|225:251|193:260,1,63.7500024318696
337,325,24007,2,0,P|395:318|463:340,1,127.500004863739
324,115,24877,2,0,L|318:178,1,63.7500024318696
512,132,25312,6,0,P|465:139|435:137,1,63.7500024318696
317,31,25734,1,0,0:0:0:0:
497,158,26157,2,0,P|450:165|420:163,1,63.7500024318696
302,57,26579,1,0,0:0:0:0:
237,218,26790,1,0,0:0:0:0:
237,218,26896,1,0,0:0:0:0:
245,218,27002,2,0,L|250:152,1,63.7500024318696
165,326,27436,2,0,L|158:260,1,63.7500024318696
50,103,27871,2,0,P|118:106|177:144,1,127.500004863739
229,247,28523,1,0,0:0:0:0:
203,13,28741,6,0,P|210:60|208:90,1,63.7500024318696
102,208,29175,1,0,0:0:0:0:
229,28,29610,2,0,P|236:75|234:105,1,63.7500024318696
128,223,30045,1,0,0:0:0:0:
337,162,30262,1,0,0:0:0:0:
337,162,30371,1,0,0:0:0:0:
332,159,30480,2,0,P|295:162|269:160,1,63.7500024318696
465,243,30924,2,0,P|417:258|365:318,1,127.500004863739
443,82,31813,2,0,L|448:146,1,63.7500024318696
219,128,32257,6,0,P|266:135|296:133,1,63.7500024318696
414,27,32702,1,0,0:0:0:0:
234,154,33146,2,0,P|281:161|311:159,1,63.7500024318696
429,53,33591,1,0,0:0:0:0:
369,232,33813,1,0,0:0:0:0:
369,232,33924,1,0,0:0:0:0:
369,232,34035,2,0,L|373:169,1,63.7500024318696
485,349,34486,2,0,L|480:285,1,63.7500024318696
191,306,34937,2,0,B|254:285|254:326|325:305,1,127.500004863739
139,196,35613,1,0,0:0:0:0:
139,196,35839,6,0,P|142:233|137:270,2,63.7500024318696
246,99,36481,2,0,P|243:136|248:173,2,63.7500024318696
352,35,37124,1,0,0:0:0:0:
432,169,37339,1,0,0:0:0:0:
432,169,37446,1,0,0:0:0:0:
432,169,37553,2,0,L|363:175,1,63.7500024318696
246,262,37997,2,0,L|314:268,1,63.7500024318696
466,334,38441,2,0,P|397:323|343:352,1,127.500004863739
260,191,39108,1,0,0:0:0:0:
260,191,39330,6,0,P|257:228|262:265,2,56.2500021457673
153,94,39963,2,0,P|156:131|151:168,2,56.2500021457673
47,30,40597,1,0,0:0:0:0:
22,192,40808,1,0,0:0:0:0:
22,192,40914,1,0,0:0:0:0:
22,192,41020,2,0,L|91:198,1,56.2500021457673
231,256,41442,2,0,L|150:263,1,75
427,355,41893,2,0,B|387:331|387:331|278:360,1,150
427,235,42505,1,0,0:0:0:0:
373,96,42709,6,0,B|363:209|417:134|402:283,1,165.000005035401
228,71,43302,1,0,0:0:0:0:
228,71,43499,2,0,P|275:57|307:58,1,75
201,273,43894,1,0,0:0:0:0:
137,81,44091,1,0,0:0:0:0:
80,307,44288,2,0,L|87:219,1,75
10,45,44675,2,0,P|14:93|10:130,1,75
215,212,45062,2,0,B|185:199|185:199|98:211,1,112.5
14,224,45449,1,0,0:0:0:0:
192,100,45642,1,0,0:0:0:0:
357,261,45836,6,0,P|306:264|270:278,1,75
512,190,46223,2,0,P|461:187|425:173,1,75
316,77,46610,1,0,0:0:0:0:
335,340,46804,1,0,0:0:0:0:
233,194,46997,2,0,L|240:108,1,75
35,282,47384,2,0,P|81:271|116:273,1,75
257,384,47766,2,0,L|174:376,1,75
316,170,48148,2,0,B|346:208|346:208|339:319,1,150
234,209,48721,1,0,0:0:0:0:
468,134,48912,6,0,P|425:141|382:136,1,75
262,13,49294,2,0,P|289:46|306:86,1,75
242,264,49676,1,0,0:0:0:0:
211,89,49868,1,0,0:0:0:0:
353,332,50059,2,0,L|360:245,1,75
171,184,50441,2,0,L|253:176,1,75
450,248,50818,2,0,P|397:246|366:235,1,75
487,64,51195,2,0,L|497:178,1,112.5
468,264,51573,1,0,0:0:0:0:
310,110,51761,1,0,0:0:0:0:
225,291,51950,6,0,P|269:281|300:283,1,75
75,191,52313,2,0,P|119:201|150:199,1,75
232,96,52677,1,0,0:0:0:0:
188,360,52859,1,0,0:0:0:0:
228,117,53040,1,0,0:0:0:0:
292,268,53222,1,0,0:0:0:0:
436,108,53404,2,0,P|386:111|352:127,1,75
190,257,53768,2,0,L|267:263,1,75
115,88,54131,2,0,B|136:117|136:117|127:199,1,112.5
55,274,54495,1,0,0:0:0:0:
230,135,54677,1,0,0:0:0:0:
389,297,54859,6,0,P|355:281|304:278,1,75
130,341,55222,1,0,0:0:0:0:
367,232,55404,2,0,P|329:228|280:243,1,75
134,352,55768,1,0,0:0:0:0:
216,171,55950,1,0,0:0:0:0:
55,247,56131,1,0,0:0:0:0:
55,247,56313,2,0,L|141:254,1,75
312,141,56661,2,0,L|225:148,1,75
8,38,57010,2,0,P|69:53|110:105,1,112.5
109,116,57359,1,0,0:0:0:0:
36,256,57533,1,0,0:0:0:0:
198,94,57708,6,0,P|214:128|217:179,1,75
154,353,58057,1,0,0:0:0:0:
263,116,58231,2,0,P|267:154|252:203,1,75
143,349,58580,1,0,0:0:0:0:
325,284,58754,1,0,0:0:0:0:
150,208,58929,1,0,0:0:0:0:
150,208,59103,6,0,L|154:254,3,37.5
64,139,59436,2,0,L|59:185,3,37.5
0,243,59769,1,0,0:0:0:0:
19,274,59853,1,0,0:0:0:0:
28,310,59936,1,0,0:0:0:0:
25,348,60019,1,0,0:0:0:0:
11,382,60103,1,0,0:0:0:0:
157,276,60269,1,0,0:0:0:0:
0,101,60436,6,0,B|116:87|53:133|177:118,1,165.000005035401
336,39,60930,1,0,0:0:0:0:
292,172,61095,2,0,P|294:222|303:258,1,75
220,60,61425,1,0,0:0:0:0:
186,302,61589,1,0,0:0:0:0:
71,130,61754,2,0,L|149:123,1,75
336,261,62084,2,0,P|292:258|253:265,1,75
81,384,62414,1,0,0:0:0:0:
159,150,62578,1,0,0:0:0:0:
222,363,62743,1,0,0:0:0:0:
47,211,62908,1,0,0:0:0:0:
300,263,63073,6,0,P|261:261|206:271,1,85
426,191,63395,2,0,P|387:192|332:182,1,85
257,86,63718,1,0,0:0:0:0:
323,343,63879,1,0,0:0:0:0:
200,158,64040,2,0,L|192:247,1,85
71,70,64363,2,0,P|118:64|158:72,1,85
301,219,64685,2,0,L|226:225,1,42.5
433,132,65008,2,0,L|358:125,1,42.5
211,314,65331,1,0,0:0:0:0:
259,75,65492,1,0,0:0:0:0:
68,145,65653,6,0,P|109:147|147:162,1,42.5
294,318,65976,2,0,P|253:320|215:335,1,42.5
297,111,66298,1,0,0:0:0:0:
383,287,66460,1,0,0:0:0:0:
212,216,66621,2,0,L|219:134,1,42.5
