osu file format v14

[General]
AudioFilename: audio.ogg
AudioLeadIn: 0
PreviewTime: 21783
Countdown: 0
SampleSet: Soft
StackLeniency: 0.7
Mode: 3
LetterboxInBreaks: 0
SpecialStyle: 0
WidescreenStoryboard: 1

[Editor]
Bookmarks: 33569
DistanceSpacing: 0.8
BeatDivisor: 2
GridSize: 16
TimelineZoom: 0.8999999

[Metadata]
Title:Herz an Herz (Cut Ver.)
TitleUnicode:Herz an Herz (Cut Ver.)
Artist:Bluemchen
ArtistUnicode:Blümchen
Creator:diamant66
Version:Normal
Source:
Tags:SYISHI ]sushi[ maxim-miau german deutsch electronic eurodance happy hardcore electro-pop dance Herzfrequenz Jasmin Wagner Alexandra Prince paralyzer Stani “Silence” Djukanovic Sonja Mangold Frank Oberpichler peermusic Edel music paso doble osu!mania 6k spread mapping contest chordstream
BeatmapID:3610294
BeatmapSetID:1763882

[Difficulty]
HPDrainRate:7.2
CircleSize:6
OverallDifficulty:7.2
ApproachRate:5
SliderMultiplier:1.4
SliderTickRate:1

[Events]
//Background and Video events
0,0,"zaburzenia-rytmu-serca-u-dzieci.jpg",0,0
//Break Periods
//Storyboard Layer 0 (Background)
//Storyboard Layer 1 (Fail)
//Storyboard Layer 2 (Pass)
//Storyboard Layer 3 (Foreground)
//Storyboard Layer 4 (Overlay)
//Storyboard Sound Samples
Sample,21783,0,"Cymbal 32.wav",30
Sample,22448,0,"Cymbal 32.wav",30
Sample,43402,0,"Cymbal 32.wav",30
Sample,43651,0,"Cymbal 32.wav",30
Sample,43900,0,"Cymbal 32.wav",30
Sample,44067,0,"Cymbal 32.wav",30
Sample,44233,0,"Cymbal 32.wav",30
Sample,44316,0,"Cymbal 32.wav",10
Sample,54045,0,"Cymbal 32.wav",30
Sample,54294,0,"Cymbal 32.wav",30
Sample,54543,0,"Cymbal 32.wav",30
Sample,54710,0,"Cymbal 32.wav",30
Sample,54876,0,"Cymbal 32.wav",30
Sample,54959,0,"Cymbal 32.wav",20
Sample,65353,0,"Cymbal 32.wav",20
Sample,75331,0,"Cymbal 32.wav",30
Sample,75580,0,"Cymbal 32.wav",30
Sample,75996,0,"Cymbal 32.wav",30
Sample,76245,0,"Cymbal 32.wav",30

[TimingPoints]
296,341.763499658236,4,2,1,40,1,0
296,-97.31707317,4,2,1,40,0,0
1663,338.983050847458,4,2,1,40,1,0
1663,-98.11529933,4,2,1,40,0,0
1693,337.457817772778,4,2,1,40,1,8
1693,-98.55875831,4,2,1,40,0,0
3018,352.941176470588,4,2,1,40,1,0
3018,-94.23503326,4,2,1,40,0,0
3042,337.457817772778,4,2,1,40,1,8
3042,-98.55875831,4,2,1,40,0,0
3717,352.941176470588,4,2,1,40,1,8
3717,-94.23503326,4,2,1,40,0,0
4391,337.457817772778,4,2,1,40,1,8
4391,-98.55875831,4,2,1,40,0,0
4422,332.594235033259,4,2,1,40,1,0
4422,-100,4,2,1,40,0,0
5087,342.857142857143,4,2,1,40,1,8
5087,-97.00665188,4,2,1,40,0,0
5740,337.457817772778,4,2,1,40,1,8
5740,-98.55875831,4,2,1,40,0,0
5772,359.281437125748,4,2,1,40,1,0
5772,-92.57206208,4,2,1,40,0,0
7089,337.457817772778,4,2,1,40,1,8
7089,-98.55875831,4,2,1,40,0,0
7198,314.13612565445,4,2,1,40,1,0
7198,-105.8758315,4,2,1,40,0,0
7827,326.086956521739,4,2,1,40,1,8
7827,-101.9955654,4,2,1,40,0,0
8438,337.457817772778,4,2,1,40,1,8
8438,-98.55875831,4,2,1,40,0,0
8493,357.142857142857,4,2,1,40,1,0
8493,-93.12638581,4,2,1,40,0,0
9207,329.67032967033,4,2,1,40,1,8
9207,-100.886918,4,2,1,40,0,0
9810,332.594235033259,4,2,1,40,1,0
9810,-100,4,2,1,40,0,0
12470,-100,4,2,1,50,0,0
21783,-100,4,2,1,70,0,0
76328,-100,4,2,1,60,0,0
81650,-100,4,2,1,50,0,0

[HitObjects]
384,192,296,128,0,979:0:0:0:0:
298,192,979,128,0,1663:0:0:0:0:
42,192,1663,128,0,3018:0:0:0:0:
128,192,2340,1,0,0:0:0:0:
298,192,2679,1,0,0:0:0:0:
469,192,3018,128,0,4422:0:0:0:0:
128,192,3717,1,0,0:0:0:0:
384,192,4069,1,0,0:0:0:0:
213,192,4422,128,0,5772:0:0:0:0:
298,192,4754,1,0,0:0:0:0:
42,192,5087,1,0,0:0:0:0:
469,192,5429,1,0,0:0:0:0:
128,192,5772,128,0,7198:0:0:0:0:
298,192,6490,1,0,0:0:0:0:
469,192,6849,1,0,0:0:0:0:
42,192,7198,128,0,7827:0:0:0:0:
298,192,7827,128,0,8153:0:0:0:0:
384,192,8153,128,0,8493:0:0:0:0:
469,192,8493,128,0,9810:0:0:0:0:
128,192,9207,1,0,0:0:0:0:
213,192,9536,1,0,0:0:0:0:
298,192,9810,1,0,0:0:0:0:
42,192,9976,1,0,0:0:0:50:Tom 16G.wav
213,192,10142,1,0,0:0:0:50:Tom 16G.wav
469,192,10308,1,0,0:0:0:50:Tom 16E.wav
384,192,10392,1,0,0:0:0:50:Tom 16E.wav
298,192,10475,1,0,0:0:0:50:Tom 16G.wav
128,192,10641,1,0,0:0:0:50:Tom 16G.wav
42,192,10807,1,0,0:0:0:50:Tom 16G.wav
213,192,10974,1,0,0:0:0:50:Tom 16G.wav
384,192,11140,1,0,0:0:0:50:Tom 16G.wav
469,192,11223,1,0,0:0:0:50:Tom 16G.wav
213,192,11389,1,0,0:0:0:50:Tom 16G.wav
298,192,11472,1,0,0:0:0:50:Tom 16G.wav
384,192,11556,1,0,0:0:0:50:Tom 16G.wav
128,192,11722,1,0,0:0:0:50:Tom 16G.wav
213,192,11888,1,0,0:0:0:50:Tom 16G.wav
298,192,11971,1,0,0:0:0:50:Tom 16G.wav
384,192,12055,1,0,0:0:0:50:Tom 16G.wav
213,192,12138,128,0,12304:0:0:0:50:Tom 16G.wav
128,192,12304,128,0,12470:0:0:0:70:Tom 16A#2.wav
42,192,12470,128,0,13801:0:0:0:70:Tom 16A#.wav
469,192,13135,128,0,13468:0:0:0:0:
298,192,13468,128,0,13801:0:0:0:0:
213,192,13801,128,0,15131:0:0:0:0:
42,192,14466,128,0,14798:0:0:0:0:
298,192,14798,128,0,15131:0:0:0:0:
384,192,15131,128,0,16461:0:0:0:0:
469,192,15464,128,0,15796:0:0:0:0:
213,192,15796,128,0,16129:0:0:0:0:
42,192,16129,128,0,16461:0:0:0:0:
128,192,16461,128,0,17792:0:0:0:0:
298,192,17127,128,0,17459:0:0:0:0:
213,192,17459,128,0,17792:0:0:0:0:
384,192,17792,128,0,19122:0:0:0:0:
128,192,18457,128,0,18790:0:0:0:0:
42,192,18790,128,0,19122:0:0:0:0:
298,192,19122,128,0,20453:0:0:0:0:
469,192,19787,128,0,20453:0:0:0:0:
42,192,20453,128,0,21783:0:0:0:0:
384,192,20453,128,0,21783:0:0:0:0:
213,192,21783,128,0,21949:0:0:0:70:Kick (13).wav
128,192,21949,128,0,22115:0:0:0:0:
298,192,22115,128,0,22282:0:0:0:30:Cymbal 32.wav
384,192,22282,128,0,22448:0:0:0:0:
213,192,22448,128,0,22614:0:0:0:70:Kick (13).wav
298,192,22614,128,0,22781:0:0:0:0:
42,192,22781,128,0,22947:0:0:0:30:Cymbal 32.wav
469,192,22947,128,0,23113:0:0:0:0:
128,192,23113,1,0,0:0:0:70:Kick (13).wav
384,192,23113,1,0,0:0:0:70:Cymbal 32.wav
42,192,23280,1,0,0:0:0:0:
213,192,23446,1,0,0:0:0:70:Kick (13).wav
298,192,23446,1,0,0:0:0:40:Snare (12).wav
384,192,23612,1,0,0:0:0:0:
42,192,23778,1,0,0:0:0:70:Kick (13).wav
128,192,23945,1,0,0:0:0:0:
384,192,24111,1,0,0:0:0:70:Kick (13).wav
469,192,24111,1,0,0:0:0:40:Snare (12).wav
213,192,24277,1,0,0:0:0:0:
298,192,24444,1,0,0:0:0:70:Kick (13).wav
42,192,24776,1,0,0:0:0:70:Kick (13).wav
128,192,24776,1,0,0:0:0:40:Snare (12).wav
384,192,25109,1,0,0:0:0:70:Kick (13).wav
298,192,25275,1,0,0:0:0:0:
128,192,25441,1,0,0:0:0:70:Kick (13).wav
469,192,25441,1,0,0:0:0:40:Snare (12).wav
42,192,25608,1,0,0:0:0:0:
213,192,25774,1,0,0:0:0:70:Kick (13).wav
298,192,25940,1,0,0:0:0:0:
42,192,26107,1,0,0:0:0:70:Kick (13).wav
384,192,26107,1,0,0:0:0:40:Snare (12).wav
469,192,26273,1,0,0:0:0:0:
298,192,26439,1,0,0:0:0:70:Kick (13).wav
384,192,26606,1,0,0:0:0:0:
42,192,26772,1,0,0:0:0:70:Kick (13).wav
213,192,26772,1,0,0:0:0:40:Snare (12).wav
128,192,26938,1,0,0:0:0:0:
384,192,27104,1,0,0:0:0:70:Kick (13).wav
213,192,27437,1,0,0:0:0:70:Kick (13).wav
469,192,27437,1,0,0:0:0:40:Snare (12).wav
298,192,27770,1,0,0:0:0:70:Kick (13).wav
384,192,27936,1,0,0:0:0:0:
42,192,28102,1,0,0:0:0:70:Kick (13).wav
128,192,28102,1,0,0:0:0:40:Snare (12).wav
469,192,28268,1,0,0:0:0:0:
213,192,28435,1,0,0:0:0:70:Kick (13).wav
384,192,28767,1,0,0:0:0:70:Kick (13).wav
469,192,28767,1,0,0:0:0:40:Snare (12).wav
128,192,29100,1,0,0:0:0:70:Kick (13).wav
384,192,29266,1,0,0:0:0:0:
213,192,29433,1,0,0:0:0:70:Kick (13).wav
298,192,29433,1,0,0:0:0:40:Snare (12).wav
128,192,29599,1,0,0:0:0:0:
469,192,29765,1,0,0:0:0:70:Kick (13).wav
42,192,30098,1,0,0:0:0:70:Kick (13).wav
213,192,30098,1,0,0:0:0:40:Snare (12).wav
298,192,30430,1,0,0:0:0:70:Kick (13).wav
42,192,30597,1,0,0:0:0:0:
128,192,30763,1,0,0:0:0:70:Kick (13).wav
384,192,30763,1,0,0:0:0:40:Snare (12).wav
298,192,30929,1,0,0:0:0:0:
213,192,31096,1,0,0:0:0:70:Kick (13).wav
469,192,31096,1,0,0:0:0:30:Cymbal 32.wav
42,192,31262,1,0,0:0:0:0:
298,192,31428,1,0,0:0:0:70:Kick (13).wav
384,192,31428,1,0,0:0:0:40:Snare (12).wav
213,192,31594,1,0,0:0:0:0:
42,192,31761,1,0,0:0:0:70:Kick (13).wav
469,192,31761,1,0,0:0:0:30:Cymbal 32.wav
128,192,31927,1,0,0:0:0:0:
213,192,32093,1,0,0:0:0:70:Kick (13).wav
298,192,32093,1,0,0:0:0:40:Snare (12).wav
469,192,32260,1,0,0:0:0:0:
42,192,32426,1,0,0:0:0:70:Tom 16G.wav
384,192,32426,1,0,0:0:0:30:Cymbal 32.wav
128,192,32509,1,0,0:0:0:70:Tom 16G.wav
298,192,32759,1,0,0:0:0:70:Tom 16G.wav
469,192,32759,1,0,0:0:0:30:Cymbal 32.wav
213,192,33008,1,0,0:0:0:70:Tom 16G.wav
42,192,33091,1,0,0:0:0:70:Tom 16G.wav
128,192,33091,1,0,0:0:0:30:Cymbal 32.wav
298,192,33257,1,0,0:0:0:70:Tom 16G.wav
384,192,33424,1,0,0:0:0:70:Tom 16G.wav
469,192,33424,1,0,0:0:0:30:Cymbal 32.wav
213,192,33590,1,0,0:0:0:70:Tom 16A#2.wav
128,192,33673,1,0,0:0:0:70:Tom 16A#2.wav
42,192,33756,1,0,0:0:0:70:Kick (13).wav
298,192,33756,1,0,0:0:0:70:Cymbal 32.wav
384,192,33923,1,0,0:0:0:0:
128,192,34089,1,0,0:0:0:70:Kick (13).wav
469,192,34089,1,0,0:0:0:40:Snare (12).wav
42,192,34255,1,0,0:0:0:0:
298,192,34421,1,0,0:0:0:70:Kick (13).wav
384,192,34588,1,0,0:0:0:0:
128,192,34754,1,0,0:0:0:70:Kick (13).wav
213,192,34754,1,0,0:0:0:40:Snare (12).wav
298,192,34920,1,0,0:0:0:0:
42,192,35087,1,0,0:0:0:70:Kick (13).wav
128,192,35419,1,0,0:0:0:70:Kick (13).wav
469,192,35419,1,0,0:0:0:40:Snare (12).wav
298,192,35752,1,0,0:0:0:70:Kick (13).wav
213,192,35918,1,0,0:0:0:0:
42,192,36084,1,0,0:0:0:70:Kick (13).wav
384,192,36084,1,0,0:0:0:40:Snare (12).wav
128,192,36251,1,0,0:0:0:0:
213,192,36417,1,0,0:0:0:70:Kick (13).wav
469,192,36583,1,0,0:0:0:0:
128,192,36750,1,0,0:0:0:70:Kick (13).wav
384,192,36750,1,0,0:0:0:40:Snare (12).wav
213,192,36916,1,0,0:0:0:0:
298,192,37082,1,0,0:0:0:70:Kick (13).wav
42,192,37249,1,0,0:0:0:0:
384,192,37415,1,0,0:0:0:70:Kick (13).wav
469,192,37415,1,0,0:0:0:40:Snare (12).wav
213,192,37581,1,0,0:0:0:0:
128,192,37747,1,0,0:0:0:70:Kick (13).wav
213,192,38080,1,0,0:0:0:70:Kick (13).wav
298,192,38080,1,0,0:0:0:40:Snare (12).wav
469,192,38413,1,0,0:0:0:70:Kick (13).wav
42,192,38579,1,0,0:0:0:0:
298,192,38745,1,0,0:0:0:70:Kick (13).wav
384,192,38745,1,0,0:0:0:40:Snare (12).wav
213,192,38911,1,0,0:0:0:0:
128,192,39078,1,0,0:0:0:70:Kick (13).wav
42,192,39410,1,0,0:0:0:70:Kick (13).wav
384,192,39410,1,0,0:0:0:40:Snare (12).wav
298,192,39577,1,0,0:0:0:0:
469,192,39743,1,0,0:0:0:70:Kick (13).wav
213,192,39909,1,0,0:0:0:0:
42,192,40076,1,0,0:0:0:70:Kick (13).wav
298,192,40076,1,0,0:0:0:40:Snare (12).wav
384,192,40242,1,0,0:0:0:0:
128,192,40408,1,0,0:0:0:70:Kick (13).wav
213,192,40741,1,0,0:0:0:70:Kick (13).wav
469,192,40741,1,0,0:0:0:40:Snare (12).wav
298,192,40907,1,0,0:0:0:0:
384,192,41073,1,0,0:0:0:70:Kick (13).wav
128,192,41240,1,0,0:0:0:0:
42,192,41406,1,0,0:0:0:70:Kick (13).wav
469,192,41406,1,0,0:0:0:40:Snare (12).wav
298,192,41572,1,0,0:0:0:0:
42,192,41739,1,0,0:0:0:70:Kick (13).wav
384,192,41739,1,0,0:0:0:30:Cymbal 32.wav
128,192,41905,1,0,0:0:0:0:
213,192,42071,1,0,0:0:0:70:Kick (13).wav
298,192,42071,1,0,0:0:0:40:Snare (12).wav
384,192,42237,1,0,0:0:0:0:
42,192,42404,1,0,0:0:0:70:Kick (13).wav
469,192,42404,1,0,0:0:0:50:Cymbal 32.wav
298,192,42570,1,0,0:0:0:0:
128,192,42736,1,0,0:0:0:70:Kick (13).wav
213,192,42736,1,0,0:0:0:40:Snare (12).wav
42,192,42903,1,0,0:0:0:0:
384,192,43069,1,0,0:0:0:70:Kick (13).wav
469,192,43069,1,0,0:0:0:30:Cymbal 32.wav
213,192,43402,1,0,0:0:0:70:Kick (13).wav
298,192,43402,1,0,0:0:0:40:Snare (12).wav
384,192,43651,1,0,0:0:0:70:Kick (13).wav
42,192,43734,1,0,0:0:0:70:Kick (13).wav
128,192,43734,1,0,0:0:0:30:Cymbal 32.wav
213,192,43900,1,0,0:0:0:70:Kick (13).wav
384,192,44067,1,0,0:0:0:70:Kick (13).wav
469,192,44067,1,0,0:0:0:40:Snare (12).wav
298,192,44233,1,0,0:0:0:70:Kick (13).wav
213,192,44316,1,0,0:0:0:70:Kick (13).wav
42,192,44399,128,0,44566:0:0:0:70:Kick (13).wav
128,192,44399,1,0,0:0:0:70:Cymbal 32.wav
384,192,44566,1,0,0:0:0:0:
298,192,44732,1,0,0:0:0:70:Kick (13).wav
469,192,44732,1,0,0:0:0:40:Snare (12).wav
42,192,45064,1,0,0:0:0:70:Kick (13).wav
213,192,45231,1,0,0:0:0:0:
128,192,45397,1,0,0:0:0:70:Kick (13).wav
298,192,45397,1,0,0:0:0:40:Snare (12).wav
384,192,45730,128,0,45896:0:0:0:70:Kick (13).wav
128,192,45896,1,0,0:0:0:0:
298,192,46062,1,0,0:0:0:70:Kick (13).wav
213,192,46062,1,0,0:0:0:40:Snare (12).wav
469,192,46395,1,0,0:0:0:70:Kick (13).wav
298,192,46561,1,0,0:0:0:0:
128,192,46727,128,0,46894:0:0:0:70:Kick (13).wav
384,192,46727,1,0,0:0:0:40:Snare (12).wav
298,192,47060,128,0,47226:0:0:0:70:Kick (13).wav
469,192,47226,1,0,0:0:0:0:
42,192,47393,1,0,0:0:0:70:Kick (13).wav
213,192,47393,1,0,0:0:0:40:Snare (12).wav
384,192,47725,1,0,0:0:0:70:Kick (13).wav
128,192,47892,1,0,0:0:0:0:
298,192,48058,1,0,0:0:0:70:Kick (13).wav
469,192,48058,1,0,0:0:0:40:Snare (12).wav
128,192,48390,128,0,48557:0:0:0:70:Kick (13).wav
469,192,48557,1,0,0:0:0:0:
298,192,48723,128,0,48889:0:0:0:70:Kick (13).wav
384,192,48723,1,0,0:0:0:40:Snare (12).wav
213,192,49056,128,0,49222:0:0:0:70:Kick (13).wav
128,192,49222,1,0,0:0:0:0:
42,192,49388,128,0,49555:0:0:0:70:Kick (13).wav
469,192,49388,1,0,0:0:0:40:Snare (12).wav
384,192,49721,128,0,49887:0:0:0:70:Kick (13).wav
42,192,49887,1,0,0:0:0:0:
128,192,50053,1,0,0:0:0:70:Kick (13).wav
213,192,50053,128,0,50220:0:0:0:40:Snare (12).wav
298,192,50386,1,0,0:0:0:70:Kick (13).wav
213,192,50552,1,0,0:0:0:0:
384,192,50719,1,0,0:0:0:70:Kick (13).wav
469,192,50719,128,0,50885:0:0:0:40:Snare (12).wav
128,192,51051,128,0,51217:0:0:0:70:Kick (13).wav
469,192,51217,1,0,0:0:0:0:
213,192,51384,1,0,0:0:0:70:Kick (13).wav
298,192,51384,1,0,0:0:0:40:Snare (12).wav
128,192,51550,1,0,0:0:0:0:
384,192,51716,1,0,0:0:0:70:Kick (13).wav
298,192,51883,1,0,0:0:0:0:
42,192,52049,128,0,52215:0:0:0:70:Kick (13).wav
213,192,52049,1,0,0:0:0:40:Snare (12).wav
298,192,52382,128,0,52548:0:0:0:70:Kick (13).wav
469,192,52382,1,0,0:0:0:10:Cymbal 32.wav
42,192,52548,1,0,0:0:0:0:
128,192,52714,1,0,0:0:0:70:Kick (13).wav
213,192,52714,1,0,0:0:0:40:Snare (12).wav
42,192,53047,1,0,0:0:0:70:Kick (13).wav
384,192,53047,1,0,0:0:0:30:Cymbal 32.wav
298,192,53213,1,0,0:0:0:0:
213,192,53379,1,0,0:0:0:70:Kick (13).wav
469,192,53379,1,0,0:0:0:40:Snare (12).wav
298,192,53712,1,0,0:0:0:70:Kick (13).wav
384,192,53712,128,0,53878:0:0:0:10:Cymbal 32.wav
42,192,54045,1,0,0:0:0:70:Kick (13).wav
128,192,54045,1,0,0:0:0:40:Snare (12).wav
469,192,54294,1,0,0:0:0:70:Kick (13).wav
213,192,54377,128,0,54543:0:0:0:70:Kick (13).wav
298,192,54377,1,0,0:0:0:30:Cymbal 32.wav
42,192,54543,1,0,0:0:0:70:Kick (13).wav
384,192,54710,1,0,0:0:0:70:Kick (13).wav
469,192,54710,1,0,0:0:0:40:Snare (12).wav
298,192,54876,1,0,0:0:0:70:Kick (13).wav
213,192,54959,1,0,0:0:0:70:Kick (13).wav
42,192,55042,128,0,55209:0:0:0:70:Kick (13).wav
469,192,55042,1,0,0:0:0:40:Cymbal 32.wav
384,192,55209,1,0,0:0:0:0:
213,192,55375,1,0,0:0:0:70:Kick (13).wav
298,192,55375,1,0,0:0:0:40:Snare (12).wav
384,192,55708,1,0,0:0:0:70:Kick (13).wav
42,192,55874,1,0,0:0:0:0:
128,192,56040,1,0,0:0:0:70:Kick (13).wav
213,192,56040,1,0,0:0:0:40:Snare (12).wav
298,192,56373,128,0,56539:0:0:0:70:Kick (13).wav
469,192,56539,1,0,0:0:0:0:
42,192,56705,1,0,0:0:0:70:Kick (13).wav
128,192,56705,1,0,0:0:0:40:Snare (12).wav
298,192,57038,1,0,0:0:0:70:Kick (13).wav
213,192,57204,1,0,0:0:0:0:
384,192,57370,1,0,0:0:0:70:Kick (13).wav
469,192,57370,128,0,57537:0:0:0:40:Snare (12).wav
128,192,57703,128,0,57869:0:0:0:70:Kick (13).wav
469,192,57869,1,0,0:0:0:0:
42,192,58036,1,0,0:0:0:70:Kick (13).wav
213,192,58036,1,0,0:0:0:40:Snare (12).wav
128,192,58368,1,0,0:0:0:70:Kick (13).wav
298,192,58535,1,0,0:0:0:0:
42,192,58701,1,0,0:0:0:70:Kick (13).wav
469,192,58701,1,0,0:0:0:40:Snare (12).wav
298,192,59033,128,0,59200:0:0:0:70:Kick (13).wav
128,192,59200,1,0,0:0:0:0:
213,192,59366,128,0,59532:0:0:0:70:Kick (13).wav
384,192,59366,1,0,0:0:0:40:Snare (12).wav
42,192,59699,128,0,59865:0:0:0:70:Kick (13).wav
384,192,59865,1,0,0:0:0:0:
128,192,60031,128,0,60198:0:0:0:70:Kick (13).wav
298,192,60031,1,0,0:0:0:40:Snare (12).wav
384,192,60364,128,0,60530:0:0:0:70:Kick (13).wav
42,192,60530,1,0,0:0:0:0:
213,192,60696,128,0,60863:0:0:0:70:Kick (13).wav
469,192,60696,1,0,0:0:0:40:Snare (12).wav
128,192,61029,1,0,0:0:0:70:Kick (13).wav
384,192,61195,1,0,0:0:0:0:
42,192,61362,1,0,0:0:0:70:Kick (13).wav
298,192,61362,128,0,61528:0:0:0:40:Snare (12).wav
469,192,61694,128,0,61860:0:0:0:70:Kick (13).wav
213,192,61860,1,0,0:0:0:0:
128,192,62027,1,0,0:0:0:70:Kick (13).wav
384,192,62027,1,0,0:0:0:40:Snare (12).wav
42,192,62193,1,0,0:0:0:0:
213,192,62359,128,0,62526:0:0:0:70:Kick (13).wav
469,192,62526,1,0,0:0:0:0:
42,192,62692,1,0,0:0:0:70:Kick (13).wav
298,192,62692,1,0,0:0:0:40:Snare (12).wav
42,192,63025,128,0,63191:0:0:0:70:Tom 16G.wav
128,192,63025,1,0,0:0:0:20:Cymbal 32.wav
213,192,63357,1,0,0:0:0:70:Tom 16G.wav
298,192,63357,1,0,0:0:0:0:
384,192,63690,1,0,0:0:0:70:Tom 16G.wav
469,192,63690,1,0,0:0:0:40:Cymbal 32.wav
213,192,64022,1,0,0:0:0:70:Tom 16G.wav
298,192,64022,1,0,0:0:0:0:
128,192,64355,1,0,0:0:0:70:Tom 16G.wav
469,192,64355,128,0,64688:0:0:0:30:Cymbal 32.wav
42,192,64688,128,0,65020:0:0:0:70:Tom 16G.wav
213,192,64688,1,0,0:0:0:30:Cymbal 32.wav
298,192,64937,1,0,0:0:0:70:Tom 16G.wav
384,192,65020,1,0,0:0:0:70:Tom 16G.wav
469,192,65020,1,0,0:0:0:30:Cymbal 32.wav
213,192,65186,1,0,0:0:0:70:Tom 16G.wav
128,192,65353,1,0,0:0:0:70:Tom 16G.wav
298,192,65519,1,0,0:0:0:70:Tom 16A#2.wav
384,192,65602,1,0,0:0:0:70:Tom 16A#2.wav
42,192,65685,1,0,0:0:0:70:Kick (13).wav
469,192,65685,1,0,0:0:0:70:Cymbal 32.wav
128,192,65852,1,0,0:0:0:0:
298,192,66018,1,0,0:0:0:70:Kick (13).wav
384,192,66018,1,0,0:0:0:40:Snare (12).wav
42,192,66184,1,0,0:0:0:0:
469,192,66351,1,0,0:0:0:70:Kick (13).wav
213,192,66517,1,0,0:0:0:0:
42,192,66683,1,0,0:0:0:70:Kick (13).wav
298,192,66683,1,0,0:0:0:40:Snare (12).wav
384,192,66849,1,0,0:0:0:0:
128,192,67016,1,0,0:0:0:70:Kick (13).wav
213,192,67348,1,0,0:0:0:70:Kick (13).wav
469,192,67348,1,0,0:0:0:40:Snare (12).wav
298,192,67681,1,0,0:0:0:70:Kick (13).wav
384,192,67847,1,0,0:0:0:0:
213,192,68013,1,0,0:0:0:70:Kick (13).wav
469,192,68013,1,0,0:0:0:40:Snare (12).wav
42,192,68180,1,0,0:0:0:0:
298,192,68346,1,0,0:0:0:70:Kick (13).wav
128,192,68512,1,0,0:0:0:0:
384,192,68679,1,0,0:0:0:70:Kick (13).wav
469,192,68679,1,0,0:0:0:40:Snare (12).wav
42,192,68845,1,0,0:0:0:0:
298,192,69011,1,0,0:0:0:70:Kick (13).wav
128,192,69178,1,0,0:0:0:0:
213,192,69344,1,0,0:0:0:70:Kick (13).wav
384,192,69344,1,0,0:0:0:40:Snare (12).wav
42,192,69510,1,0,0:0:0:0:
298,192,69676,1,0,0:0:0:70:Kick (13).wav
128,192,70009,1,0,0:0:0:70:Kick (13).wav
384,192,70009,1,0,0:0:0:40:Snare (12).wav
213,192,70342,1,0,0:0:0:70:Kick (13).wav
298,192,70508,1,0,0:0:0:0:
42,192,70674,1,0,0:0:0:70:Kick (13).wav
128,192,70674,1,0,0:0:0:40:Snare (12).wav
469,192,70841,1,0,0:0:0:0:
298,192,71007,1,0,0:0:0:70:Kick (13).wav
42,192,71339,1,0,0:0:0:70:Kick (13).wav
384,192,71339,1,0,0:0:0:40:Snare (12).wav
213,192,71672,1,0,0:0:0:70:Kick (13).wav
469,192,71838,1,0,0:0:0:0:
42,192,72005,1,0,0:0:0:70:Kick (13).wav
298,192,72005,1,0,0:0:0:40:Snare (12).wav
128,192,72171,1,0,0:0:0:0:
384,192,72337,1,0,0:0:0:70:Kick (13).wav
213,192,72670,1,0,0:0:0:70:Kick (13).wav
469,192,72670,1,0,0:0:0:40:Snare (12).wav
128,192,73002,1,0,0:0:0:70:Kick (13).wav
213,192,73169,1,0,0:0:0:0:
298,192,73335,1,0,0:0:0:70:Kick (13).wav
384,192,73335,1,0,0:0:0:40:Snare (12).wav
42,192,73501,1,0,0:0:0:0:
213,192,73668,1,0,0:0:0:70:Kick (13).wav
469,192,73668,1,0,0:0:0:30:Cymbal 32.wav
128,192,73834,1,0,0:0:0:0:
42,192,74000,1,0,0:0:0:70:Kick (13).wav
298,192,74000,1,0,0:0:0:40:Snare (12).wav
384,192,74166,1,0,0:0:0:0:
128,192,74333,1,0,0:0:0:70:Kick (13).wav
469,192,74333,1,0,0:0:0:30:Cymbal 32.wav
213,192,74499,1,0,0:0:0:0:
42,192,74665,1,0,0:0:0:70:Kick (13).wav
384,192,74665,1,0,0:0:0:40:Snare (12).wav
298,192,74832,1,0,0:0:0:0:
128,192,74998,1,0,0:0:0:70:Kick (13).wav
469,192,74998,1,0,0:0:0:30:Cymbal 32.wav
213,192,75331,1,0,0:0:0:70:Kick (13).wav
298,192,75331,1,0,0:0:0:40:Snare (12).wav
384,192,75580,1,0,0:0:0:70:Kick (13).wav
42,192,75663,1,0,0:0:0:70:Kick (13).wav
128,192,75663,1,0,0:0:0:30:Cymbal 32.wav
213,192,75829,1,0,0:0:0:70:Kick (13).wav
384,192,75996,1,0,0:0:0:70:Kick (13).wav
469,192,75996,1,0,0:0:0:40:Snare (12).wav
298,192,76162,1,0,0:0:0:30:Tom 16A#2.wav
213,192,76245,1,0,0:0:0:30:Tom 16A#2.wav
42,192,76328,1,0,0:0:0:30:Tom 16A#.wav
128,192,76328,1,0,0:0:0:0:
384,192,76495,1,0,0:0:0:0:
42,192,76661,1,0,0:0:0:0:
384,192,76827,1,0,0:0:0:0:
42,192,76994,1,0,0:0:0:0:
384,192,77160,1,0,0:0:0:0:
42,192,77326,1,0,0:0:0:0:
384,192,77492,1,0,0:0:0:0:
128,192,77659,1,0,0:0:0:0:
298,192,77825,1,0,0:0:0:0:
128,192,77991,1,0,0:0:0:0:
298,192,78158,1,0,0:0:0:0:
128,192,78324,1,0,0:0:0:0:
298,192,78490,1,0,0:0:0:0:
128,192,78657,1,0,0:0:0:0:
298,192,78823,1,0,0:0:0:0:
469,192,78989,1,0,0:0:0:0:
213,192,79155,1,0,0:0:0:0:
469,192,79322,1,0,0:0:0:0:
213,192,79488,1,0,0:0:0:0:
469,192,79654,1,0,0:0:0:0:
213,192,79821,1,0,0:0:0:0:
469,192,79987,1,0,0:0:0:0:
213,192,80153,1,0,0:0:0:0:
384,192,80319,1,0,0:0:0:0:
298,192,80486,1,0,0:0:0:0:
384,192,80652,1,0,0:0:0:0:
213,192,80818,1,0,0:0:0:0:
384,192,80985,1,0,0:0:0:0:
128,192,81151,1,0,0:0:0:0:
384,192,81317,1,0,0:0:0:0:
42,192,81484,1,0,0:0:0:0:
213,192,81650,1,0,0:0:0:0:
384,192,81982,1,0,0:0:0:0:
213,192,82648,1,0,0:0:0:0:
128,192,82980,1,0,0:0:0:0:
128,192,83645,1,0,0:0:0:0:
298,192,84311,128,0,88302:0:0:0:0:
42,192,86306,1,0,0:0:0:70:Tom 16A#.wav
