osu file format v14

[General]
AudioFilename: audio.mp3
AudioLeadIn: 0
PreviewTime: -1
Countdown: 0
SampleSet: None
StackLeniency: 0.7
Mode: 3
LetterboxInBreaks: 0
SpecialStyle: 0
WidescreenStoryboard: 0

[Editor]
DistanceSpacing: 1
BeatDivisor: 4
GridSize: 4
TimelineZoom: 2.4

[Metadata]
Title:On You
TitleUnicode:On You
Artist:BlueWind
ArtistUnicode:BlueWind
Creator:dump30
Version:On Jack
Source:Silent Xosmos Vol. 4
Tags:Chordjack jack
BeatmapID:3221008
BeatmapSetID:1577459

[Difficulty]
HPDrainRate:8
CircleSize:4
OverallDifficulty:8
ApproachRate:5
SliderMultiplier:1.4
SliderTickRate:1

[Events]
//Background and Video events
0,0,"wallpaperbetter.com_1920x1080.jpg",0,0
//Break Periods
//Storyboard Layer 0 (Background)
//Storyboard Layer 1 (Fail)
//Storyboard Layer 2 (Pass)
//Storyboard Layer 3 (Foreground)
//Storyboard Layer 4 (Overlay)
//Storyboard Sound Samples

[TimingPoints]
67743,352.941176470588,4,2,0,100,1,0
112920,-100,4,2,0,100,0,1
158096,-100,4,2,0,100,0,0

[HitObjects]
64,192,67743,5,0,0:0:0:0:
192,192,67743,1,0,0:0:0:0:
64,192,67920,1,0,0:0:0:0:
192,192,68096,1,0,0:0:0:0:
320,192,68096,1,0,0:0:0:0:
192,192,68273,1,0,0:0:0:0:
448,192,68449,1,0,0:0:0:0:
320,192,68449,1,0,0:0:0:0:
448,192,68626,1,0,0:0:0:0:
320,192,68802,1,0,0:0:0:0:
64,192,68802,1,0,0:0:0:0:
320,192,68979,1,0,0:0:0:0:
192,192,69155,1,0,0:0:0:0:
448,192,69155,1,0,0:0:0:0:
192,192,69332,1,0,0:0:0:0:
64,192,69508,1,0,0:0:0:0:
320,192,69508,1,0,0:0:0:0:
64,192,69684,1,0,0:0:0:0:
192,192,69861,1,0,0:0:0:0:
448,192,69861,1,0,0:0:0:0:
192,192,70037,1,0,0:0:0:0:
320,192,70214,1,0,0:0:0:0:
448,192,70214,1,0,0:0:0:0:
320,192,70390,1,0,0:0:0:0:
448,192,70390,1,0,0:0:0:0:
192,192,70567,1,0,0:0:0:0:
64,192,70567,1,0,0:0:0:0:
320,192,70655,1,0,0:0:0:0:
448,192,70655,1,0,0:0:0:0:
192,192,70743,1,0,0:0:0:0:
64,192,70743,1,0,0:0:0:0:
64,192,70920,1,0,0:0:0:0:
448,192,71096,1,0,0:0:0:0:
192,192,71096,1,0,0:0:0:0:
448,192,71273,1,0,0:0:0:0:
192,192,71449,1,0,0:0:0:0:
320,192,71449,1,0,0:0:0:0:
192,192,71626,1,0,0:0:0:0:
320,192,71626,1,0,0:0:0:0:
64,192,71802,1,0,0:0:0:0:
448,192,71802,1,0,0:0:0:0:
64,192,71979,1,0,0:0:0:0:
320,192,72155,1,0,0:0:0:0:
320,192,72332,1,0,0:0:0:0:
448,192,72332,1,0,0:0:0:0:
64,192,72508,1,0,0:0:0:0:
192,192,72508,1,0,0:0:0:0:
64,192,72684,1,0,0:0:0:0:
192,192,72861,1,0,0:0:0:0:
320,192,72861,1,0,0:0:0:0:
320,192,73037,1,0,0:0:0:0:
448,192,73037,1,0,0:0:0:0:
192,192,73214,1,0,0:0:0:0:
64,192,73214,1,0,0:0:0:0:
320,192,73390,1,0,0:0:0:0:
448,192,73390,1,0,0:0:0:0:
192,192,73567,1,0,0:0:0:0:
320,192,73567,1,0,0:0:0:0:
320,192,73743,1,0,0:0:0:0:
64,192,73743,1,0,0:0:0:0:
64,192,73920,1,0,0:0:0:0:
192,192,73920,1,0,0:0:0:0:
64,192,74096,1,0,0:0:0:0:
64,192,74273,1,0,0:0:0:0:
192,192,74273,1,0,0:0:0:0:
448,192,74449,1,0,0:0:0:0:
192,192,74449,1,0,0:0:0:0:
320,192,74626,1,0,0:0:0:0:
448,192,74626,1,0,0:0:0:0:
192,192,74802,1,0,0:0:0:0:
64,192,74979,1,0,0:0:0:0:
448,192,74979,1,0,0:0:0:0:
320,192,75155,1,0,0:0:0:0:
448,192,75155,1,0,0:0:0:0:
192,192,75332,1,0,0:0:0:0:
448,192,75332,1,0,0:0:0:0:
64,192,75508,1,0,0:0:0:0:
320,192,75508,1,0,0:0:0:0:
448,192,75684,1,0,0:0:0:0:
64,192,75684,1,0,0:0:0:0:
64,192,75861,1,0,0:0:0:0:
192,192,75861,1,0,0:0:0:0:
320,192,76037,1,0,0:0:0:0:
448,192,76037,1,0,0:0:0:0:
64,192,76214,1,0,0:0:0:0:
192,192,76390,1,0,0:0:0:0:
320,192,76390,1,0,0:0:0:0:
64,192,76567,1,0,0:0:0:0:
320,192,76567,1,0,0:0:0:0:
192,192,76743,1,0,0:0:0:0:
448,192,76743,1,0,0:0:0:0:
320,192,76920,1,0,0:0:0:0:
64,192,77096,1,0,0:0:0:0:
448,192,77096,1,0,0:0:0:0:
64,192,77273,1,0,0:0:0:0:
320,192,77273,1,0,0:0:0:0:
192,192,77449,1,0,0:0:0:0:
320,192,77449,1,0,0:0:0:0:
448,192,77626,1,0,0:0:0:0:
192,192,77802,1,0,0:0:0:0:
64,192,77802,1,0,0:0:0:0:
64,192,77979,1,0,0:0:0:0:
320,192,77979,1,0,0:0:0:0:
192,192,78155,1,0,0:0:0:0:
448,192,78155,1,0,0:0:0:0:
320,192,78332,1,0,0:0:0:0:
192,192,78508,1,0,0:0:0:0:
64,192,78508,1,0,0:0:0:0:
192,192,78684,1,0,0:0:0:0:
320,192,78684,1,0,0:0:0:0:
320,192,78861,1,0,0:0:0:0:
448,192,78861,1,0,0:0:0:0:
64,192,79037,1,0,0:0:0:0:
192,192,79037,1,0,0:0:0:0:
448,192,79037,1,0,0:0:0:0:
64,192,79214,1,0,0:0:0:0:
320,192,79214,1,0,0:0:0:0:
192,192,79390,1,0,0:0:0:0:
448,192,79390,1,0,0:0:0:0:
320,192,79567,1,0,0:0:0:0:
192,192,79567,1,0,0:0:0:0:
448,192,79743,1,0,0:0:0:0:
320,192,79743,1,0,0:0:0:0:
64,192,79920,1,0,0:0:0:0:
192,192,79920,1,0,0:0:0:0:
64,192,80096,1,0,0:0:0:0:
448,192,80096,1,0,0:0:0:0:
320,192,80273,1,0,0:0:0:0:
448,192,80273,1,0,0:0:0:0:
64,192,80449,1,0,0:0:0:0:
320,192,80449,1,0,0:0:0:0:
448,192,80626,1,0,0:0:0:0:
192,192,80626,1,0,0:0:0:0:
64,192,80802,1,0,0:0:0:0:
192,192,80802,1,0,0:0:0:0:
192,192,80979,1,0,0:0:0:0:
320,192,80979,1,0,0:0:0:0:
448,192,81155,1,0,0:0:0:0:
320,192,81155,1,0,0:0:0:0:
64,192,81332,1,0,0:0:0:0:
192,192,81332,1,0,0:0:0:0:
320,192,81508,1,0,0:0:0:0:
448,192,81508,1,0,0:0:0:0:
192,192,81684,1,0,0:0:0:0:
64,192,81684,1,0,0:0:0:0:
320,192,81861,1,0,0:0:0:0:
448,192,81861,1,0,0:0:0:0:
64,192,81949,1,0,0:0:0:0:
192,192,81949,1,0,0:0:0:0:
320,192,82037,1,0,0:0:0:0:
448,192,82037,1,0,0:0:0:0:
64,192,82214,1,0,0:0:0:0:
192,192,82214,1,0,0:0:0:0:
192,192,82390,1,0,0:0:0:0:
320,192,82390,1,0,0:0:0:0:
64,192,82567,1,0,0:0:0:0:
192,192,82567,1,0,0:0:0:0:
448,192,82743,1,0,0:0:0:0:
320,192,82743,1,0,0:0:0:0:
192,192,82920,1,0,0:0:0:0:
320,192,82920,1,0,0:0:0:0:
192,192,83096,1,0,0:0:0:0:
64,192,83096,1,0,0:0:0:0:
64,192,83273,1,0,0:0:0:0:
448,192,83273,1,0,0:0:0:0:
192,192,83449,1,0,0:0:0:0:
448,192,83449,1,0,0:0:0:0:
192,192,83626,1,0,0:0:0:0:
320,192,83626,1,0,0:0:0:0:
64,192,83802,1,0,0:0:0:0:
320,192,83802,1,0,0:0:0:0:
192,192,83979,1,0,0:0:0:0:
448,192,83979,1,0,0:0:0:0:
320,192,84155,1,0,0:0:0:0:
448,192,84155,1,0,0:0:0:0:
320,192,84332,1,0,0:0:0:0:
192,192,84332,1,0,0:0:0:0:
192,192,84508,1,0,0:0:0:0:
64,192,84508,1,0,0:0:0:0:
64,192,84684,1,0,0:0:0:0:
448,192,84684,1,0,0:0:0:0:
320,192,84861,1,0,0:0:0:0:
64,192,84861,1,0,0:0:0:0:
192,192,85037,1,0,0:0:0:0:
64,192,85037,1,0,0:0:0:0:
192,192,85214,1,0,0:0:0:0:
320,192,85214,1,0,0:0:0:0:
192,192,85390,1,0,0:0:0:0:
448,192,85390,1,0,0:0:0:0:
320,192,85567,1,0,0:0:0:0:
448,192,85567,1,0,0:0:0:0:
64,192,85743,1,0,0:0:0:0:
448,192,85743,1,0,0:0:0:0:
192,192,85920,1,0,0:0:0:0:
320,192,85920,1,0,0:0:0:0:
64,192,86096,1,0,0:0:0:0:
192,192,86096,1,0,0:0:0:0:
64,192,86273,1,0,0:0:0:0:
320,192,86273,1,0,0:0:0:0:
192,192,86449,1,0,0:0:0:0:
448,192,86449,1,0,0:0:0:0:
192,192,86626,1,0,0:0:0:0:
320,192,86626,1,0,0:0:0:0:
192,192,86802,1,0,0:0:0:0:
448,192,86802,1,0,0:0:0:0:
64,192,86979,1,0,0:0:0:0:
448,192,86979,1,0,0:0:0:0:
192,192,87155,1,0,0:0:0:0:
320,192,87155,1,0,0:0:0:0:
320,192,87332,1,0,0:0:0:0:
448,192,87332,1,0,0:0:0:0:
192,192,87508,1,0,0:0:0:0:
64,192,87508,1,0,0:0:0:0:
64,192,87684,1,0,0:0:0:0:
320,192,87684,1,0,0:0:0:0:
192,192,87861,1,0,0:0:0:0:
448,192,87861,1,0,0:0:0:0:
320,192,88037,1,0,0:0:0:0:
448,192,88037,1,0,0:0:0:0:
64,192,88214,1,0,0:0:0:0:
448,192,88214,1,0,0:0:0:0:
64,192,88390,1,0,0:0:0:0:
192,192,88390,1,0,0:0:0:0:
192,192,88567,1,0,0:0:0:0:
320,192,88567,1,0,0:0:0:0:
320,192,88743,5,0,0:0:0:0:
448,192,88743,1,0,0:0:0:0:
192,192,88920,1,0,0:0:0:0:
64,192,88920,1,0,0:0:0:0:
192,192,89096,1,0,0:0:0:0:
448,192,89096,1,0,0:0:0:0:
64,192,89273,1,0,0:0:0:0:
320,192,89273,1,0,0:0:0:0:
192,192,89449,1,0,0:0:0:0:
320,192,89449,1,0,0:0:0:0:
64,192,89626,1,0,0:0:0:0:
320,192,89626,1,0,0:0:0:0:
192,192,89802,1,0,0:0:0:0:
64,192,89802,1,0,0:0:0:0:
192,192,89979,1,0,0:0:0:0:
320,192,89979,1,0,0:0:0:0:
320,192,90155,1,0,0:0:0:0:
448,192,90155,1,0,0:0:0:0:
64,192,90332,5,0,0:0:0:0:
192,192,90332,1,0,0:0:0:0:
320,192,90332,1,0,0:0:0:0:
64,192,90508,1,0,0:0:0:0:
192,192,90684,1,0,0:0:0:0:
320,192,90684,1,0,0:0:0:0:
448,192,90684,1,0,0:0:0:0:
320,192,90861,1,0,0:0:0:0:
64,192,91037,1,0,0:0:0:0:
192,192,91037,1,0,0:0:0:0:
448,192,91037,1,0,0:0:0:0:
64,192,91214,1,0,0:0:0:0:
192,192,91390,1,0,0:0:0:0:
448,192,91390,1,0,0:0:0:0:
320,192,91390,1,0,0:0:0:0:
448,192,91567,1,0,0:0:0:0:
320,192,91743,1,0,0:0:0:0:
192,192,91743,1,0,0:0:0:0:
64,192,91743,1,0,0:0:0:0:
192,192,91920,1,0,0:0:0:0:
64,192,92096,1,0,0:0:0:0:
320,192,92096,1,0,0:0:0:0:
448,192,92096,1,0,0:0:0:0:
320,192,92273,1,0,0:0:0:0:
192,192,92449,1,0,0:0:0:0:
448,192,92449,1,0,0:0:0:0:
64,192,92449,1,0,0:0:0:0:
192,192,92626,1,0,0:0:0:0:
64,192,92802,1,0,0:0:0:0:
320,192,92802,1,0,0:0:0:0:
448,192,92802,1,0,0:0:0:0:
448,192,92979,1,0,0:0:0:0:
64,192,93155,5,0,0:0:0:0:
192,192,93155,1,0,0:0:0:0:
320,192,93155,1,0,0:0:0:0:
64,192,93332,1,0,0:0:0:0:
192,192,93508,1,0,0:0:0:0:
320,192,93508,1,0,0:0:0:0:
448,192,93508,1,0,0:0:0:0:
320,192,93684,1,0,0:0:0:0:
64,192,93861,1,0,0:0:0:0:
192,192,93861,1,0,0:0:0:0:
448,192,93861,1,0,0:0:0:0:
64,192,94037,1,0,0:0:0:0:
192,192,94214,1,0,0:0:0:0:
448,192,94214,1,0,0:0:0:0:
320,192,94214,1,0,0:0:0:0:
448,192,94390,1,0,0:0:0:0:
320,192,94567,1,0,0:0:0:0:
192,192,94567,1,0,0:0:0:0:
64,192,94567,1,0,0:0:0:0:
192,192,94743,1,0,0:0:0:0:
64,192,94920,1,0,0:0:0:0:
320,192,94920,1,0,0:0:0:0:
448,192,94920,1,0,0:0:0:0:
320,192,95096,1,0,0:0:0:0:
192,192,95273,1,0,0:0:0:0:
448,192,95273,1,0,0:0:0:0:
64,192,95273,1,0,0:0:0:0:
192,192,95449,1,0,0:0:0:0:
320,192,95449,1,0,0:0:0:0:
64,192,95626,1,0,0:0:0:0:
320,192,95626,1,0,0:0:0:0:
448,192,95626,1,0,0:0:0:0:
192,192,95802,1,0,0:0:0:0:
320,192,95979,5,0,0:0:0:0:
64,192,95979,1,0,0:0:0:0:
192,192,95979,1,0,0:0:0:0:
320,192,96155,1,0,0:0:0:0:
64,192,96332,1,0,0:0:0:0:
192,192,96332,1,0,0:0:0:0:
448,192,96332,1,0,0:0:0:0:
192,192,96508,1,0,0:0:0:0:
320,192,96684,1,0,0:0:0:0:
448,192,96684,1,0,0:0:0:0:
64,192,96684,1,0,0:0:0:0:
448,192,96861,1,0,0:0:0:0:
192,192,97037,1,0,0:0:0:0:
64,192,97037,1,0,0:0:0:0:
320,192,97037,1,0,0:0:0:0:
64,192,97214,1,0,0:0:0:0:
448,192,97390,1,0,0:0:0:0:
320,192,97390,1,0,0:0:0:0:
192,192,97390,1,0,0:0:0:0:
320,192,97567,1,0,0:0:0:0:
64,192,97743,1,0,0:0:0:0:
192,192,97743,1,0,0:0:0:0:
448,192,97743,1,0,0:0:0:0:
192,192,97920,1,0,0:0:0:0:
448,192,98096,1,0,0:0:0:0:
64,192,98096,1,0,0:0:0:0:
320,192,98096,1,0,0:0:0:0:
320,192,98273,1,0,0:0:0:0:
64,192,98449,1,0,0:0:0:0:
192,192,98449,1,0,0:0:0:0:
448,192,98449,1,0,0:0:0:0:
64,192,98626,1,0,0:0:0:0:
448,192,98802,5,0,0:0:0:0:
320,192,98802,1,0,0:0:0:0:
192,192,98802,1,0,0:0:0:0:
448,192,98979,1,0,0:0:0:0:
320,192,99155,1,0,0:0:0:0:
192,192,99155,1,0,0:0:0:0:
64,192,99155,1,0,0:0:0:0:
192,192,99332,1,0,0:0:0:0:
448,192,99508,1,0,0:0:0:0:
320,192,99508,1,0,0:0:0:0:
64,192,99508,1,0,0:0:0:0:
448,192,99684,1,0,0:0:0:0:
320,192,99861,1,0,0:0:0:0:
64,192,99861,1,0,0:0:0:0:
192,192,99861,1,0,0:0:0:0:
64,192,100037,1,0,0:0:0:0:
192,192,100214,1,0,0:0:0:0:
320,192,100214,1,0,0:0:0:0:
448,192,100214,1,0,0:0:0:0:
320,192,100390,1,0,0:0:0:0:
448,192,100567,1,0,0:0:0:0:
192,192,100567,1,0,0:0:0:0:
64,192,100567,1,0,0:0:0:0:
192,192,100743,1,0,0:0:0:0:
320,192,100920,1,0,0:0:0:0:
64,192,100920,1,0,0:0:0:0:
448,192,100920,1,0,0:0:0:0:
448,192,101184,1,0,0:0:0:0:
320,192,101184,1,0,0:0:0:0:
64,192,101184,1,0,0:0:0:0:
448,192,101449,1,0,0:0:0:0:
192,192,101449,1,0,0:0:0:0:
64,192,101449,1,0,0:0:0:0:
64,192,101626,1,0,0:0:0:0:
192,192,101626,1,0,0:0:0:0:
320,192,101626,1,0,0:0:0:0:
448,192,101626,1,0,0:0:0:0:
64,192,101802,1,0,0:0:0:0:
64,192,101979,1,0,0:0:0:0:
192,192,101979,1,0,0:0:0:0:
320,192,101979,1,0,0:0:0:0:
448,192,101979,1,0,0:0:0:0:
448,192,102155,1,0,0:0:0:0:
448,192,102332,1,0,0:0:0:0:
320,192,102332,1,0,0:0:0:0:
64,192,102332,1,0,0:0:0:0:
192,192,102332,1,0,0:0:0:0:
192,192,102508,1,0,0:0:0:0:
64,192,102684,1,0,0:0:0:0:
192,192,102684,1,0,0:0:0:0:
448,192,102684,1,0,0:0:0:0:
320,192,102684,1,0,0:0:0:0:
320,192,102861,1,0,0:0:0:0:
64,192,103037,1,0,0:0:0:0:
192,192,103037,1,0,0:0:0:0:
320,192,103037,1,0,0:0:0:0:
448,192,103037,1,0,0:0:0:0:
64,192,103214,1,0,0:0:0:0:
64,192,103390,1,0,0:0:0:0:
192,192,103390,1,0,0:0:0:0:
320,192,103390,1,0,0:0:0:0:
448,192,103390,1,0,0:0:0:0:
320,192,103567,1,0,0:0:0:0:
64,192,103743,1,0,0:0:0:0:
192,192,103743,1,0,0:0:0:0:
320,192,103743,1,0,0:0:0:0:
448,192,103743,1,0,0:0:0:0:
192,192,103920,1,0,0:0:0:0:
64,192,104096,1,0,0:0:0:0:
192,192,104096,1,0,0:0:0:0:
320,192,104096,1,0,0:0:0:0:
448,192,104096,1,0,0:0:0:0:
448,192,104273,1,0,0:0:0:0:
448,192,104449,1,0,0:0:0:0:
320,192,104449,1,0,0:0:0:0:
192,192,104449,1,0,0:0:0:0:
64,192,104449,1,0,0:0:0:0:
192,192,104626,1,0,0:0:0:0:
64,192,104802,1,0,0:0:0:0:
192,192,104802,1,0,0:0:0:0:
320,192,104802,1,0,0:0:0:0:
448,192,104802,1,0,0:0:0:0:
320,192,104979,1,0,0:0:0:0:
64,192,105155,1,0,0:0:0:0:
192,192,105155,1,0,0:0:0:0:
320,192,105155,1,0,0:0:0:0:
448,192,105155,1,0,0:0:0:0:
64,192,105332,1,0,0:0:0:0:
64,192,105508,1,0,0:0:0:0:
192,192,105508,1,0,0:0:0:0:
320,192,105508,1,0,0:0:0:0:
448,192,105508,1,0,0:0:0:0:
448,192,105684,1,0,0:0:0:0:
448,192,105861,1,0,0:0:0:0:
320,192,105861,1,0,0:0:0:0:
64,192,105861,1,0,0:0:0:0:
192,192,105861,1,0,0:0:0:0:
192,192,106037,1,0,0:0:0:0:
64,192,106214,1,0,0:0:0:0:
192,192,106214,1,0,0:0:0:0:
320,192,106214,1,0,0:0:0:0:
448,192,106214,1,0,0:0:0:0:
320,192,106390,1,0,0:0:0:0:
448,192,106567,1,0,0:0:0:0:
320,192,106567,1,0,0:0:0:0:
192,192,106567,1,0,0:0:0:0:
64,192,106567,1,0,0:0:0:0:
64,192,106743,1,0,0:0:0:0:
64,192,106920,1,0,0:0:0:0:
192,192,106920,1,0,0:0:0:0:
320,192,106920,1,0,0:0:0:0:
448,192,106920,1,0,0:0:0:0:
448,192,107096,1,0,0:0:0:0:
320,192,107273,1,0,0:0:0:0:
192,192,107273,1,0,0:0:0:0:
64,192,107273,1,0,0:0:0:0:
64,192,107449,1,0,0:0:0:0:
192,192,107449,1,0,0:0:0:0:
448,192,107449,1,0,0:0:0:0:
64,192,107626,1,0,0:0:0:0:
192,192,107626,1,0,0:0:0:0:
320,192,107626,1,0,0:0:0:0:
64,192,107802,1,0,0:0:0:0:
192,192,107802,1,0,0:0:0:0:
448,192,107802,1,0,0:0:0:0:
320,192,107979,1,0,0:0:0:0:
192,192,107979,1,0,0:0:0:0:
448,192,107979,1,0,0:0:0:0:
64,192,108155,1,0,0:0:0:0:
320,192,108155,1,0,0:0:0:0:
448,192,108155,1,0,0:0:0:0:
192,192,108332,1,0,0:0:0:0:
320,192,108332,1,0,0:0:0:0:
448,192,108332,1,0,0:0:0:0:
320,192,108508,1,0,0:0:0:0:
448,192,108508,1,0,0:0:0:0:
64,192,108508,1,0,0:0:0:0:
192,192,108684,1,0,0:0:0:0:
320,192,108684,1,0,0:0:0:0:
448,192,108684,1,0,0:0:0:0:
64,192,108861,1,0,0:0:0:0:
320,192,108861,1,0,0:0:0:0:
448,192,108861,1,0,0:0:0:0:
192,192,109037,1,0,0:0:0:0:
320,192,109037,1,0,0:0:0:0:
448,192,109037,1,0,0:0:0:0:
64,192,109214,1,0,0:0:0:0:
320,192,109214,1,0,0:0:0:0:
448,192,109214,1,0,0:0:0:0:
64,192,109390,1,0,0:0:0:0:
192,192,109390,1,0,0:0:0:0:
448,192,109390,1,0,0:0:0:0:
64,192,109567,1,0,0:0:0:0:
192,192,109567,1,0,0:0:0:0:
320,192,109567,1,0,0:0:0:0:
192,192,109743,1,0,0:0:0:0:
320,192,109743,1,0,0:0:0:0:
448,192,109743,1,0,0:0:0:0:
64,192,109920,1,0,0:0:0:0:
320,192,109920,1,0,0:0:0:0:
448,192,109920,1,0,0:0:0:0:
64,192,110096,1,0,0:0:0:0:
192,192,110096,1,0,0:0:0:0:
320,192,110184,1,0,0:0:0:0:
448,192,110184,1,0,0:0:0:0:
192,192,110273,1,0,0:0:0:0:
64,192,110273,1,0,0:0:0:0:
320,192,110361,1,0,0:0:0:0:
448,192,110361,1,0,0:0:0:0:
192,192,110449,1,0,0:0:0:0:
64,192,110449,1,0,0:0:0:0:
320,192,110537,1,0,0:0:0:0:
448,192,110537,1,0,0:0:0:0:
192,192,110626,1,0,0:0:0:0:
64,192,110626,1,0,0:0:0:0:
320,192,110714,1,0,0:0:0:0:
448,192,110714,1,0,0:0:0:0:
192,192,110802,1,0,0:0:0:0:
64,192,110802,1,0,0:0:0:0:
320,192,110890,1,0,0:0:0:0:
448,192,110890,1,0,0:0:0:0:
192,192,110979,1,0,0:0:0:0:
64,192,110979,1,0,0:0:0:0:
320,192,111067,1,0,0:0:0:0:
448,192,111067,1,0,0:0:0:0:
192,192,111155,1,0,0:0:0:0:
64,192,111155,1,0,0:0:0:0:
320,192,111243,1,0,0:0:0:0:
448,192,111243,1,0,0:0:0:0:
192,192,111332,1,0,0:0:0:0:
64,192,111332,1,0,0:0:0:0:
320,192,111420,1,0,0:0:0:0:
448,192,111420,1,0,0:0:0:0:
192,192,111508,1,0,0:0:0:0:
64,192,111508,1,0,0:0:0:0:
320,192,112920,1,0,0:0:0:0:
192,192,112920,1,0,0:0:0:0:
64,192,112920,1,0,0:0:0:0:
192,192,113096,1,0,0:0:0:0:
64,192,113096,1,0,0:0:0:0:
192,192,113273,1,0,0:0:0:0:
64,192,113273,1,0,0:0:0:0:
448,192,113273,1,0,0:0:0:0:
320,192,113449,1,0,0:0:0:0:
448,192,113449,1,0,0:0:0:0:
64,192,113626,1,0,0:0:0:0:
320,192,113626,1,0,0:0:0:0:
448,192,113626,1,0,0:0:0:0:
192,192,113802,1,0,0:0:0:0:
320,192,113802,1,0,0:0:0:0:
192,192,113979,1,0,0:0:0:0:
64,192,113979,1,0,0:0:0:0:
448,192,113979,1,0,0:0:0:0:
192,192,114155,1,0,0:0:0:0:
64,192,114155,1,0,0:0:0:0:
64,192,114332,1,0,0:0:0:0:
320,192,114332,1,0,0:0:0:0:
448,192,114332,1,0,0:0:0:0:
192,192,114508,1,0,0:0:0:0:
64,192,114508,1,0,0:0:0:0:
192,192,114684,1,0,0:0:0:0:
448,192,114684,1,0,0:0:0:0:
320,192,114684,1,0,0:0:0:0:
320,192,114861,1,0,0:0:0:0:
448,192,114861,1,0,0:0:0:0:
192,192,115037,1,0,0:0:0:0:
64,192,115037,1,0,0:0:0:0:
448,192,115037,1,0,0:0:0:0:
320,192,115214,1,0,0:0:0:0:
64,192,115214,1,0,0:0:0:0:
64,192,115390,1,0,0:0:0:0:
320,192,115390,1,0,0:0:0:0:
192,192,115390,1,0,0:0:0:0:
448,192,115390,1,0,0:0:0:0:
448,192,115567,1,0,0:0:0:0:
192,192,115567,1,0,0:0:0:0:
320,192,115567,1,0,0:0:0:0:
320,192,115743,1,0,0:0:0:0:
448,192,115743,1,0,0:0:0:0:
64,192,115832,1,0,0:0:0:0:
192,192,115832,1,0,0:0:0:0:
320,192,115920,1,0,0:0:0:0:
448,192,115920,1,0,0:0:0:0:
64,192,116096,1,0,0:0:0:0:
448,192,116096,1,0,0:0:0:0:
320,192,116096,1,0,0:0:0:0:
64,192,116273,1,0,0:0:0:0:
192,192,116273,1,0,0:0:0:0:
192,192,116449,1,0,0:0:0:0:
320,192,116449,1,0,0:0:0:0:
448,192,116449,1,0,0:0:0:0:
64,192,116626,1,0,0:0:0:0:
192,192,116626,1,0,0:0:0:0:
64,192,116802,1,0,0:0:0:0:
320,192,116802,1,0,0:0:0:0:
448,192,116802,1,0,0:0:0:0:
64,192,116979,1,0,0:0:0:0:
448,192,116979,1,0,0:0:0:0:
192,192,116979,1,0,0:0:0:0:
320,192,116979,1,0,0:0:0:0:
64,192,117155,1,0,0:0:0:0:
192,192,117155,1,0,0:0:0:0:
320,192,117155,1,0,0:0:0:0:
448,192,117155,1,0,0:0:0:0:
64,192,117332,1,0,0:0:0:0:
192,192,117332,1,0,0:0:0:0:
320,192,117508,1,0,0:0:0:0:
448,192,117508,1,0,0:0:0:0:
64,192,117684,1,0,0:0:0:0:
320,192,117684,1,0,0:0:0:0:
448,192,117684,1,0,0:0:0:0:
64,192,117861,1,0,0:0:0:0:
320,192,117861,1,0,0:0:0:0:
192,192,118037,1,0,0:0:0:0:
448,192,118037,1,0,0:0:0:0:
192,192,118214,1,0,0:0:0:0:
320,192,118214,1,0,0:0:0:0:
448,192,118214,1,0,0:0:0:0:
320,192,118390,1,0,0:0:0:0:
448,192,118390,1,0,0:0:0:0:
64,192,118390,1,0,0:0:0:0:
192,192,118390,1,0,0:0:0:0:
64,192,118567,1,0,0:0:0:0:
320,192,118567,1,0,0:0:0:0:
192,192,118567,1,0,0:0:0:0:
64,192,118743,1,0,0:0:0:0:
192,192,118743,1,0,0:0:0:0:
320,192,118920,1,0,0:0:0:0:
448,192,118920,1,0,0:0:0:0:
64,192,118920,1,0,0:0:0:0:
192,192,119096,1,0,0:0:0:0:
320,192,119096,1,0,0:0:0:0:
448,192,119096,1,0,0:0:0:0:
64,192,119273,1,0,0:0:0:0:
448,192,119273,1,0,0:0:0:0:
64,192,119449,1,0,0:0:0:0:
192,192,119449,1,0,0:0:0:0:
64,192,119626,1,0,0:0:0:0:
192,192,119626,1,0,0:0:0:0:
448,192,119626,1,0,0:0:0:0:
64,192,119802,1,0,0:0:0:0:
192,192,119802,1,0,0:0:0:0:
320,192,119802,1,0,0:0:0:0:
448,192,119802,1,0,0:0:0:0:
192,192,119979,1,0,0:0:0:0:
320,192,119979,1,0,0:0:0:0:
448,192,119979,1,0,0:0:0:0:
320,192,120155,1,0,0:0:0:0:
448,192,120155,1,0,0:0:0:0:
64,192,120332,1,0,0:0:0:0:
192,192,120332,1,0,0:0:0:0:
448,192,120332,1,0,0:0:0:0:
64,192,120508,1,0,0:0:0:0:
320,192,120508,1,0,0:0:0:0:
192,192,120684,1,0,0:0:0:0:
448,192,120684,1,0,0:0:0:0:
64,192,120861,1,0,0:0:0:0:
448,192,120861,1,0,0:0:0:0:
320,192,120861,1,0,0:0:0:0:
64,192,121037,1,0,0:0:0:0:
320,192,121037,1,0,0:0:0:0:
192,192,121214,1,0,0:0:0:0:
320,192,121214,1,0,0:0:0:0:
448,192,121214,1,0,0:0:0:0:
64,192,121390,1,0,0:0:0:0:
192,192,121390,1,0,0:0:0:0:
448,192,121567,1,0,0:0:0:0:
320,192,121567,1,0,0:0:0:0:
192,192,121567,1,0,0:0:0:0:
64,192,121743,1,0,0:0:0:0:
192,192,121743,1,0,0:0:0:0:
448,192,121743,1,0,0:0:0:0:
320,192,121920,1,0,0:0:0:0:
192,192,121920,1,0,0:0:0:0:
64,192,121920,1,0,0:0:0:0:
64,192,122096,1,0,0:0:0:0:
192,192,122096,1,0,0:0:0:0:
64,192,122273,1,0,0:0:0:0:
320,192,122273,1,0,0:0:0:0:
448,192,122273,1,0,0:0:0:0:
64,192,122449,1,0,0:0:0:0:
448,192,122449,1,0,0:0:0:0:
192,192,122449,1,0,0:0:0:0:
192,192,122626,1,0,0:0:0:0:
320,192,122626,1,0,0:0:0:0:
448,192,122626,1,0,0:0:0:0:
64,192,122802,1,0,0:0:0:0:
320,192,122802,1,0,0:0:0:0:
192,192,122979,1,0,0:0:0:0:
320,192,122979,1,0,0:0:0:0:
448,192,122979,1,0,0:0:0:0:
448,192,123155,1,0,0:0:0:0:
320,192,123155,1,0,0:0:0:0:
64,192,123332,1,0,0:0:0:0:
192,192,123332,1,0,0:0:0:0:
448,192,123332,1,0,0:0:0:0:
64,192,123508,1,0,0:0:0:0:
192,192,123508,1,0,0:0:0:0:
320,192,123508,1,0,0:0:0:0:
320,192,123684,1,0,0:0:0:0:
448,192,123684,1,0,0:0:0:0:
64,192,123861,1,0,0:0:0:0:
320,192,123861,1,0,0:0:0:0:
448,192,123861,1,0,0:0:0:0:
192,192,124037,1,0,0:0:0:0:
320,192,124037,1,0,0:0:0:0:
448,192,124037,1,0,0:0:0:0:
192,192,124214,1,0,0:0:0:0:
320,192,124214,1,0,0:0:0:0:
448,192,124214,1,0,0:0:0:0:
320,192,124390,1,0,0:0:0:0:
448,192,124390,1,0,0:0:0:0:
320,192,124567,1,0,0:0:0:0:
448,192,124567,1,0,0:0:0:0:
64,192,124567,1,0,0:0:0:0:
192,192,124743,1,0,0:0:0:0:
64,192,124743,1,0,0:0:0:0:
448,192,124920,1,0,0:0:0:0:
192,192,124920,1,0,0:0:0:0:
64,192,124920,1,0,0:0:0:0:
320,192,125096,1,0,0:0:0:0:
192,192,125096,1,0,0:0:0:0:
320,192,125273,1,0,0:0:0:0:
448,192,125273,1,0,0:0:0:0:
64,192,125273,1,0,0:0:0:0:
320,192,125449,1,0,0:0:0:0:
448,192,125449,1,0,0:0:0:0:
448,192,125626,1,0,0:0:0:0:
192,192,125626,1,0,0:0:0:0:
64,192,125626,1,0,0:0:0:0:
320,192,125802,1,0,0:0:0:0:
448,192,125802,1,0,0:0:0:0:
320,192,125979,1,0,0:0:0:0:
64,192,125979,1,0,0:0:0:0:
192,192,125979,1,0,0:0:0:0:
192,192,126155,1,0,0:0:0:0:
64,192,126155,1,0,0:0:0:0:
320,192,126332,1,0,0:0:0:0:
448,192,126332,1,0,0:0:0:0:
64,192,126332,1,0,0:0:0:0:
192,192,126508,1,0,0:0:0:0:
448,192,126508,1,0,0:0:0:0:
448,192,126684,1,0,0:0:0:0:
192,192,126684,1,0,0:0:0:0:
320,192,126684,1,0,0:0:0:0:
64,192,126684,1,0,0:0:0:0:
64,192,126861,1,0,0:0:0:0:
320,192,126861,1,0,0:0:0:0:
192,192,126861,1,0,0:0:0:0:
192,192,127037,1,0,0:0:0:0:
64,192,127037,1,0,0:0:0:0:
448,192,127126,1,0,0:0:0:0:
320,192,127126,1,0,0:0:0:0:
192,192,127214,1,0,0:0:0:0:
64,192,127214,1,0,0:0:0:0:
448,192,127390,1,0,0:0:0:0:
64,192,127390,1,0,0:0:0:0:
192,192,127390,1,0,0:0:0:0:
448,192,127567,1,0,0:0:0:0:
320,192,127567,1,0,0:0:0:0:
320,192,127743,1,0,0:0:0:0:
192,192,127743,1,0,0:0:0:0:
64,192,127743,1,0,0:0:0:0:
448,192,127920,1,0,0:0:0:0:
320,192,127920,1,0,0:0:0:0:
448,192,128096,1,0,0:0:0:0:
192,192,128096,1,0,0:0:0:0:
64,192,128096,1,0,0:0:0:0:
448,192,128273,1,0,0:0:0:0:
64,192,128273,1,0,0:0:0:0:
320,192,128273,1,0,0:0:0:0:
192,192,128273,1,0,0:0:0:0:
448,192,128449,1,0,0:0:0:0:
320,192,128449,1,0,0:0:0:0:
192,192,128449,1,0,0:0:0:0:
64,192,128449,1,0,0:0:0:0:
448,192,128626,1,0,0:0:0:0:
320,192,128626,1,0,0:0:0:0:
192,192,128802,1,0,0:0:0:0:
64,192,128802,1,0,0:0:0:0:
448,192,128979,1,0,0:0:0:0:
192,192,128979,1,0,0:0:0:0:
64,192,128979,1,0,0:0:0:0:
448,192,129155,1,0,0:0:0:0:
192,192,129155,1,0,0:0:0:0:
320,192,129332,1,0,0:0:0:0:
64,192,129332,1,0,0:0:0:0:
320,192,129508,1,0,0:0:0:0:
192,192,129508,1,0,0:0:0:0:
64,192,129508,1,0,0:0:0:0:
192,192,129684,1,0,0:0:0:0:
64,192,129684,1,0,0:0:0:0:
448,192,129684,1,0,0:0:0:0:
320,192,129684,1,0,0:0:0:0:
448,192,129861,1,0,0:0:0:0:
192,192,129861,1,0,0:0:0:0:
320,192,129949,1,0,0:0:0:0:
64,192,129949,1,0,0:0:0:0:
448,192,130037,1,0,0:0:0:0:
192,192,130037,1,0,0:0:0:0:
192,192,130214,1,0,0:0:0:0:
64,192,130214,1,0,0:0:0:0:
448,192,130214,1,0,0:0:0:0:
320,192,130390,1,0,0:0:0:0:
192,192,130390,1,0,0:0:0:0:
64,192,130390,1,0,0:0:0:0:
448,192,130567,1,0,0:0:0:0:
64,192,130567,1,0,0:0:0:0:
192,192,130567,1,0,0:0:0:0:
448,192,130743,1,0,0:0:0:0:
64,192,130743,1,0,0:0:0:0:
320,192,130832,1,0,0:0:0:0:
192,192,130832,1,0,0:0:0:0:
448,192,130920,1,0,0:0:0:0:
64,192,130920,1,0,0:0:0:0:
448,192,131096,1,0,0:0:0:0:
320,192,131096,1,0,0:0:0:0:
192,192,131096,1,0,0:0:0:0:
64,192,131096,1,0,0:0:0:0:
320,192,131273,1,0,0:0:0:0:
192,192,131273,1,0,0:0:0:0:
64,192,131273,1,0,0:0:0:0:
192,192,131449,1,0,0:0:0:0:
64,192,131449,1,0,0:0:0:0:
448,192,131449,1,0,0:0:0:0:
448,192,131626,1,0,0:0:0:0:
320,192,131626,1,0,0:0:0:0:
64,192,131626,1,0,0:0:0:0:
448,192,131802,1,0,0:0:0:0:
192,192,131802,1,0,0:0:0:0:
320,192,131802,1,0,0:0:0:0:
320,192,131979,1,0,0:0:0:0:
64,192,131979,1,0,0:0:0:0:
192,192,132067,1,0,0:0:0:0:
448,192,132067,1,0,0:0:0:0:
320,192,132155,1,0,0:0:0:0:
64,192,132155,1,0,0:0:0:0:
448,192,132332,1,0,0:0:0:0:
192,192,132332,1,0,0:0:0:0:
64,192,132332,1,0,0:0:0:0:
448,192,132508,1,0,0:0:0:0:
320,192,132508,1,0,0:0:0:0:
64,192,132596,1,0,0:0:0:0:
192,192,132596,1,0,0:0:0:0:
448,192,132684,1,0,0:0:0:0:
320,192,132773,1,0,0:0:0:0:
192,192,132861,1,0,0:0:0:0:
64,192,132949,1,0,0:0:0:0:
320,192,133037,1,0,0:0:0:0:
192,192,133126,1,0,0:0:0:0:
64,192,133214,1,0,0:0:0:0:
448,192,133302,1,0,0:0:0:0:
320,192,133390,1,0,0:0:0:0:
192,192,133479,1,0,0:0:0:0:
320,192,133567,1,0,0:0:0:0:
448,192,133655,1,0,0:0:0:0:
192,192,133743,1,0,0:0:0:0:
320,192,133832,1,0,0:0:0:0:
64,192,133920,1,0,0:0:0:0:
192,192,134008,1,0,0:0:0:0:
448,192,134096,1,0,0:0:0:0:
320,192,134096,1,0,0:0:0:0:
192,192,134184,1,0,0:0:0:0:
64,192,134184,1,0,0:0:0:0:
320,192,134273,1,0,0:0:0:0:
448,192,134273,1,0,0:0:0:0:
192,192,134361,1,0,0:0:0:0:
64,192,134361,1,0,0:0:0:0:
320,192,134449,1,0,0:0:0:0:
448,192,134449,1,0,0:0:0:0:
64,192,134537,1,0,0:0:0:0:
192,192,134537,1,0,0:0:0:0:
448,192,134626,1,0,0:0:0:0:
320,192,134626,1,0,0:0:0:0:
64,192,134714,1,0,0:0:0:0:
192,192,134714,1,0,0:0:0:0:
448,192,134802,1,0,0:0:0:0:
320,192,134802,1,0,0:0:0:0:
192,192,134890,1,0,0:0:0:0:
64,192,134890,1,0,0:0:0:0:
448,192,134979,1,0,0:0:0:0:
320,192,134979,1,0,0:0:0:0:
192,192,135067,1,0,0:0:0:0:
64,192,135067,1,0,0:0:0:0:
448,192,135155,1,0,0:0:0:0:
320,192,135155,1,0,0:0:0:0:
192,192,135243,1,0,0:0:0:0:
64,192,135243,1,0,0:0:0:0:
448,192,135332,1,0,0:0:0:0:
320,192,135332,1,0,0:0:0:0:
192,192,135420,1,0,0:0:0:0:
64,192,135420,1,0,0:0:0:0:
448,192,135508,1,0,0:0:0:0:
320,192,135508,1,0,0:0:0:0:
448,192,135684,1,0,0:0:0:0:
320,192,135684,1,0,0:0:0:0:
64,192,135684,1,0,0:0:0:0:
64,192,135861,1,0,0:0:0:0:
448,192,135861,1,0,0:0:0:0:
320,192,135861,1,0,0:0:0:0:
192,192,135861,1,0,0:0:0:0:
64,192,136037,1,0,0:0:0:0:
192,192,136037,1,0,0:0:0:0:
448,192,136037,1,0,0:0:0:0:
64,192,136214,1,0,0:0:0:0:
192,192,136214,1,0,0:0:0:0:
448,192,136214,1,0,0:0:0:0:
320,192,136214,1,0,0:0:0:0:
192,192,136390,1,0,0:0:0:0:
320,192,136390,1,0,0:0:0:0:
448,192,136390,1,0,0:0:0:0:
64,192,136567,1,0,0:0:0:0:
448,192,136567,1,0,0:0:0:0:
320,192,136567,1,0,0:0:0:0:
192,192,136567,1,0,0:0:0:0:
448,192,136743,1,0,0:0:0:0:
320,192,136743,1,0,0:0:0:0:
64,192,136743,1,0,0:0:0:0:
64,192,136920,1,0,0:0:0:0:
192,192,136920,1,0,0:0:0:0:
448,192,136920,1,0,0:0:0:0:
320,192,136920,1,0,0:0:0:0:
448,192,137096,1,0,0:0:0:0:
320,192,137096,1,0,0:0:0:0:
192,192,137096,1,0,0:0:0:0:
192,192,137273,1,0,0:0:0:0:
64,192,137273,1,0,0:0:0:0:
320,192,137273,1,0,0:0:0:0:
448,192,137273,1,0,0:0:0:0:
64,192,137449,1,0,0:0:0:0:
192,192,137449,1,0,0:0:0:0:
448,192,137449,1,0,0:0:0:0:
64,192,137626,1,0,0:0:0:0:
448,192,137626,1,0,0:0:0:0:
320,192,137626,1,0,0:0:0:0:
192,192,137626,1,0,0:0:0:0:
448,192,137802,1,0,0:0:0:0:
192,192,137802,1,0,0:0:0:0:
320,192,137802,1,0,0:0:0:0:
320,192,137979,1,0,0:0:0:0:
64,192,137979,1,0,0:0:0:0:
448,192,137979,1,0,0:0:0:0:
192,192,137979,1,0,0:0:0:0:
192,192,138155,1,0,0:0:0:0:
320,192,138155,1,0,0:0:0:0:
64,192,138155,1,0,0:0:0:0:
448,192,138155,1,0,0:0:0:0:
64,192,138332,1,0,0:0:0:0:
192,192,138332,1,0,0:0:0:0:
320,192,138420,1,0,0:0:0:0:
448,192,138420,1,0,0:0:0:0:
64,192,138508,1,0,0:0:0:0:
192,192,138508,1,0,0:0:0:0:
192,192,138684,1,0,0:0:0:0:
64,192,138684,1,0,0:0:0:0:
448,192,138684,1,0,0:0:0:0:
320,192,138684,1,0,0:0:0:0:
320,192,138861,1,0,0:0:0:0:
448,192,138861,1,0,0:0:0:0:
64,192,138861,1,0,0:0:0:0:
64,192,139037,1,0,0:0:0:0:
192,192,139037,1,0,0:0:0:0:
320,192,139037,1,0,0:0:0:0:
448,192,139037,1,0,0:0:0:0:
320,192,139214,1,0,0:0:0:0:
448,192,139214,1,0,0:0:0:0:
192,192,139214,1,0,0:0:0:0:
64,192,139390,1,0,0:0:0:0:
192,192,139390,1,0,0:0:0:0:
448,192,139390,1,0,0:0:0:0:
320,192,139390,1,0,0:0:0:0:
320,192,139567,1,0,0:0:0:0:
192,192,139567,1,0,0:0:0:0:
448,192,139567,1,0,0:0:0:0:
64,192,139567,1,0,0:0:0:0:
192,192,139743,1,0,0:0:0:0:
64,192,139743,1,0,0:0:0:0:
448,192,139743,1,0,0:0:0:0:
320,192,139743,1,0,0:0:0:0:
320,192,139920,1,0,0:0:0:0:
448,192,139920,1,0,0:0:0:0:
64,192,139920,1,0,0:0:0:0:
64,192,140096,1,0,0:0:0:0:
192,192,140096,1,0,0:0:0:0:
320,192,140096,1,0,0:0:0:0:
64,192,140273,1,0,0:0:0:0:
192,192,140273,1,0,0:0:0:0:
448,192,140273,1,0,0:0:0:0:
320,192,140273,1,0,0:0:0:0:
192,192,140449,1,0,0:0:0:0:
448,192,140449,1,0,0:0:0:0:
320,192,140449,1,0,0:0:0:0:
64,192,140626,1,0,0:0:0:0:
320,192,140626,1,0,0:0:0:0:
192,192,140626,1,0,0:0:0:0:
64,192,140802,1,0,0:0:0:0:
192,192,140802,1,0,0:0:0:0:
320,192,140802,1,0,0:0:0:0:
448,192,140802,1,0,0:0:0:0:
448,192,140979,1,0,0:0:0:0:
320,192,140979,1,0,0:0:0:0:
192,192,140979,1,0,0:0:0:0:
64,192,140979,1,0,0:0:0:0:
320,192,141155,1,0,0:0:0:0:
192,192,141155,1,0,0:0:0:0:
448,192,141155,1,0,0:0:0:0:
320,192,141332,1,0,0:0:0:0:
448,192,141332,1,0,0:0:0:0:
64,192,141332,1,0,0:0:0:0:
448,192,141508,1,0,0:0:0:0:
64,192,141508,1,0,0:0:0:0:
192,192,141508,1,0,0:0:0:0:
320,192,141508,1,0,0:0:0:0:
64,192,141684,1,0,0:0:0:0:
192,192,141684,1,0,0:0:0:0:
320,192,141684,1,0,0:0:0:0:
448,192,141684,1,0,0:0:0:0:
64,192,141861,1,0,0:0:0:0:
448,192,141861,1,0,0:0:0:0:
192,192,141861,1,0,0:0:0:0:
320,192,142037,1,0,0:0:0:0:
448,192,142037,1,0,0:0:0:0:
64,192,142037,1,0,0:0:0:0:
64,192,142214,1,0,0:0:0:0:
320,192,142214,1,0,0:0:0:0:
448,192,142214,1,0,0:0:0:0:
192,192,142214,1,0,0:0:0:0:
192,192,142390,1,0,0:0:0:0:
64,192,142390,1,0,0:0:0:0:
448,192,142390,1,0,0:0:0:0:
320,192,142390,1,0,0:0:0:0:
64,192,142567,1,0,0:0:0:0:
192,192,142567,1,0,0:0:0:0:
320,192,142567,1,0,0:0:0:0:
448,192,142567,1,0,0:0:0:0:
64,192,142743,1,0,0:0:0:0:
192,192,142743,1,0,0:0:0:0:
448,192,142743,1,0,0:0:0:0:
64,192,142920,1,0,0:0:0:0:
320,192,142920,1,0,0:0:0:0:
448,192,142920,1,0,0:0:0:0:
192,192,142920,1,0,0:0:0:0:
192,192,143096,1,0,0:0:0:0:
448,192,143096,1,0,0:0:0:0:
320,192,143096,1,0,0:0:0:0:
64,192,143273,1,0,0:0:0:0:
320,192,143273,1,0,0:0:0:0:
192,192,143273,1,0,0:0:0:0:
192,192,143449,1,0,0:0:0:0:
64,192,143449,1,0,0:0:0:0:
448,192,143449,1,0,0:0:0:0:
320,192,143449,1,0,0:0:0:0:
192,192,143626,1,0,0:0:0:0:
448,192,143626,1,0,0:0:0:0:
64,192,143626,1,0,0:0:0:0:
64,192,143802,1,0,0:0:0:0:
192,192,143802,1,0,0:0:0:0:
320,192,143802,1,0,0:0:0:0:
448,192,143802,1,0,0:0:0:0:
320,192,143979,1,0,0:0:0:0:
448,192,143979,1,0,0:0:0:0:
64,192,143979,1,0,0:0:0:0:
320,192,144155,1,0,0:0:0:0:
192,192,144155,1,0,0:0:0:0:
64,192,144155,1,0,0:0:0:0:
448,192,144155,1,0,0:0:0:0:
64,192,144332,1,0,0:0:0:0:
320,192,144332,1,0,0:0:0:0:
448,192,144332,1,0,0:0:0:0:
192,192,144332,1,0,0:0:0:0:
448,192,144508,1,0,0:0:0:0:
320,192,144508,1,0,0:0:0:0:
192,192,144508,1,0,0:0:0:0:
64,192,144508,1,0,0:0:0:0:
320,192,144684,1,0,0:0:0:0:
448,192,144684,1,0,0:0:0:0:
192,192,144684,1,0,0:0:0:0:
64,192,144861,1,0,0:0:0:0:
192,192,144861,1,0,0:0:0:0:
448,192,144861,1,0,0:0:0:0:
320,192,144861,1,0,0:0:0:0:
64,192,145037,1,0,0:0:0:0:
448,192,145037,1,0,0:0:0:0:
320,192,145037,1,0,0:0:0:0:
192,192,145037,1,0,0:0:0:0:
64,192,145214,1,0,0:0:0:0:
192,192,145214,1,0,0:0:0:0:
320,192,145214,1,0,0:0:0:0:
448,192,145214,1,0,0:0:0:0:
192,192,145390,1,0,0:0:0:0:
448,192,145390,1,0,0:0:0:0:
64,192,145390,1,0,0:0:0:0:
64,192,145567,1,0,0:0:0:0:
192,192,145567,1,0,0:0:0:0:
320,192,145567,1,0,0:0:0:0:
448,192,145567,1,0,0:0:0:0:
192,192,145743,1,0,0:0:0:0:
64,192,145743,1,0,0:0:0:0:
448,192,145743,1,0,0:0:0:0:
64,192,145920,1,0,0:0:0:0:
320,192,145920,1,0,0:0:0:0:
448,192,145920,1,0,0:0:0:0:
192,192,145920,1,0,0:0:0:0:
192,192,146096,1,0,0:0:0:0:
320,192,146096,1,0,0:0:0:0:
448,192,146096,1,0,0:0:0:0:
64,192,146096,1,0,0:0:0:0:
64,192,146273,1,0,0:0:0:0:
320,192,146273,1,0,0:0:0:0:
448,192,146273,1,0,0:0:0:0:
64,192,146449,1,0,0:0:0:0:
320,192,146449,1,0,0:0:0:0:
448,192,146449,1,0,0:0:0:0:
64,192,146626,1,0,0:0:0:0:
192,192,146626,1,0,0:0:0:0:
320,192,146626,1,0,0:0:0:0:
448,192,146626,1,0,0:0:0:0:
192,192,146802,1,0,0:0:0:0:
320,192,146802,1,0,0:0:0:0:
448,192,146802,1,0,0:0:0:0:
64,192,146802,1,0,0:0:0:0:
320,192,146979,1,0,0:0:0:0:
448,192,146979,1,0,0:0:0:0:
192,192,146979,1,0,0:0:0:0:
320,192,147155,1,0,0:0:0:0:
448,192,147155,1,0,0:0:0:0:
64,192,147155,1,0,0:0:0:0:
192,192,147332,1,0,0:0:0:0:
64,192,147332,1,0,0:0:0:0:
320,192,147332,1,0,0:0:0:0:
448,192,147332,1,0,0:0:0:0:
448,192,147508,1,0,0:0:0:0:
192,192,147508,1,0,0:0:0:0:
64,192,147508,1,0,0:0:0:0:
320,192,147684,1,0,0:0:0:0:
192,192,147684,1,0,0:0:0:0:
448,192,147684,1,0,0:0:0:0:
320,192,147861,1,0,0:0:0:0:
448,192,147861,1,0,0:0:0:0:
64,192,147861,1,0,0:0:0:0:
192,192,147861,1,0,0:0:0:0:
320,192,148037,1,0,0:0:0:0:
448,192,148037,1,0,0:0:0:0:
64,192,148037,1,0,0:0:0:0:
448,192,148214,1,0,0:0:0:0:
192,192,148214,1,0,0:0:0:0:
64,192,148214,1,0,0:0:0:0:
320,192,148214,1,0,0:0:0:0:
192,192,148390,1,0,0:0:0:0:
320,192,148390,1,0,0:0:0:0:
64,192,148390,1,0,0:0:0:0:
320,192,148567,1,0,0:0:0:0:
64,192,148567,1,0,0:0:0:0:
192,192,148567,1,0,0:0:0:0:
448,192,148567,1,0,0:0:0:0:
192,192,148743,1,0,0:0:0:0:
64,192,148743,1,0,0:0:0:0:
448,192,148743,1,0,0:0:0:0:
320,192,148920,1,0,0:0:0:0:
448,192,148920,1,0,0:0:0:0:
64,192,148920,1,0,0:0:0:0:
192,192,148920,1,0,0:0:0:0:
192,192,149096,1,0,0:0:0:0:
448,192,149096,1,0,0:0:0:0:
320,192,149096,1,0,0:0:0:0:
448,192,149273,1,0,0:0:0:0:
192,192,149273,1,0,0:0:0:0:
320,192,149273,1,0,0:0:0:0:
64,192,149273,1,0,0:0:0:0:
64,192,149449,1,0,0:0:0:0:
320,192,149449,1,0,0:0:0:0:
192,192,149449,1,0,0:0:0:0:
448,192,149449,1,0,0:0:0:0:
192,192,149626,1,0,0:0:0:0:
64,192,149626,1,0,0:0:0:0:
448,192,149714,1,0,0:0:0:0:
320,192,149714,1,0,0:0:0:0:
192,192,149802,1,0,0:0:0:0:
64,192,149802,1,0,0:0:0:0:
448,192,149979,1,0,0:0:0:0:
64,192,149979,1,0,0:0:0:0:
192,192,149979,1,0,0:0:0:0:
320,192,149979,1,0,0:0:0:0:
448,192,150155,1,0,0:0:0:0:
320,192,150155,1,0,0:0:0:0:
192,192,150155,1,0,0:0:0:0:
320,192,150332,1,0,0:0:0:0:
192,192,150332,1,0,0:0:0:0:
64,192,150332,1,0,0:0:0:0:
448,192,150332,1,0,0:0:0:0:
448,192,150508,1,0,0:0:0:0:
192,192,150508,1,0,0:0:0:0:
64,192,150508,1,0,0:0:0:0:
448,192,150684,1,0,0:0:0:0:
192,192,150684,1,0,0:0:0:0:
64,192,150684,1,0,0:0:0:0:
320,192,150684,1,0,0:0:0:0:
448,192,150861,1,0,0:0:0:0:
64,192,150861,1,0,0:0:0:0:
320,192,150861,1,0,0:0:0:0:
192,192,150861,1,0,0:0:0:0:
192,192,151037,1,0,0:0:0:0:
64,192,151037,1,0,0:0:0:0:
448,192,151037,1,0,0:0:0:0:
320,192,151037,1,0,0:0:0:0:
320,192,151214,1,0,0:0:0:0:
448,192,151214,1,0,0:0:0:0:
64,192,151214,1,0,0:0:0:0:
64,192,151390,1,0,0:0:0:0:
192,192,151390,1,0,0:0:0:0:
320,192,151390,1,0,0:0:0:0:
64,192,151567,1,0,0:0:0:0:
192,192,151567,1,0,0:0:0:0:
448,192,151567,1,0,0:0:0:0:
320,192,151567,1,0,0:0:0:0:
192,192,151743,1,0,0:0:0:0:
448,192,151743,1,0,0:0:0:0:
320,192,151743,1,0,0:0:0:0:
64,192,151920,1,0,0:0:0:0:
320,192,151920,1,0,0:0:0:0:
192,192,151920,1,0,0:0:0:0:
64,192,152096,1,0,0:0:0:0:
192,192,152096,1,0,0:0:0:0:
320,192,152096,1,0,0:0:0:0:
448,192,152096,1,0,0:0:0:0:
448,192,152273,1,0,0:0:0:0:
320,192,152273,1,0,0:0:0:0:
192,192,152273,1,0,0:0:0:0:
64,192,152273,1,0,0:0:0:0:
448,192,152449,1,0,0:0:0:0:
192,192,152449,1,0,0:0:0:0:
320,192,152537,1,0,0:0:0:0:
64,192,152537,1,0,0:0:0:0:
448,192,152626,1,0,0:0:0:0:
192,192,152626,1,0,0:0:0:0:
192,192,152802,1,0,0:0:0:0:
64,192,152802,1,0,0:0:0:0:
448,192,152802,1,0,0:0:0:0:
320,192,152802,1,0,0:0:0:0:
320,192,152979,1,0,0:0:0:0:
192,192,152979,1,0,0:0:0:0:
64,192,152979,1,0,0:0:0:0:
448,192,153155,1,0,0:0:0:0:
64,192,153155,1,0,0:0:0:0:
192,192,153155,1,0,0:0:0:0:
448,192,153332,1,0,0:0:0:0:
64,192,153332,1,0,0:0:0:0:
320,192,153420,1,0,0:0:0:0:
192,192,153420,1,0,0:0:0:0:
448,192,153508,1,0,0:0:0:0:
64,192,153508,1,0,0:0:0:0:
448,192,153684,1,0,0:0:0:0:
320,192,153684,1,0,0:0:0:0:
192,192,153684,1,0,0:0:0:0:
64,192,153684,1,0,0:0:0:0:
320,192,153861,1,0,0:0:0:0:
192,192,153861,1,0,0:0:0:0:
64,192,153861,1,0,0:0:0:0:
448,192,153861,1,0,0:0:0:0:
192,192,154037,1,0,0:0:0:0:
64,192,154037,1,0,0:0:0:0:
448,192,154037,1,0,0:0:0:0:
448,192,154214,1,0,0:0:0:0:
320,192,154214,1,0,0:0:0:0:
64,192,154214,1,0,0:0:0:0:
192,192,154214,1,0,0:0:0:0:
448,192,154390,1,0,0:0:0:0:
192,192,154390,1,0,0:0:0:0:
320,192,154390,1,0,0:0:0:0:
320,192,154567,1,0,0:0:0:0:
64,192,154567,1,0,0:0:0:0:
192,192,154655,1,0,0:0:0:0:
448,192,154655,1,0,0:0:0:0:
320,192,154743,1,0,0:0:0:0:
64,192,154743,1,0,0:0:0:0:
448,192,154920,1,0,0:0:0:0:
192,192,154920,1,0,0:0:0:0:
64,192,154920,1,0,0:0:0:0:
448,192,155096,1,0,0:0:0:0:
320,192,155096,1,0,0:0:0:0:
64,192,155184,1,0,0:0:0:0:
192,192,155184,1,0,0:0:0:0:
448,192,155273,1,0,0:0:0:0:
320,192,155273,1,0,0:0:0:0:
64,192,155361,1,0,0:0:0:0:
192,192,155361,1,0,0:0:0:0:
320,192,155449,1,0,0:0:0:0:
448,192,155449,1,0,0:0:0:0:
192,192,155537,1,0,0:0:0:0:
64,192,155537,1,0,0:0:0:0:
320,192,155626,1,0,0:0:0:0:
448,192,155626,1,0,0:0:0:0:
192,192,155714,1,0,0:0:0:0:
64,192,155714,1,0,0:0:0:0:
320,192,155802,1,0,0:0:0:0:
448,192,155802,1,0,0:0:0:0:
192,192,155890,1,0,0:0:0:0:
64,192,155979,1,0,0:0:0:0:
448,192,155979,1,0,0:0:0:0:
320,192,156067,1,0,0:0:0:0:
192,192,156067,1,0,0:0:0:0:
64,192,156155,1,0,0:0:0:0:
448,192,156155,1,0,0:0:0:0:
320,192,156243,1,0,0:0:0:0:
192,192,156243,1,0,0:0:0:0:
64,192,156332,1,0,0:0:0:0:
448,192,156332,1,0,0:0:0:0:
320,192,156420,1,0,0:0:0:0:
192,192,156420,1,0,0:0:0:0:
64,192,156508,1,0,0:0:0:0:
448,192,156508,1,0,0:0:0:0:
192,192,156596,1,0,0:0:0:0:
320,192,156684,1,0,0:0:0:0:
448,192,156684,1,0,0:0:0:0:
64,192,156773,1,0,0:0:0:0:
192,192,156773,1,0,0:0:0:0:
448,192,156861,1,0,0:0:0:0:
320,192,156861,1,0,0:0:0:0:
64,192,156949,1,0,0:0:0:0:
192,192,156949,1,0,0:0:0:0:
448,192,157037,1,0,0:0:0:0:
320,192,157037,1,0,0:0:0:0:
64,192,157126,1,0,0:0:0:0:
192,192,157126,1,0,0:0:0:0:
448,192,157214,1,0,0:0:0:0:
320,192,157214,1,0,0:0:0:0:
64,192,157302,1,0,0:0:0:0:
192,192,157302,1,0,0:0:0:0:
448,192,157390,1,0,0:0:0:0:
320,192,157390,1,0,0:0:0:0:
64,192,157479,1,0,0:0:0:0:
192,192,157479,1,0,0:0:0:0:
448,192,157567,1,0,0:0:0:0:
320,192,157567,1,0,0:0:0:0:
64,192,157655,1,0,0:0:0:0:
192,192,157655,1,0,0:0:0:0:
448,192,157743,1,0,0:0:0:0:
320,192,157743,1,0,0:0:0:0:
64,192,157832,1,0,0:0:0:0:
192,192,157832,1,0,0:0:0:0:
448,192,157920,1,0,0:0:0:0:
320,192,157920,1,0,0:0:0:0:
64,192,158008,1,0,0:0:0:0:
192,192,158008,1,0,0:0:0:0:
448,192,158096,1,0,0:0:0:0:
320,192,158096,1,0,0:0:0:0:
