osu file format v14

[General]
AudioFilename: audio.mp3
AudioLeadIn: 0
PreviewTime: 36441
Countdown: 0
SampleSet: Normal
StackLeniency: 0.7
Mode: 1
LetterboxInBreaks: 0
WidescreenStoryboard: 0

[Editor]
Bookmarks: 299464
DistanceSpacing: 1.5
BeatDivisor: 16
GridSize: 32
TimelineZoom: 2.2

[Metadata]
Title:Throw Away
TitleUnicode:Throw Away
Artist:Blue Stahli
ArtistUnicode:Blue Stahli
Creator:HEAVENLY MOON
Version:Oni
Source:
Tags:english alternative industrial electronic rock mappers' guild mpg ginjani featured artist fa
BeatmapID:4476750
BeatmapSetID:2129072

[Difficulty]
HPDrainRate:5.5
CircleSize:5
OverallDifficulty:5
ApproachRate:5
SliderMultiplier:1.4
SliderTickRate:1

[Events]
//Background and Video events
0,0,"BLUE STAHLI.jpg",0,-75
//Break Periods
2,70474,74307
2,160126,164307
2,170940,174772
//Storyboard Layer 0 (Background)
//Storyboard Layer 1 (Fail)
//Storyboard Layer 2 (Pass)
//Storyboard Layer 3 (Foreground)
//Storyboard Layer 4 (Overlay)
//Storyboard Sound Samples

[TimingPoints]
3647,697.674418604651,4,1,0,40,1,0
3647,-111.111111111111,4,1,0,40,0,0
14803,-111.111111111111,4,1,0,50,0,0
25879,-105.263157894737,4,1,0,75,0,0
36431,-81.6326530612245,4,1,0,75,0,0
36606,-80,4,1,0,75,0,0
36780,-78.4313725490196,4,1,0,75,0,0
36954,-76.9230769230769,4,1,0,75,0,0
37042,-100,4,1,0,95,0,0
37135,-66.6666666666667,4,1,0,95,0,1
58059,-67.7966101694915,4,1,0,95,0,1
58234,-68.9655172413793,4,1,0,95,0,1
58408,-70.1754385964912,4,1,0,95,0,1
58582,-71.4285714285714,4,1,0,95,0,1
58757,-72.7272727272727,4,1,0,95,0,1
58931,-74.0740740740741,4,1,0,95,0,1
59106,-75.4716981132076,4,1,0,95,0,1
59280,-76.9230769230769,4,1,0,95,0,1
59460,-80,4,1,0,95,0,0
59542,-80,4,1,0,75,0,0
62245,-111.111111111111,4,1,0,55,0,0
64992,-111.111111111111,4,1,0,45,0,0
75457,-111.111111111111,4,1,0,60,0,0
97478,-109.89010989011,4,1,0,60,0,0
97652,-108.695652173913,4,1,0,60,0,0
97827,-107.52688172043,4,1,0,60,0,0
98001,-106.382978723404,4,1,0,60,0,0
98175,-105.263157894737,4,1,0,60,0,0
98350,-104.166666666667,4,1,0,60,0,0
98524,-100,4,1,0,60,0,0
118059,-101.010101010101,4,1,0,60,0,0
118408,-102.040816326531,4,1,0,60,0,0
118757,-103.092783505155,4,1,0,60,0,0
119106,-104.166666666667,4,1,0,60,0,0
119454,-105.263157894737,4,1,0,60,0,0
119803,-106.382978723404,4,1,0,60,0,0
120152,-107.52688172043,4,1,0,60,0,0
120501,-108.695652173913,4,1,0,60,0,0
120806,-100,4,1,0,75,0,0
141431,-99.009900990099,4,1,0,75,0,0
141606,-98.0392156862745,4,1,0,75,0,0
141780,-97.0873786407767,4,1,0,75,0,0
141954,-96.1538461538461,4,1,0,75,0,0
142129,-95.2380952380952,4,1,0,75,0,0
142303,-94.3396226415094,4,1,0,75,0,0
142478,-93.4579439252336,4,1,0,75,0,0
142652,-92.5925925925926,4,1,0,75,0,0
142827,-91.743119266055,4,1,0,75,0,0
143001,-90.9090909090909,4,1,0,75,0,0
143132,-80,4,1,0,85,0,0
151547,-79.3650793650794,4,1,0,85,0,0
151722,-78.8205295951384,4,1,0,85,0,0
151896,-78.2834628533226,4,1,0,85,0,0
152071,-77.753605045898,4,1,0,85,0,0
152245,-77.2308716507867,4,1,0,85,0,0
152420,-76.7151787885599,4,1,0,85,0,0
152594,-76.2062690325157,4,1,0,85,0,0
152768,-75.7040667467616,4,1,0,85,0,0
152943,-75.2084967551294,4,1,0,85,0,0
153117,-74.7193168861173,4,1,0,85,0,0
153292,-74.2364594553865,4,1,0,85,0,0
153466,-73.7598570829009,4,1,0,85,0,0
153640,-73.2892815891462,4,1,0,85,0,0
153815,-72.8246724164173,4,1,0,85,0,0
153989,-72.3659691793337,4,1,0,85,0,0
154164,-71.9129565573829,4,1,0,85,0,0
154338,-71.4655803898447,4,1,0,85,0,0
154556,-111.111111111111,4,1,0,75,0,0
160007,-111.111111111111,4,1,0,45,0,0
175879,-111.111111111111,4,1,0,60,0,0
197420,-110.497237569061,4,1,0,60,0,0
197507,-109.856549317901,4,1,0,60,0,0
197594,-109.22324794988,4,1,0,60,0,0
197943,-106.761527842873,4,1,0,60,0,0
198117,-105.571872274926,4,1,0,60,0,0
198292,-104.408328443543,4,1,0,60,0,0
198466,-103.270259301294,4,1,0,60,0,0
198640,-102.156628586081,4,1,0,60,0,0
198815,-101.066861793088,4,1,0,60,0,0
198989,-100,4,1,0,60,0,0
218524,-101.010101010101,4,1,0,60,0,0
218873,-102.040816326531,4,1,0,60,0,0
219222,-103.092783505155,4,1,0,60,0,0
219571,-104.166666666667,4,1,0,60,0,0
219920,-105.263157894737,4,1,0,60,0,0
220268,-106.382978723404,4,1,0,60,0,0
220617,-107.52688172043,4,1,0,60,0,0
220966,-108.695652173913,4,1,0,60,0,0
221271,-100,4,1,0,75,0,0
242245,-99.5024875621891,4,1,0,75,0,0
242332,-98.4993622166296,4,1,0,75,0,0
242419,-97.5161657423759,4,1,0,75,0,0
242594,-95.6076872404849,4,1,0,75,0,0
242768,-93.7723881576727,4,1,0,75,0,0
242943,-92.0063079524732,4,1,0,75,0,0
243117,-90.3054400900165,4,1,0,75,0,0
243292,-88.66631673027,4,1,0,75,0,0
243466,-87.0857114989715,4,1,0,75,0,0
243597,-80,4,1,0,85,0,0
252011,-79.3650793650794,4,1,0,85,0,0
252186,-78.8205295951384,4,1,0,85,0,0
252360,-78.2834628533226,4,1,0,85,0,0
252535,-77.753605045898,4,1,0,85,0,0
252709,-77.2308716507867,4,1,0,85,0,0
252884,-76.7151787885599,4,1,0,85,0,0
253058,-76.2062690325157,4,1,0,85,0,0
253232,-75.7040667467616,4,1,0,85,0,0
253407,-75.2084967551294,4,1,0,85,0,0
253581,-74.7193168861173,4,1,0,85,0,0
253756,-74.2364594553865,4,1,0,85,0,0
253930,-73.7598570829009,4,1,0,85,0,0
254104,-73.2892815891462,4,1,0,85,0,0
254279,-72.8246724164173,4,1,0,85,0,0
254453,-72.3659691793337,4,1,0,85,0,0
254628,-71.9129565573829,4,1,0,85,0,0
254802,-71.4655803898447,4,1,0,85,0,0
254978,-80,4,1,0,85,0,0
275385,-78.740157480315,4,1,0,85,0,0
275559,-77.9423226812159,4,1,0,85,0,0
275734,-77.1604938271605,4,1,0,85,0,0
275908,-76.3941940412529,4,1,0,85,0,0
276082,-75.642965204236,4,1,0,85,0,0
276257,-74.9063670411985,4,1,0,85,0,0
276431,-74.1839762611276,4,1,0,85,0,0
276606,-73.4753857457752,4,1,0,85,0,0
276780,-72.7802037845706,4,1,0,85,0,0
276954,-72.0980533525595,4,1,0,85,0,0
277129,-71.4285714285714,4,1,0,85,0,0
285501,-79.3650793650794,4,1,0,85,0,0
285675,-78.8205295951384,4,1,0,85,0,0
285850,-78.2834628533226,4,1,0,85,0,0
286024,-77.753605045898,4,1,0,85,0,0
286199,-77.2308716507867,4,1,0,85,0,0
286373,-76.7151787885599,4,1,0,85,0,0
286547,-76.2062690325157,4,1,0,85,0,0
286722,-75.7040667467616,4,1,0,85,0,0
286896,-75.2084967551294,4,1,0,85,0,0
287071,-74.7193168861173,4,1,0,85,0,0
287245,-74.2364594553865,4,1,0,85,0,0
287420,-73.7598570829009,4,1,0,85,0,0
287594,-73.2892815891462,4,1,0,85,0,0
287768,-72.8246724164173,4,1,0,85,0,0
287856,-72.5945962034478,4,1,0,85,0,0
287943,-72.3659691793337,4,1,0,85,0,0
288117,-71.9129565573829,4,1,0,85,0,0
288292,-71.4655803898447,4,1,0,85,0,0
288466,-80,4,1,0,85,0,0
296620,-80,4,1,0,60,0,0
296838,-111.111111111111,4,1,0,60,0,0
298713,-81.6326530612245,4,1,0,90,0,0
298931,-80,4,1,0,90,0,0
299106,-78.4313725490196,4,1,0,90,0,0
299280,-76.9230769230769,4,1,0,90,0,0
299411,-100,4,1,0,95,0,0
299460,-66.6666666666667,4,1,0,95,0,1
309920,-58.8235294117647,4,1,0,95,0,1
310792,-66.6666666666667,4,1,0,95,0,1
320385,-65.7894736842105,4,1,0,95,0,1
320559,-64.9350649350649,4,1,0,95,0,1
320734,-64.1025641025641,4,1,0,95,0,1
320908,-63.2911392405063,4,1,0,95,0,1
321082,-62.5,4,1,0,95,0,1
321257,-61.7283950617284,4,1,0,95,0,1
321431,-60.9756097560976,4,1,0,95,0,1
321606,-60.2409638554217,4,1,0,95,0,1
321786,-59.5238095238095,4,1,0,95,0,0
321954,-100,4,1,0,95,0,0

[HitObjects]
256,192,3647,5,2,0:0:0:0:
256,192,3995,1,0,0:0:0:0:
256,192,4170,1,2,0:0:0:0:
256,192,4519,1,2,0:0:0:0:
256,192,4693,1,0,0:0:0:0:
256,192,5042,1,0,0:0:0:0:
256,192,5216,1,0,0:0:0:0:
256,192,5565,1,0,0:0:0:0:
256,192,5740,1,0,0:0:0:0:
256,192,6088,1,0,0:0:0:0:
256,192,6437,1,2,0:0:0:0:
256,192,6786,1,0,0:0:0:0:
256,192,6960,1,2,0:0:0:0:
256,192,7309,1,2,0:0:0:0:
256,192,7484,1,0,0:0:0:0:
256,192,7833,1,0,0:0:0:0:
256,192,8007,1,0,0:0:0:0:
256,192,8356,1,0,0:0:0:0:
256,192,8530,1,0,0:0:0:0:
256,192,8879,1,0,0:0:0:0:
256,192,9228,1,2,0:0:0:0:
256,192,9577,1,0,0:0:0:0:
256,192,9751,1,2,0:0:0:0:
256,192,10100,1,0,0:0:0:0:
256,192,10274,1,2,0:0:0:0:
256,192,10623,1,0,0:0:0:0:
256,192,10798,1,0,0:0:0:0:
256,192,11146,1,0,0:0:0:0:
256,192,11321,1,0,0:0:0:0:
256,192,11670,1,0,0:0:0:0:
256,192,12019,1,2,0:0:0:0:
256,192,12367,1,0,0:0:0:0:
256,192,12542,1,2,0:0:0:0:
256,192,12891,1,0,0:0:0:0:
256,192,13065,1,2,0:0:0:0:
256,192,13414,1,0,0:0:0:0:
256,192,14112,1,0,0:0:0:0:
256,192,14460,1,2,0:0:0:0:
256,192,14809,1,0,0:0:0:0:
256,192,15158,1,0,0:0:0:0:
256,192,15333,1,2,0:0:0:0:
256,192,15507,1,2,0:0:0:0:
256,192,15856,1,0,0:0:0:0:
256,192,16205,1,2,0:0:0:0:
256,192,16379,1,0,0:0:0:0:
256,192,16728,1,0,0:0:0:0:
256,192,16902,1,2,0:0:0:0:
256,192,17251,1,0,0:0:0:0:
256,192,17600,1,2,0:0:0:0:
256,192,17949,1,0,0:0:0:0:
256,192,18123,1,0,0:0:0:0:
256,192,18298,1,2,0:0:0:0:
256,192,18646,1,2,0:0:0:0:
256,192,18995,1,0,0:0:0:0:
256,192,19693,1,0,0:0:0:0:
256,192,20042,1,2,0:0:0:0:
256,192,20391,1,0,0:0:0:0:
256,192,20740,1,2,0:0:0:0:
256,192,20914,1,0,0:0:0:0:
256,192,21088,1,2,0:0:0:0:
256,192,21437,1,0,0:0:0:0:
256,192,21786,1,2,0:0:0:0:
256,192,21960,1,0,0:0:0:0:
256,192,22309,1,0,0:0:0:0:
256,192,22484,1,2,0:0:0:0:
256,192,22658,1,0,0:0:0:0:
256,192,22833,1,0,0:0:0:0:
256,192,23181,1,2,0:0:0:0:
256,192,23530,1,0,0:0:0:0:
256,192,23705,1,2,0:0:0:0:
256,192,24053,1,0,0:0:0:0:
256,192,24228,1,0,0:0:0:0:
256,192,24577,1,2,0:0:0:0:
256,192,25274,1,2,0:0:0:0:
256,192,25449,1,0,0:0:0:0:
256,192,25623,1,0,0:0:0:0:
256,192,25798,1,2,0:0:0:0:
256,192,25972,1,0,0:0:0:0:
256,192,26321,1,0,0:0:0:0:
256,192,26495,1,2,0:0:0:0:
256,192,26670,1,2,0:0:0:0:
256,192,26844,1,0,0:0:0:0:
256,192,27019,1,2,0:0:0:0:
256,192,27367,1,2,0:0:0:0:
256,192,27542,1,0,0:0:0:0:
256,192,27891,1,0,0:0:0:0:
256,192,28065,1,2,0:0:0:0:
256,192,28240,1,2,0:0:0:0:
256,192,28414,1,0,0:0:0:0:
256,192,28763,1,2,0:0:0:0:
256,192,28937,1,0,0:0:0:0:
256,192,29112,1,0,0:0:0:0:
256,192,29286,1,2,0:0:0:0:
256,192,29460,1,2,0:0:0:0:
256,192,29635,1,0,0:0:0:0:
256,192,29809,1,2,0:0:0:0:
256,192,30158,1,2,0:0:0:0:
256,192,30333,1,0,0:0:0:0:
256,192,30681,1,0,0:0:0:0:
256,192,30856,1,2,0:0:0:0:
256,192,31030,1,0,0:0:0:0:
256,192,31205,1,2,0:0:0:0:
256,192,31553,1,0,0:0:0:0:
256,192,31902,1,0,0:0:0:0:
256,192,32077,1,2,0:0:0:0:
256,192,32251,1,0,0:0:0:0:
256,192,32426,1,0,0:0:0:0:
256,192,32600,1,2,0:0:0:0:
256,192,32949,1,2,0:0:0:0:
256,192,33123,1,0,0:0:0:0:
256,192,33472,1,0,0:0:0:0:
256,192,33646,1,2,0:0:0:0:
256,192,33821,1,0,0:0:0:0:
256,192,33995,1,0,0:0:0:0:
256,192,34344,1,2,0:0:0:0:
256,192,34693,1,0,0:0:0:0:
256,192,34867,1,2,0:0:0:0:
256,192,35042,1,2,0:0:0:0:
256,192,35391,1,2,0:0:0:0:
256,192,35740,1,2,0:0:0:0:
256,192,36088,1,0,0:0:0:0:
256,192,36437,1,2,0:0:0:0:
256,192,36612,1,2,0:0:0:0:
256,192,36786,1,2,0:0:0:0:
256,192,36960,1,2,0:0:0:0:
256,192,37135,1,6,0:0:0:0:
256,192,37484,1,0,0:0:0:0:
256,192,37658,1,0,0:0:0:0:
256,192,37745,1,0,0:0:0:0:
256,192,37833,1,2,0:0:0:0:
256,192,38007,1,0,0:0:0:0:
256,192,38181,1,6,0:0:0:0:
256,192,38530,1,0,0:0:0:0:
256,192,38705,1,2,0:0:0:0:
256,192,38879,1,0,0:0:0:0:
256,192,39228,1,2,0:0:0:0:
256,192,39402,1,0,0:0:0:0:
256,192,39577,1,0,0:0:0:0:
256,192,39664,1,2,0:0:0:0:
256,192,39751,1,2,0:0:0:0:
256,192,39926,1,4,0:0:0:0:
256,192,40274,1,2,0:0:0:0:
256,192,40362,1,2,0:0:0:0:
256,192,40449,1,0,0:0:0:0:
256,192,40623,1,2,0:0:0:0:
256,192,40798,1,0,0:0:0:0:
256,192,40972,1,6,0:0:0:0:
256,192,41321,1,2,0:0:0:0:
256,192,41495,1,2,0:0:0:0:
256,192,41670,1,0,0:0:0:0:
256,192,42019,1,2,0:0:0:0:
256,192,42193,1,0,0:0:0:0:
256,192,42367,1,0,0:0:0:0:
256,192,42542,1,2,0:0:0:0:
256,192,42716,1,6,0:0:0:0:
256,192,43065,1,0,0:0:0:0:
256,192,43240,1,0,0:0:0:0:
256,192,43327,1,2,0:0:0:0:
256,192,43414,1,2,0:0:0:0:
256,192,43588,1,0,0:0:0:0:
256,192,43763,1,4,0:0:0:0:
256,192,44112,1,0,0:0:0:0:
256,192,44286,1,2,0:0:0:0:
256,192,44460,1,2,0:0:0:0:
256,192,44809,1,2,0:0:0:0:
256,192,44984,1,0,0:0:0:0:
256,192,45158,1,0,0:0:0:0:
256,192,45245,1,0,0:0:0:0:
256,192,45333,1,2,0:0:0:0:
256,192,45507,1,6,0:0:0:0:
256,192,45856,1,0,0:0:0:0:
256,192,46030,1,0,0:0:0:0:
256,192,46205,1,2,0:0:0:0:
256,192,46379,1,0,0:0:0:0:
256,192,46553,1,0,0:0:0:0:
256,192,46641,1,0,0:0:0:0:
256,192,46728,1,2,0:0:0:0:
256,192,47077,1,2,0:0:0:0:
256,192,47251,1,0,0:0:0:0:
256,192,47600,1,2,0:0:0:0:
256,192,47644,1,2,0:0:0:0:
256,192,47774,1,0,0:0:0:0:
256,192,47949,1,2,0:0:0:0:
256,192,47992,1,2,0:0:0:0:
256,192,48123,1,0,0:0:0:0:
256,192,48298,1,6,0:0:0:0:
256,192,48646,1,0,0:0:0:0:
256,192,48821,1,0,0:0:0:0:
256,192,48908,1,0,0:0:0:0:
256,192,48995,1,2,0:0:0:0:
256,192,49170,1,2,0:0:0:0:
256,192,49344,1,4,0:0:0:0:
256,192,49693,1,0,0:0:0:0:
256,192,49867,1,2,0:0:0:0:
256,192,50042,1,0,0:0:0:0:
256,192,50391,1,2,0:0:0:0:
256,192,50565,1,0,0:0:0:0:
256,192,50740,1,2,0:0:0:0:
256,192,50827,1,0,0:0:0:0:
256,192,50914,1,2,0:0:0:0:
256,192,51088,1,6,0:0:0:0:
256,192,51437,1,2,0:0:0:0:
256,192,51524,1,0,0:0:0:0:
256,192,51612,1,0,0:0:0:0:
256,192,51786,1,2,0:0:0:0:
256,192,51960,1,2,0:0:0:0:
256,192,52135,1,4,0:0:0:0:
256,192,52484,1,0,0:0:0:0:
256,192,52658,1,2,0:0:0:0:
256,192,52833,1,2,0:0:0:0:
256,192,53181,1,2,0:0:0:0:
256,192,53356,1,2,0:0:0:0:
256,192,53530,1,0,0:0:0:0:
256,192,53705,1,2,0:0:0:0:
256,192,53879,1,6,0:0:0:0:
256,192,54228,1,0,0:0:0:0:
256,192,54402,1,0,0:0:0:0:
256,192,54490,1,2,0:0:0:0:
256,192,54577,1,2,0:0:0:0:
256,192,54751,1,2,0:0:0:0:
256,192,54926,1,4,0:0:0:0:
256,192,55274,1,0,0:0:0:0:
256,192,55449,1,2,0:0:0:0:
256,192,55623,1,0,0:0:0:0:
256,192,55972,1,2,0:0:0:0:
256,192,56146,1,0,0:0:0:0:
256,192,56321,1,2,0:0:0:0:
256,192,56408,1,0,0:0:0:0:
256,192,56495,1,0,0:0:0:0:
256,192,56670,1,6,0:0:0:0:
256,192,57019,1,0,0:0:0:0:
256,192,57193,1,0,0:0:0:0:
256,192,57280,1,0,0:0:0:0:
256,192,57367,1,2,0:0:0:0:
256,192,57542,1,2,0:0:0:0:
256,192,57716,1,0,0:0:0:0:
256,192,58065,1,2,0:0:0:0:
256,192,58240,1,2,0:0:0:0:
256,192,58414,1,2,0:0:0:0:
256,192,58588,1,0,0:0:0:0:
256,192,58763,1,2,0:0:0:0:
256,192,58937,1,2,0:0:0:0:
256,192,59112,1,2,0:0:0:0:
256,192,59286,1,2,0:0:0:0:
256,192,59460,1,6,0:0:0:0:
256,192,59635,12,0,64867,0:0:0:0:
256,192,65042,5,0,0:0:0:0:
256,192,68181,1,0,0:0:0:0:
256,192,68530,1,2,0:0:0:0:
256,192,68879,1,0,0:0:0:0:
256,192,69228,1,2,0:0:0:0:
256,192,69926,1,2,0:0:0:0:
256,192,70274,1,2,0:0:0:0:
256,192,75507,5,2,0:0:0:0:
256,192,75856,1,2,0:0:0:0:
256,192,76205,1,0,0:0:0:0:
256,192,76728,1,0,0:0:0:0:
256,192,77251,1,2,0:0:0:0:
256,192,77600,1,0,0:0:0:0:
256,192,78123,1,0,0:0:0:0:
256,192,78298,1,2,0:0:0:0:
256,192,78646,1,0,0:0:0:0:
256,192,78995,1,0,0:0:0:0:
256,192,79519,1,0,0:0:0:0:
256,192,79693,1,2,0:0:0:0:
256,192,80042,1,0,0:0:0:0:
256,192,80391,1,0,0:0:0:0:
256,192,80914,1,0,0:0:0:0:
256,192,81088,1,2,0:0:0:0:
256,192,81437,1,0,0:0:0:0:
256,192,81786,1,2,0:0:0:0:
256,192,82309,1,2,0:0:0:0:
256,192,82833,1,0,0:0:0:0:
256,192,83181,1,2,0:0:0:0:
256,192,83705,1,0,0:0:0:0:
256,192,83879,1,2,0:0:0:0:
256,192,84228,1,2,0:0:0:0:
256,192,84577,1,2,0:0:0:0:
256,192,84926,1,0,0:0:0:0:
256,192,85274,1,2,0:0:0:0:
256,192,85623,1,0,0:0:0:0:
256,192,85972,1,2,0:0:0:0:
256,192,86321,1,2,0:0:0:0:
256,192,86495,1,0,0:0:0:0:
256,192,86670,1,2,0:0:0:0:
256,192,87019,1,0,0:0:0:0:
256,192,87193,1,0,0:0:0:0:
256,192,87367,1,2,0:0:0:0:
256,192,87891,1,0,0:0:0:0:
256,192,88414,1,2,0:0:0:0:
256,192,88763,1,0,0:0:0:0:
256,192,89286,1,0,0:0:0:0:
256,192,89460,1,2,0:0:0:0:
256,192,89809,1,0,0:0:0:0:
256,192,90158,1,0,0:0:0:0:
256,192,90681,1,0,0:0:0:0:
256,192,90856,1,2,0:0:0:0:
256,192,91205,1,0,0:0:0:0:
256,192,91553,1,0,0:0:0:0:
256,192,92077,1,0,0:0:0:0:
256,192,92251,1,2,0:0:0:0:
256,192,92600,1,0,0:0:0:0:
256,192,92949,1,2,0:0:0:0:
256,192,93472,1,2,0:0:0:0:
256,192,93995,1,2,0:0:0:0:
256,192,94344,1,0,0:0:0:0:
256,192,94867,1,0,0:0:0:0:
256,192,95042,1,2,0:0:0:0:
256,192,95391,1,0,0:0:0:0:
256,192,95740,1,2,0:0:0:0:
256,192,96088,1,2,0:0:0:0:
256,192,96437,1,2,0:0:0:0:
256,192,96786,1,0,0:0:0:0:
256,192,97135,1,2,0:0:0:0:
256,192,97484,1,0,0:0:0:0:
256,192,97658,1,2,0:0:0:0:
256,192,97833,1,2,0:0:0:0:
256,192,98007,1,0,0:0:0:0:
256,192,98181,1,0,0:0:0:0:
256,192,98356,1,0,0:0:0:0:
256,192,98530,1,0,0:0:0:0:
256,192,98879,1,0,0:0:0:0:
256,192,99053,1,0,0:0:0:0:
256,192,99228,1,2,0:0:0:0:
256,192,99577,1,0,0:0:0:0:
256,192,99926,1,2,0:0:0:0:
256,192,100274,1,0,0:0:0:0:
256,192,100449,1,2,0:0:0:0:
256,192,100623,1,0,0:0:0:0:
256,192,100972,1,2,0:0:0:0:
256,192,101146,1,0,0:0:0:0:
256,192,101321,1,0,0:0:0:0:
256,192,101670,1,0,0:0:0:0:
256,192,102019,1,2,0:0:0:0:
256,192,102367,1,0,0:0:0:0:
256,192,102716,1,2,0:0:0:0:
256,192,103065,1,0,0:0:0:0:
256,192,103240,1,2,0:0:0:0:
256,192,103414,1,2,0:0:0:0:
256,192,103763,1,0,0:0:0:0:
256,192,104112,1,0,0:0:0:0:
256,192,104809,1,2,0:0:0:0:
256,192,105158,1,0,0:0:0:0:
256,192,105507,1,0,0:0:0:0:
256,192,105681,1,0,0:0:0:0:
256,192,106030,1,0,0:0:0:0:
256,192,106205,1,2,0:0:0:0:
256,192,106553,1,2,0:0:0:0:
256,192,106902,1,2,0:0:0:0:
256,192,107600,1,0,0:0:0:0:
256,192,107949,1,2,0:0:0:0:
256,192,108298,1,0,0:0:0:0:
256,192,108472,1,2,0:0:0:0:
256,192,108646,1,2,0:0:0:0:
256,192,108821,1,0,0:0:0:0:
256,192,108995,1,2,0:0:0:0:
256,192,109344,1,0,0:0:0:0:
256,192,109693,1,0,0:0:0:0:
256,192,110042,1,0,0:0:0:0:
256,192,110216,1,0,0:0:0:0:
256,192,110391,1,2,0:0:0:0:
256,192,110740,1,0,0:0:0:0:
256,192,111088,1,2,0:0:0:0:
256,192,111437,1,0,0:0:0:0:
256,192,111612,1,2,0:0:0:0:
256,192,111786,1,2,0:0:0:0:
256,192,112135,1,2,0:0:0:0:
256,192,112309,1,2,0:0:0:0:
256,192,112484,1,0,0:0:0:0:
256,192,112833,1,0,0:0:0:0:
256,192,113181,1,2,0:0:0:0:
256,192,113530,1,0,0:0:0:0:
256,192,113879,1,2,0:0:0:0:
256,192,114228,1,0,0:0:0:0:
256,192,114402,1,2,0:0:0:0:
256,192,114577,1,0,0:0:0:0:
256,192,114926,1,2,0:0:0:0:
256,192,115274,1,0,0:0:0:0:
256,192,115623,1,2,0:0:0:0:
256,192,115972,1,0,0:0:0:0:
256,192,116321,1,2,0:0:0:0:
256,192,116670,1,0,0:0:0:0:
256,192,116844,1,0,0:0:0:0:
256,192,117193,1,0,0:0:0:0:
256,192,117367,1,2,0:0:0:0:
256,192,117716,1,0,0:0:0:0:
256,192,118065,1,2,0:0:0:0:
256,192,118414,1,0,0:0:0:0:
256,192,118763,1,0,0:0:0:0:
256,192,119112,1,0,0:0:0:0:
256,192,119460,1,2,0:0:0:0:
256,192,119809,1,0,0:0:0:0:
256,192,120158,1,2,0:0:0:0:
256,192,120507,1,2,0:0:0:0:
256,192,120856,1,2,0:0:0:0:
256,192,121205,1,2,0:0:0:0:
256,192,121379,1,0,0:0:0:0:
256,192,121553,1,2,0:0:0:0:
256,192,121902,1,0,0:0:0:0:
256,192,122077,1,2,0:0:0:0:
256,192,122251,1,0,0:0:0:0:
256,192,122600,1,0,0:0:0:0:
256,192,122949,1,2,0:0:0:0:
256,192,123123,1,0,0:0:0:0:
256,192,123298,1,0,0:0:0:0:
256,192,123472,1,2,0:0:0:0:
256,192,123646,1,0,0:0:0:0:
256,192,123995,1,2,0:0:0:0:
256,192,124170,1,0,0:0:0:0:
256,192,124344,1,2,0:0:0:0:
256,192,124693,1,0,0:0:0:0:
256,192,124867,1,0,0:0:0:0:
256,192,125042,1,2,0:0:0:0:
256,192,125391,1,0,0:0:0:0:
256,192,125740,1,2,0:0:0:0:
256,192,125914,1,0,0:0:0:0:
256,192,126088,1,2,0:0:0:0:
256,192,126263,1,2,0:0:0:0:
256,192,126437,1,0,0:0:0:0:
256,192,126786,1,2,0:0:0:0:
256,192,127135,1,2,0:0:0:0:
256,192,127484,1,0,0:0:0:0:
256,192,127658,1,2,0:0:0:0:
256,192,127833,1,0,0:0:0:0:
256,192,128181,1,0,0:0:0:0:
256,192,128530,1,2,0:0:0:0:
256,192,128705,1,0,0:0:0:0:
256,192,128879,1,0,0:0:0:0:
256,192,129053,1,0,0:0:0:0:
256,192,129228,1,2,0:0:0:0:
256,192,129577,1,2,0:0:0:0:
256,192,129751,1,0,0:0:0:0:
256,192,129926,1,2,0:0:0:0:
256,192,130274,1,2,0:0:0:0:
256,192,130449,1,2,0:0:0:0:
256,192,130623,1,0,0:0:0:0:
256,192,130798,1,0,0:0:0:0:
256,192,130972,1,0,0:0:0:0:
256,192,131321,1,2,0:0:0:0:
256,192,131495,1,0,0:0:0:0:
256,192,131670,1,0,0:0:0:0:
256,192,131844,1,2,0:0:0:0:
256,192,132019,1,2,0:0:0:0:
256,192,132367,1,2,0:0:0:0:
256,192,132542,1,0,0:0:0:0:
256,192,132716,1,2,0:0:0:0:
256,192,133065,1,0,0:0:0:0:
256,192,133240,1,2,0:0:0:0:
256,192,133414,1,0,0:0:0:0:
256,192,133763,1,0,0:0:0:0:
256,192,134112,1,2,0:0:0:0:
256,192,134286,1,0,0:0:0:0:
256,192,134460,1,2,0:0:0:0:
256,192,134635,1,2,0:0:0:0:
256,192,134809,1,0,0:0:0:0:
256,192,135158,1,2,0:0:0:0:
256,192,135333,1,0,0:0:0:0:
256,192,135507,1,2,0:0:0:0:
256,192,135856,1,0,0:0:0:0:
256,192,136030,1,2,0:0:0:0:
256,192,136205,1,2,0:0:0:0:
256,192,136553,1,0,0:0:0:0:
256,192,136902,1,2,0:0:0:0:
256,192,137077,1,0,0:0:0:0:
256,192,137251,1,2,0:0:0:0:
256,192,137426,1,2,0:0:0:0:
256,192,137600,1,2,0:0:0:0:
256,192,137949,1,2,0:0:0:0:
256,192,138298,1,2,0:0:0:0:
256,192,138646,1,2,0:0:0:0:
256,192,138821,1,0,0:0:0:0:
256,192,138995,1,0,0:0:0:0:
256,192,139344,1,0,0:0:0:0:
256,192,139693,1,2,0:0:0:0:
256,192,140042,1,0,0:0:0:0:
256,192,140216,1,0,0:0:0:0:
256,192,140391,1,0,0:0:0:0:
256,192,140740,1,2,0:0:0:0:
256,192,141088,1,0,0:0:0:0:
256,192,141437,1,0,0:0:0:0:
256,192,141612,1,0,0:0:0:0:
256,192,141786,1,0,0:0:0:0:
256,192,141960,1,0,0:0:0:0:
256,192,142135,1,2,0:0:0:0:
256,192,142309,1,0,0:0:0:0:
256,192,142484,1,2,0:0:0:0:
256,192,142658,1,2,0:0:0:0:
256,192,142833,1,2,0:0:0:0:
256,192,143007,1,0,0:0:0:0:
256,192,143181,1,6,0:0:0:0:
256,192,143530,1,0,0:0:0:0:
256,192,143705,1,2,0:0:0:0:
256,192,143879,1,2,0:0:0:0:
256,192,144228,1,2,0:0:0:0:
256,192,144402,1,2,0:0:0:0:
256,192,144577,1,0,0:0:0:0:
256,192,144751,1,0,0:0:0:0:
256,192,144926,1,0,0:0:0:0:
256,192,145274,1,2,0:0:0:0:
256,192,145623,1,0,0:0:0:0:
256,192,145798,1,0,0:0:0:0:
256,192,145972,1,2,0:0:0:0:
256,192,146321,1,2,0:0:0:0:
256,192,146495,1,2,0:0:0:0:
256,192,146670,1,0,0:0:0:0:
256,192,147019,1,2,0:0:0:0:
256,192,147193,1,0,0:0:0:0:
256,192,147367,1,2,0:0:0:0:
256,192,147542,1,0,0:0:0:0:
256,192,147716,1,0,0:0:0:0:
256,192,148065,1,2,0:0:0:0:
256,192,148414,1,0,0:0:0:0:
256,192,148588,1,0,0:0:0:0:
256,192,148763,1,6,0:0:0:0:
256,192,149112,1,0,0:0:0:0:
256,192,149286,1,2,0:0:0:0:
256,192,149460,1,2,0:0:0:0:
256,192,149809,1,0,0:0:0:0:
256,192,149984,1,2,0:0:0:0:
256,192,150158,1,0,0:0:0:0:
256,192,150333,1,0,0:0:0:0:
256,192,150507,1,0,0:0:0:0:
256,192,150856,1,2,0:0:0:0:
256,192,151205,1,0,0:0:0:0:
256,192,151379,1,2,0:0:0:0:
256,192,151553,1,4,0:0:0:0:
256,192,151728,1,2,0:0:0:0:
256,192,151902,1,0,0:0:0:0:
256,192,152077,1,2,0:0:0:0:
256,192,152251,1,2,0:0:0:0:
256,192,152426,1,2,0:0:0:0:
256,192,152600,1,0,0:0:0:0:
256,192,152774,1,2,0:0:0:0:
256,192,152949,1,2,0:0:0:0:
256,192,153123,1,0,0:0:0:0:
256,192,153298,1,0,0:0:0:0:
256,192,153472,1,0,0:0:0:0:
256,192,153646,1,2,0:0:0:0:
256,192,153821,1,2,0:0:0:0:
256,192,153995,1,0,0:0:0:0:
256,192,154170,1,2,0:0:0:0:
256,192,154344,1,6,0:0:0:0:
256,192,155042,1,2,0:0:0:0:
256,192,155740,1,0,0:0:0:0:
256,192,156437,1,0,0:0:0:0:
256,192,157135,1,2,0:0:0:0:
256,192,157833,1,0,0:0:0:0:
256,192,158530,1,2,0:0:0:0:
256,192,159228,1,0,0:0:0:0:
256,192,159577,1,2,0:0:0:0:
256,192,159926,1,0,0:0:0:0:
256,192,165507,5,0,0:0:0:0:
256,192,168646,1,2,0:0:0:0:
256,192,168995,1,2,0:0:0:0:
256,192,169344,1,0,0:0:0:0:
256,192,169693,1,2,0:0:0:0:
256,192,170391,1,2,0:0:0:0:
256,192,170740,1,2,0:0:0:0:
256,192,175972,5,2,0:0:0:0:
256,192,176321,1,2,0:0:0:0:
256,192,176670,1,0,0:0:0:0:
256,192,177193,1,0,0:0:0:0:
256,192,177716,1,2,0:0:0:0:
256,192,178065,1,0,0:0:0:0:
256,192,178588,1,0,0:0:0:0:
256,192,178763,1,2,0:0:0:0:
256,192,179112,1,0,0:0:0:0:
256,192,179460,1,0,0:0:0:0:
256,192,179984,1,0,0:0:0:0:
256,192,180158,1,2,0:0:0:0:
256,192,180507,1,0,0:0:0:0:
256,192,180856,1,0,0:0:0:0:
256,192,181379,1,0,0:0:0:0:
256,192,181553,1,2,0:0:0:0:
256,192,181902,1,0,0:0:0:0:
256,192,182251,1,2,0:0:0:0:
256,192,182774,1,2,0:0:0:0:
256,192,183298,1,0,0:0:0:0:
256,192,183646,1,0,0:0:0:0:
256,192,184170,1,0,0:0:0:0:
256,192,184344,1,2,0:0:0:0:
256,192,184693,1,0,0:0:0:0:
256,192,185042,1,2,0:0:0:0:
256,192,185391,1,0,0:0:0:0:
256,192,185740,1,2,0:0:0:0:
256,192,186088,1,2,0:0:0:0:
256,192,186437,1,0,0:0:0:0:
256,192,186786,1,2,0:0:0:0:
256,192,186960,1,2,0:0:0:0:
256,192,187135,1,0,0:0:0:0:
256,192,187484,1,0,0:0:0:0:
256,192,187658,1,0,0:0:0:0:
256,192,187833,1,2,0:0:0:0:
256,192,188356,1,0,0:0:0:0:
256,192,188879,1,2,0:0:0:0:
256,192,189228,1,2,0:0:0:0:
256,192,189751,1,0,0:0:0:0:
256,192,189926,1,2,0:0:0:0:
256,192,190274,1,0,0:0:0:0:
256,192,190623,1,0,0:0:0:0:
256,192,191146,1,0,0:0:0:0:
256,192,191321,1,2,0:0:0:0:
256,192,191670,1,0,0:0:0:0:
256,192,192019,1,0,0:0:0:0:
256,192,192542,1,0,0:0:0:0:
256,192,192716,1,2,0:0:0:0:
256,192,193065,1,0,0:0:0:0:
256,192,193414,1,2,0:0:0:0:
256,192,193937,1,2,0:0:0:0:
256,192,194460,1,0,0:0:0:0:
256,192,194809,1,0,0:0:0:0:
256,192,195333,1,0,0:0:0:0:
256,192,195507,1,2,0:0:0:0:
256,192,195856,1,0,0:0:0:0:
256,192,196205,1,2,0:0:0:0:
256,192,196553,1,2,0:0:0:0:
256,192,196902,1,2,0:0:0:0:
256,192,197251,1,0,0:0:0:0:
256,192,197426,1,0,0:0:0:0:
256,192,197513,1,0,0:0:0:0:
256,192,197600,1,0,0:0:0:0:
256,192,197949,1,2,0:0:0:0:
256,192,198123,1,0,0:0:0:0:
256,192,198298,1,0,0:0:0:0:
256,192,198472,1,2,0:0:0:0:
256,192,198646,1,2,0:0:0:0:
256,192,198821,1,0,0:0:0:0:
256,192,198995,1,0,0:0:0:0:
256,192,199344,1,0,0:0:0:0:
256,192,199519,1,0,0:0:0:0:
256,192,199693,1,2,0:0:0:0:
256,192,200042,1,0,0:0:0:0:
256,192,200391,1,2,0:0:0:0:
256,192,200740,1,0,0:0:0:0:
256,192,200914,1,2,0:0:0:0:
256,192,201088,1,2,0:0:0:0:
256,192,201437,1,0,0:0:0:0:
256,192,201612,1,0,0:0:0:0:
256,192,201786,1,0,0:0:0:0:
256,192,202135,1,0,0:0:0:0:
256,192,202484,1,2,0:0:0:0:
256,192,202833,1,0,0:0:0:0:
256,192,203181,1,2,0:0:0:0:
256,192,203530,1,0,0:0:0:0:
256,192,203705,1,2,0:0:0:0:
256,192,203879,1,0,0:0:0:0:
256,192,204228,1,2,0:0:0:0:
256,192,204577,1,0,0:0:0:0:
256,192,205274,1,2,0:0:0:0:
256,192,205623,1,0,0:0:0:0:
256,192,205972,1,0,0:0:0:0:
256,192,206146,1,0,0:0:0:0:
256,192,206495,1,0,0:0:0:0:
256,192,206670,1,2,0:0:0:0:
256,192,207019,1,2,0:0:0:0:
256,192,207367,1,2,0:0:0:0:
256,192,208065,1,0,0:0:0:0:
256,192,208414,1,2,0:0:0:0:
256,192,208763,1,0,0:0:0:0:
256,192,208937,1,2,0:0:0:0:
256,192,209112,1,0,0:0:0:0:
256,192,209286,1,2,0:0:0:0:
256,192,209460,1,2,0:0:0:0:
256,192,209809,1,0,0:0:0:0:
256,192,210158,1,0,0:0:0:0:
256,192,210507,1,0,0:0:0:0:
256,192,210681,1,0,0:0:0:0:
256,192,210856,1,2,0:0:0:0:
256,192,211205,1,0,0:0:0:0:
256,192,211553,1,2,0:0:0:0:
256,192,211902,1,0,0:0:0:0:
256,192,212077,1,2,0:0:0:0:
256,192,212251,1,0,0:0:0:0:
256,192,212600,1,2,0:0:0:0:
256,192,212774,1,0,0:0:0:0:
256,192,212949,1,0,0:0:0:0:
256,192,213298,1,0,0:0:0:0:
256,192,213646,1,2,0:0:0:0:
256,192,213995,1,0,0:0:0:0:
256,192,214344,1,2,0:0:0:0:
256,192,214693,1,0,0:0:0:0:
256,192,214867,1,2,0:0:0:0:
256,192,215042,1,0,0:0:0:0:
256,192,215391,1,2,0:0:0:0:
256,192,215740,1,0,0:0:0:0:
256,192,216088,1,2,0:0:0:0:
256,192,216437,1,0,0:0:0:0:
256,192,216786,1,2,0:0:0:0:
256,192,217135,1,2,0:0:0:0:
256,192,217484,1,0,0:0:0:0:
256,192,218181,1,0,0:0:0:0:
256,192,218530,1,2,0:0:0:0:
256,192,218879,1,0,0:0:0:0:
256,192,219228,1,2,0:0:0:0:
256,192,219577,1,0,0:0:0:0:
256,192,219926,1,2,0:0:0:0:
256,192,220274,1,0,0:0:0:0:
256,192,220623,1,2,0:0:0:0:
256,192,220972,1,2,0:0:0:0:
256,192,221321,1,2,0:0:0:0:
256,192,221670,1,2,0:0:0:0:
256,192,221844,1,0,0:0:0:0:
256,192,222019,1,2,0:0:0:0:
256,192,222367,1,0,0:0:0:0:
256,192,222542,1,2,0:0:0:0:
256,192,222716,1,2,0:0:0:0:
256,192,223065,1,0,0:0:0:0:
256,192,223414,1,2,0:0:0:0:
256,192,223588,1,0,0:0:0:0:
256,192,223763,1,2,0:0:0:0:
256,192,223937,1,2,0:0:0:0:
256,192,224112,1,0,0:0:0:0:
256,192,224460,1,2,0:0:0:0:
256,192,224635,1,0,0:0:0:0:
256,192,224809,1,2,0:0:0:0:
256,192,225158,1,0,0:0:0:0:
256,192,225333,1,2,0:0:0:0:
256,192,225507,1,0,0:0:0:0:
256,192,225856,1,0,0:0:0:0:
256,192,226205,1,2,0:0:0:0:
256,192,226379,1,0,0:0:0:0:
256,192,226553,1,2,0:0:0:0:
256,192,226728,1,0,0:0:0:0:
256,192,226902,1,0,0:0:0:0:
256,192,227251,1,2,0:0:0:0:
256,192,227600,1,2,0:0:0:0:
256,192,227949,1,0,0:0:0:0:
256,192,228123,1,2,0:0:0:0:
256,192,228298,1,2,0:0:0:0:
256,192,228646,1,0,0:0:0:0:
256,192,228995,1,2,0:0:0:0:
256,192,229170,1,2,0:0:0:0:
256,192,229344,1,0,0:0:0:0:
256,192,229519,1,0,0:0:0:0:
256,192,229693,1,2,0:0:0:0:
256,192,230042,1,2,0:0:0:0:
256,192,230216,1,0,0:0:0:0:
256,192,230391,1,2,0:0:0:0:
256,192,230740,1,2,0:0:0:0:
256,192,230914,1,2,0:0:0:0:
256,192,231088,1,0,0:0:0:0:
256,192,231263,1,2,0:0:0:0:
256,192,231437,1,2,0:0:0:0:
256,192,231786,1,2,0:0:0:0:
256,192,231960,1,0,0:0:0:0:
256,192,232135,1,0,0:0:0:0:
256,192,232309,1,2,0:0:0:0:
256,192,232484,1,0,0:0:0:0:
256,192,232833,1,2,0:0:0:0:
256,192,233007,1,0,0:0:0:0:
256,192,233181,1,2,0:0:0:0:
256,192,233530,1,0,0:0:0:0:
256,192,233705,1,2,0:0:0:0:
256,192,233879,1,0,0:0:0:0:
256,192,234228,1,0,0:0:0:0:
256,192,234577,1,2,0:0:0:0:
256,192,234751,1,0,0:0:0:0:
256,192,234926,1,2,0:0:0:0:
256,192,235100,1,0,0:0:0:0:
256,192,235274,1,0,0:0:0:0:
256,192,235623,1,2,0:0:0:0:
256,192,235798,1,0,0:0:0:0:
256,192,235972,1,2,0:0:0:0:
256,192,236321,1,0,0:0:0:0:
256,192,236495,1,2,0:0:0:0:
256,192,236670,1,0,0:0:0:0:
256,192,237019,1,0,0:0:0:0:
256,192,237367,1,2,0:0:0:0:
256,192,237542,1,2,0:0:0:0:
256,192,237716,1,0,0:0:0:0:
256,192,237891,1,0,0:0:0:0:
256,192,238065,1,0,0:0:0:0:
256,192,238414,1,2,0:0:0:0:
256,192,238763,1,2,0:0:0:0:
256,192,239112,1,0,0:0:0:0:
256,192,239286,1,0,0:0:0:0:
256,192,239460,1,0,0:0:0:0:
256,192,239809,1,0,0:0:0:0:
256,192,240158,1,2,0:0:0:0:
256,192,240507,1,2,0:0:0:0:
256,192,240681,1,0,0:0:0:0:
256,192,240856,1,0,0:0:0:0:
256,192,241205,1,2,0:0:0:0:
256,192,241553,1,0,0:0:0:0:
256,192,241902,1,0,0:0:0:0:
256,192,242077,1,0,0:0:0:0:
256,192,242251,1,0,0:0:0:0:
256,192,242338,1,2,0:0:0:0:
256,192,242426,1,2,0:0:0:0:
256,192,242600,1,2,0:0:0:0:
256,192,242774,1,0,0:0:0:0:
256,192,242949,1,2,0:0:0:0:
256,192,243123,1,2,0:0:0:0:
256,192,243298,1,2,0:0:0:0:
256,192,243472,1,0,0:0:0:0:
256,192,243646,1,6,0:0:0:0:
256,192,243995,1,0,0:0:0:0:
256,192,244170,1,0,0:0:0:0:
256,192,244344,1,2,0:0:0:0:
256,192,244693,1,0,0:0:0:0:
256,192,244867,1,2,0:0:0:0:
256,192,245042,1,0,0:0:0:0:
256,192,245216,1,0,0:0:0:0:
256,192,245391,1,0,0:0:0:0:
256,192,245740,1,2,0:0:0:0:
256,192,246088,1,0,0:0:0:0:
256,192,246263,1,0,0:0:0:0:
256,192,246437,1,2,0:0:0:0:
256,192,246786,1,2,0:0:0:0:
256,192,246960,1,0,0:0:0:0:
256,192,247135,1,2,0:0:0:0:
256,192,247484,1,2,0:0:0:0:
256,192,247658,1,2,0:0:0:0:
256,192,247833,1,0,0:0:0:0:
256,192,248007,1,2,0:0:0:0:
256,192,248181,1,0,0:0:0:0:
256,192,248530,1,2,0:0:0:0:
256,192,248879,1,0,0:0:0:0:
256,192,249053,1,0,0:0:0:0:
256,192,249228,1,6,0:0:0:0:
256,192,249577,1,0,0:0:0:0:
256,192,249751,1,2,0:0:0:0:
256,192,249926,1,2,0:0:0:0:
256,192,250274,1,0,0:0:0:0:
256,192,250449,1,0,0:0:0:0:
256,192,250623,1,2,0:0:0:0:
256,192,250798,1,2,0:0:0:0:
256,192,250972,1,0,0:0:0:0:
256,192,251321,1,2,0:0:0:0:
256,192,251670,1,0,0:0:0:0:
256,192,251844,1,2,0:0:0:0:
256,192,252019,1,4,0:0:0:0:
256,192,252193,1,2,0:0:0:0:
256,192,252367,1,0,0:0:0:0:
256,192,252542,1,0,0:0:0:0:
256,192,252716,1,2,0:0:0:0:
256,192,252891,1,2,0:0:0:0:
256,192,253065,1,0,0:0:0:0:
256,192,253240,1,2,0:0:0:0:
256,192,253414,1,2,0:0:0:0:
256,192,253588,1,2,0:0:0:0:
256,192,253763,1,0,0:0:0:0:
256,192,253937,1,0,0:0:0:0:
256,192,254112,1,2,0:0:0:0:
256,192,254286,1,2,0:0:0:0:
256,192,254460,1,0,0:0:0:0:
256,192,254635,1,2,0:0:0:0:
256,192,254809,1,6,0:0:0:0:
256,192,255158,1,0,0:0:0:0:
256,192,255333,1,2,0:0:0:0:
256,192,255507,1,2,0:0:0:0:
256,192,255856,1,0,0:0:0:0:
256,192,256030,1,2,0:0:0:0:
256,192,256205,1,0,0:0:0:0:
256,192,256379,1,2,0:0:0:0:
256,192,256553,1,0,0:0:0:0:
256,192,256902,1,2,0:0:0:0:
256,192,257251,1,2,0:0:0:0:
256,192,257426,1,2,0:0:0:0:
256,192,257600,1,0,0:0:0:0:
256,192,257774,1,0,0:0:0:0:
256,192,257949,1,0,0:0:0:0:
256,192,258298,1,2,0:0:0:0:
256,192,258646,1,0,0:0:0:0:
256,192,258821,1,2,0:0:0:0:
256,192,258995,1,0,0:0:0:0:
256,192,259344,1,0,0:0:0:0:
256,192,259693,1,2,0:0:0:0:
256,192,259867,1,0,0:0:0:0:
256,192,260042,1,2,0:0:0:0:
256,192,260216,1,2,0:0:0:0:
256,192,260391,1,0,0:0:0:0:
256,192,260740,1,0,0:0:0:0:
256,192,260914,1,0,0:0:0:0:
256,192,261088,1,6,0:0:0:0:
256,192,261437,1,0,0:0:0:0:
256,192,261612,1,2,0:0:0:0:
256,192,261786,1,0,0:0:0:0:
256,192,262135,1,2,0:0:0:0:
256,192,262484,1,4,0:0:0:0:
256,192,262833,1,0,0:0:0:0:
256,192,263007,1,0,0:0:0:0:
256,192,263181,1,2,0:0:0:0:
256,192,263356,1,0,0:0:0:0:
256,192,263530,1,0,0:0:0:0:
256,192,263705,1,0,0:0:0:0:
256,192,263879,1,6,0:0:0:0:
256,192,264228,1,0,0:0:0:0:
256,192,264402,1,0,0:0:0:0:
256,192,264577,1,0,0:0:0:0:
256,192,264751,1,2,0:0:0:0:
256,192,264926,1,0,0:0:0:0:
256,192,265100,1,2,0:0:0:0:
256,192,265274,1,4,0:0:0:0:
256,192,265449,1,2,0:0:0:0:
256,192,265536,1,0,0:0:0:0:
256,192,265623,1,2,0:0:0:0:
256,192,265798,1,0,0:0:0:0:
256,192,265972,1,6,0:0:0:0:
256,192,266321,1,0,0:0:0:0:
256,192,266495,1,0,0:0:0:0:
256,192,266670,1,2,0:0:0:0:
256,192,267019,1,0,0:0:0:0:
256,192,267193,1,2,0:0:0:0:
256,192,267367,1,2,0:0:0:0:
256,192,267542,1,0,0:0:0:0:
256,192,267716,1,0,0:0:0:0:
256,192,268065,1,2,0:0:0:0:
256,192,268414,1,0,0:0:0:0:
256,192,268588,1,0,0:0:0:0:
256,192,268763,1,2,0:0:0:0:
256,192,269112,1,0,0:0:0:0:
256,192,269286,1,0,0:0:0:0:
256,192,269460,1,2,0:0:0:0:
256,192,269635,1,2,0:0:0:0:
256,192,269809,1,0,0:0:0:0:
256,192,269984,1,2,0:0:0:0:
256,192,270158,1,0,0:0:0:0:
256,192,270507,1,0,0:0:0:0:
256,192,270856,1,2,0:0:0:0:
256,192,271030,1,0,0:0:0:0:
256,192,271205,1,2,0:0:0:0:
256,192,271379,1,2,0:0:0:0:
256,192,271553,1,2,0:0:0:0:
256,192,271902,1,0,0:0:0:0:
256,192,272077,1,0,0:0:0:0:
256,192,272251,1,6,0:0:0:0:
256,192,272600,1,0,0:0:0:0:
256,192,272774,1,0,0:0:0:0:
256,192,272949,1,0,0:0:0:0:
256,192,273298,1,2,0:0:0:0:
256,192,273646,1,4,0:0:0:0:
256,192,273995,1,0,0:0:0:0:
256,192,274170,1,0,0:0:0:0:
256,192,274344,1,6,0:0:0:0:
256,192,274693,1,0,0:0:0:0:
256,192,274867,1,0,0:0:0:0:
256,192,275042,1,2,0:0:0:0:
256,192,275216,1,2,0:0:0:0:
256,192,275391,1,4,0:0:0:0:
256,192,275565,1,0,0:0:0:0:
256,192,275740,1,0,0:0:0:0:
256,192,275914,1,6,0:0:0:0:
256,192,276088,1,0,0:0:0:0:
256,192,276263,1,2,0:0:0:0:
256,192,276437,1,4,0:0:0:0:
256,192,276612,1,2,0:0:0:0:
256,192,276786,1,2,0:0:0:0:
256,192,276960,1,0,0:0:0:0:
256,192,277135,1,6,0:0:0:0:
256,192,277484,1,0,0:0:0:0:
256,192,277658,1,0,0:0:0:0:
256,192,277833,1,2,0:0:0:0:
256,192,278181,1,2,0:0:0:0:
256,192,278356,1,2,0:0:0:0:
256,192,278530,1,0,0:0:0:0:
256,192,278705,1,0,0:0:0:0:
256,192,278879,1,0,0:0:0:0:
256,192,279228,1,2,0:0:0:0:
256,192,279577,1,0,0:0:0:0:
256,192,279751,1,0,0:0:0:0:
256,192,279926,1,6,0:0:0:0:
256,192,280274,1,2,0:0:0:0:
256,192,280449,1,0,0:0:0:0:
256,192,280623,1,2,0:0:0:0:
256,192,280972,1,0,0:0:0:0:
256,192,281146,1,2,0:0:0:0:
256,192,281321,1,0,0:0:0:0:
256,192,281495,1,0,0:0:0:0:
256,192,281670,1,0,0:0:0:0:
256,192,282019,1,4,0:0:0:0:
256,192,282367,1,0,0:0:0:0:
256,192,282542,1,0,0:0:0:0:
256,192,282716,1,6,0:0:0:0:
256,192,283065,1,0,0:0:0:0:
256,192,283240,1,2,0:0:0:0:
256,192,283414,1,2,0:0:0:0:
256,192,283763,1,0,0:0:0:0:
256,192,283937,1,2,0:0:0:0:
256,192,284112,1,4,0:0:0:0:
256,192,284286,1,2,0:0:0:0:
256,192,284460,1,2,0:0:0:0:
256,192,284809,1,2,0:0:0:0:
256,192,285158,1,0,0:0:0:0:
256,192,285333,1,2,0:0:0:0:
256,192,285507,1,4,0:0:0:0:
256,192,285681,1,0,0:0:0:0:
256,192,285856,1,2,0:0:0:0:
256,192,286030,1,0,0:0:0:0:
256,192,286205,1,2,0:0:0:0:
256,192,286379,1,2,0:0:0:0:
256,192,286553,1,2,0:0:0:0:
256,192,286728,1,0,0:0:0:0:
256,192,286902,1,2,0:0:0:0:
256,192,287077,1,0,0:0:0:0:
256,192,287251,1,0,0:0:0:0:
256,192,287426,1,0,0:0:0:0:
256,192,287600,1,2,0:0:0:0:
256,192,287774,1,0,0:0:0:0:
256,192,287862,1,2,0:0:0:0:
256,192,287949,1,0,0:0:0:0:
256,192,288123,1,2,0:0:0:0:
256,192,288298,1,6,0:0:0:0:
256,192,288646,1,0,0:0:0:0:
256,192,288821,1,0,0:0:0:0:
256,192,288995,1,2,0:0:0:0:
256,192,289344,1,2,0:0:0:0:
256,192,289519,1,2,0:0:0:0:
256,192,289693,1,0,0:0:0:0:
256,192,289867,1,2,0:0:0:0:
256,192,290042,1,0,0:0:0:0:
256,192,290391,1,2,0:0:0:0:
256,192,290740,1,0,0:0:0:0:
256,192,290914,1,2,0:0:0:0:
256,192,291088,1,4,0:0:0:0:
256,192,291437,1,0,0:0:0:0:
256,192,291786,1,2,0:0:0:0:
256,192,292135,1,2,0:0:0:0:
256,192,292309,1,0,0:0:0:0:
256,192,292484,1,6,0:0:0:0:
256,192,292833,1,0,0:0:0:0:
256,192,293181,1,2,0:0:0:0:
256,192,293356,1,0,0:0:0:0:
256,192,293530,1,2,0:0:0:0:
256,192,293705,1,2,0:0:0:0:
256,192,293879,1,4,0:0:0:0:
256,192,294228,1,0,0:0:0:0:
256,192,294402,1,0,0:0:0:0:
256,192,294577,1,2,0:0:0:0:
256,192,294926,1,2,0:0:0:0:
256,192,295100,1,2,0:0:0:0:
256,192,295274,1,2,0:0:0:0:
256,192,295449,1,0,0:0:0:0:
256,192,295623,1,0,0:0:0:0:
256,192,295972,1,2,0:0:0:0:
256,192,296146,1,2,0:0:0:0:
256,192,296321,1,0,0:0:0:0:
256,192,296495,1,2,0:0:0:0:
256,192,296670,1,0,0:0:0:0:
256,192,297193,1,0,0:0:0:0:
256,192,297367,1,2,0:0:0:0:
256,192,297716,1,0,0:0:0:0:
256,192,298763,1,2,0:0:0:0:
256,192,298937,1,2,0:0:0:0:
256,192,299112,1,2,0:0:0:0:
256,192,299286,1,2,0:0:0:0:
256,192,299460,1,6,0:0:0:0:
256,192,299809,1,0,0:0:0:0:
256,192,299984,1,0,0:0:0:0:
256,192,300071,1,2,0:0:0:0:
256,192,300158,1,2,0:0:0:0:
256,192,300333,1,0,0:0:0:0:
256,192,300507,1,6,0:0:0:0:
256,192,300856,1,0,0:0:0:0:
256,192,301030,1,2,0:0:0:0:
256,192,301205,1,0,0:0:0:0:
256,192,301553,1,2,0:0:0:0:
256,192,301728,1,0,0:0:0:0:
256,192,301902,1,0,0:0:0:0:
256,192,301990,1,0,0:0:0:0:
256,192,302077,1,2,0:0:0:0:
256,192,302251,1,4,0:0:0:0:
256,192,302600,1,2,0:0:0:0:
256,192,302687,1,0,0:0:0:0:
256,192,302774,1,0,0:0:0:0:
256,192,302949,1,2,0:0:0:0:
256,192,303123,1,0,0:0:0:0:
256,192,303298,1,6,0:0:0:0:
256,192,303646,1,2,0:0:0:0:
256,192,303821,1,2,0:0:0:0:
256,192,303995,1,0,0:0:0:0:
256,192,304344,1,2,0:0:0:0:
256,192,304519,1,0,0:0:0:0:
256,192,304693,1,0,0:0:0:0:
256,192,304780,1,0,0:0:0:0:
256,192,304867,1,2,0:0:0:0:
256,192,305042,1,6,0:0:0:0:
256,192,305391,1,0,0:0:0:0:
256,192,305565,1,0,0:0:0:0:
256,192,305652,1,0,0:0:0:0:
256,192,305740,1,2,0:0:0:0:
256,192,305914,1,0,0:0:0:0:
256,192,306088,1,4,0:0:0:0:
256,192,306437,1,0,0:0:0:0:
256,192,306612,1,2,0:0:0:0:
256,192,306786,1,2,0:0:0:0:
256,192,307135,1,2,0:0:0:0:
256,192,307309,1,0,0:0:0:0:
256,192,307484,1,2,0:0:0:0:
256,192,307571,1,0,0:0:0:0:
256,192,307658,1,2,0:0:0:0:
256,192,307833,1,6,0:0:0:0:
256,192,308181,1,0,0:0:0:0:
256,192,308356,1,0,0:0:0:0:
256,192,308530,1,2,0:0:0:0:
256,192,308705,1,2,0:0:0:0:
256,192,308879,1,0,0:0:0:0:
256,192,308966,1,2,0:0:0:0:
256,192,309053,1,2,0:0:0:0:
256,192,309402,1,0,0:0:0:0:
256,192,309577,1,0,0:0:0:0:
256,192,309926,1,2,0:0:0:0:
256,192,310042,1,2,0:0:0:0:
256,192,310158,1,2,0:0:0:0:
256,192,310274,1,2,0:0:0:0:
256,192,310391,1,2,0:0:0:0:
256,192,310507,1,2,0:0:0:0:
256,192,310623,1,4,0:0:0:0:
256,192,310972,1,0,0:0:0:0:
256,192,311146,1,0,0:0:0:0:
256,192,311234,1,0,0:0:0:0:
256,192,311321,1,2,0:0:0:0:
256,192,311495,1,2,0:0:0:0:
256,192,311670,1,4,0:0:0:0:
256,192,312019,1,0,0:0:0:0:
256,192,312193,1,2,0:0:0:0:
256,192,312367,1,0,0:0:0:0:
256,192,312716,1,2,0:0:0:0:
256,192,312891,1,0,0:0:0:0:
256,192,313065,1,2,0:0:0:0:
256,192,313152,1,0,0:0:0:0:
256,192,313240,1,0,0:0:0:0:
256,192,313414,1,6,0:0:0:0:
256,192,313763,1,2,0:0:0:0:
256,192,313850,1,2,0:0:0:0:
256,192,313937,1,0,0:0:0:0:
256,192,314112,1,2,0:0:0:0:
256,192,314286,1,2,0:0:0:0:
256,192,314460,1,4,0:0:0:0:
256,192,314809,1,2,0:0:0:0:
256,192,314984,1,0,0:0:0:0:
256,192,315158,1,0,0:0:0:0:
256,192,315507,1,2,0:0:0:0:
256,192,315681,1,2,0:0:0:0:
256,192,315856,1,0,0:0:0:0:
256,192,316030,1,2,0:0:0:0:
256,192,316205,1,6,0:0:0:0:
256,192,316553,1,0,0:0:0:0:
256,192,316728,1,0,0:0:0:0:
256,192,316815,1,0,0:0:0:0:
256,192,316902,1,2,0:0:0:0:
256,192,317077,1,2,0:0:0:0:
256,192,317251,1,4,0:0:0:0:
256,192,317600,1,0,0:0:0:0:
256,192,317774,1,2,0:0:0:0:
256,192,317949,1,0,0:0:0:0:
256,192,318298,1,2,0:0:0:0:
256,192,318472,1,0,0:0:0:0:
256,192,318646,1,2,0:0:0:0:
256,192,318734,1,2,0:0:0:0:
256,192,318821,1,0,0:0:0:0:
256,192,318995,1,6,0:0:0:0:
256,192,319344,1,0,0:0:0:0:
256,192,319519,1,0,0:0:0:0:
256,192,319606,1,2,0:0:0:0:
256,192,319693,1,2,0:0:0:0:
256,192,319867,1,2,0:0:0:0:
256,192,320042,1,0,0:0:0:0:
256,192,320391,1,2,0:0:0:0:
256,192,320565,1,2,0:0:0:0:
256,192,320740,1,2,0:0:0:0:
256,192,320914,1,2,0:0:0:0:
256,192,321088,1,2,0:0:0:0:
256,192,321263,1,2,0:0:0:0:
256,192,321437,1,2,0:0:0:0:
256,192,321612,1,2,0:0:0:0:
256,192,321786,1,6,0:0:0:0:
