osu file format v14

[General]
AudioFilename: audio.mp3
AudioLeadIn: 0
PreviewTime: 61822
Countdown: 0
SampleSet: Soft
StackLeniency: 0.7
Mode: 2
LetterboxInBreaks: 0
WidescreenStoryboard: 1

[Editor]
DistanceSpacing: 0.8
BeatDivisor: 4
GridSize: 8
TimelineZoom: 1

[Metadata]
Title:Suit Up
TitleUnicode:Suit Up
Artist:Blue Stahli
ArtistUnicode:Blue Stahli
Creator:MBomb
Version:Salad
Source:
Tags:magic bomb antisleep vol. volume 3 electronic industrial rock instrumental
BeatmapID:2224161
BeatmapSetID:1061425

[Difficulty]
HPDrainRate:4
CircleSize:2.8
OverallDifficulty:6.9
ApproachRate:6.9
SliderMultiplier:2.2
SliderTickRate:1

[Events]
//Background and Video events
0,0,"radioactive-3793510_1920.jpg",0,0
//Break Periods
2,97068,103454
//Storyboard Layer 0 (Background)
//Storyboard Layer 1 (Fail)
//Storyboard Layer 2 (Pass)
//Storyboard Layer 3 (Foreground)
//Storyboard Layer 4 (Overlay)
//Storyboard Sound Samples

[TimingPoints]
732,545.454545454546,4,2,0,51,1,0
17641,-100,4,2,0,28,0,0
18186,-100,4,2,0,79,0,1
35641,-100,4,2,0,51,0,0
61822,-100,4,2,0,79,0,1
78186,-100,4,2,0,51,0,1
79277,-100,4,2,0,51,0,0
86913,-100,4,2,0,32,0,0
87459,-100,4,2,0,51,0,0
113504,-100,4,2,0,28,0,0
114186,-100,4,2,0,79,0,1
132459,-100,4,2,0,30,0,1
132732,-100,4,2,0,79,0,1
133550,-100,4,2,0,30,0,1
133822,-100,4,2,0,79,0,1
134641,-100,4,2,0,30,0,1
134914,-100,4,2,0,79,0,1
135732,-100,4,2,0,30,0,1
136004,-100,4,2,0,52,0,0
137095,-100,4,2,0,26,0,0

[Colours]
Combo1 : 34,145,255
Combo2 : 255,128,0
Combo3 : 0,128,64

[HitObjects]
168,192,732,5,8,0:3:0:0:
304,192,868,1,8,0:3:0:0:
256,192,1277,12,0,8913,0:0:0:0:
176,192,9322,5,8,0:3:0:0:
312,192,9459,5,4,0:0:0:0:
384,192,9595,2,0,P|440:168|376:120,1,165,8|2,0:3|0:0,0:0:0:0:
272,192,10277,1,0,0:0:0:0:
160,192,10550,2,0,L|96:192,1,55,2|0,0:0|0:0,0:0:0:0:
272,192,11095,2,0,P|337:176|344:128,1,110,2|0,0:0|0:0,0:0:0:0:
192,192,11641,6,0,L|128:192,1,55,2|0,0:0|0:0,0:0:0:0:
302,192,12186,2,0,L|190:192,1,110,2|0,0:0|0:0,0:0:0:0:
312,192,12732,2,0,L|384:192,1,55,2|0,0:0|0:0,0:0:0:0:
208,192,13277,2,0,P|144:168|128:120,1,110,2|0,0:0|0:0,0:0:0:0:
192,192,13686,1,8,0:3:0:0:
328,192,13822,5,8,0:3:0:0:
440,192,14095,1,4,0:3:0:0:
440,192,14368,1,4,0:3:0:0:
328,192,14641,1,4,0:3:0:0:
192,192,14913,1,4,0:3:0:0:
88,192,15186,1,4,0:3:0:0:
88,192,15459,1,4,0:3:0:0:
200,192,15732,1,4,0:3:0:0:
432,192,16004,6,0,L|496:192,2,55,12|4|4,0:3|0:3|0:3,0:0:0:0:
200,192,16550,2,0,L|128:192,2,55,12|4|4,0:3|0:3|0:3,0:0:0:0:
424,192,17095,1,4,0:0:0:0:
424,192,18186,6,0,L|352:192,1,55,4|8,0:0|0:3,0:0:0:0:
240,192,18595,2,0,L|304:192,1,55,0|2,0:0|0:3,0:0:0:0:
424,192,19004,2,0,P|464:160|424:144,1,110,0|8,0:0|0:3,0:0:0:0:
288,192,19550,2,0,P|216:184|168:128,1,110,0|2,0:0|0:3,0:0:0:0:
248,192,19959,1,0,0:0:0:0:
440,192,20368,6,0,L|440:128,1,55,8|0,0:3|0:0,0:0:0:0:
312,192,20777,1,0,0:0:0:0:
248,192,20913,1,2,0:3:0:0:
376,192,21186,1,0,0:0:0:0:
152,192,21459,2,0,L|40:192,1,110,12|4,0:3|0:3,0:0:0:0:
96,192,21868,1,0,0:0:0:0:
152,192,22004,1,6,0:3:0:0:
96,192,22141,1,4,0:3:0:0:
40,192,22277,1,4,0:3:0:0:
264,192,22550,6,0,L|336:192,1,55,4|8,0:0|0:3,0:0:0:0:
200,192,22959,2,0,L|136:192,1,55,0|2,0:0|0:3,0:0:0:0:
272,192,23368,2,0,L|152:192,1,110,0|8,0:0|0:3,0:0:0:0:
24,192,23913,2,0,P|64:144|128:136,1,110,0|2,0:0|0:3,0:0:0:0:
176,192,24322,1,0,0:0:0:0:
376,192,24732,6,0,L|440:192,1,55,8|0,0:3|0:0,0:0:0:0:
304,192,25141,2,0,L|240:192,1,55,0|2,0:0|0:3,0:0:0:0:
136,192,25550,1,0,0:0:0:0:
368,192,25822,2,0,P|432:176|456:128,1,110,12|0,0:3|0:0,0:0:0:0:
376,192,26232,2,0,P|312:176|312:120,1,110,12|0,0:3|0:0,0:0:0:0:
376,192,26641,1,12,0:3:0:0:
152,192,26913,6,0,L|88:192,1,55,4|8,0:0|0:3,0:0:0:0:
224,192,27322,2,0,L|160:192,1,55,0|2,0:0|0:3,0:0:0:0:
40,192,27732,2,0,L|168:192,1,110,0|8,0:0|0:3,0:0:0:0:
288,192,28277,2,0,P|320:176|264:144,1,110,0|2,0:0|0:3,0:0:0:0:
224,192,28686,1,0,0:0:0:0:
32,192,29095,6,0,L|96:192,1,55,8|0,0:3|0:0,0:0:0:0:
208,192,29504,2,0,L|144:192,1,55,0|2,0:0|0:3,0:0:0:0:
32,192,29913,1,0,0:0:0:0:
264,192,30186,2,0,L|376:192,1,110,12|4,0:3|0:3,0:0:0:0:
424,192,30595,1,0,0:0:0:0:
448,192,30732,1,6,0:3:0:0:
424,192,30868,1,4,0:3:0:0:
352,192,31004,1,4,0:3:0:0:
120,192,31277,6,0,L|120:136,1,55,4|8,0:0|0:3,0:0:0:0:
248,192,31686,2,0,L|304:192,1,55,0|2,0:0|0:3,0:0:0:0:
168,192,32095,1,0,0:0:0:0:
48,192,32368,1,8,0:3:0:0:
184,192,32641,2,0,L|64:192,1,110,0|2,0:0|0:3,0:0:0:0:
74,192,33050,1,0,0:0:0:0:
256,192,33459,6,0,L|328:192,1,55,8|0,0:3|0:0,0:0:0:0:
192,192,33868,2,0,L|256:192,1,55,0|2,0:0|0:3,0:0:0:0:
368,192,34277,1,0,0:0:0:0:
136,192,34550,2,0,P|76:176|56:128,2,110,12|0|0,0:3|0:0|0:0,0:0:0:0:
16,192,35368,1,4,0:3:0:0:
248,192,35641,6,0,L|360:192,1,110,4|0,0:0|0:0,0:0:0:0:
224,192,36186,1,4,0:3:0:0:
96,192,36459,2,0,P|64:152|104:136,1,110,0|8,0:0|0:3,0:0:0:0:
160,192,36868,1,0,0:0:0:0:
216,192,37004,1,0,0:0:0:0:
344,192,37277,2,0,L|232:192,1,110,4|0,0:3|0:0,0:0:0:0:
368,192,37822,5,8,0:3:0:0:
424,192,37959,1,0,0:0:0:0:
424,192,38095,1,0,0:0:0:0:
368,192,38232,1,0,0:0:0:0:
288,192,38368,1,4,0:3:0:0:
160,192,38641,1,0,0:0:0:0:
384,192,38913,2,0,P|456:168|464:120,1,110,8|0,0:3|0:0,0:0:0:0:
400,192,39322,2,0,L|336:192,2,55,8|4|0,0:3|0:3|0:0,0:0:0:0:
464,192,39732,1,8,0:3:0:0:
240,192,40004,6,0,P|160:168|136:128,1,110,4|0,0:0|0:0,0:0:0:0:
288,192,40550,1,4,0:3:0:0:
168,192,40822,1,0,0:0:0:0:
304,192,41095,2,0,L|368:192,2,55,8|0|0,0:3|0:0|0:0,0:0:0:0:
176,192,41641,2,0,L|296:192,1,110,4|0,0:3|0:0,0:0:0:0:
424,192,42186,6,0,L|480:192,2,55,8|0|0,0:3|0:0|0:0,0:0:0:0:
286,192,42732,1,4,0:3:0:0:
56,192,43277,2,0,L|176:192,1,110,8|0,0:3|0:0,0:0:0:0:
96,192,43686,1,8,0:3:0:0:
24,192,43822,2,0,L|144:192,1,110,4|0,0:3|0:0,0:0:0:0:
360,192,44368,6,0,P|400:160|360:128,1,110,4|0,0:0|0:0,0:0:0:0:
224,192,44913,2,0,L|352:192,1,110,4|0,0:3|0:0,0:0:0:0:
208,192,45459,1,8,0:3:0:0:
152,192,45595,1,0,0:0:0:0:
152,192,45732,1,2,0:0:0:0:
280,192,46004,2,0,L|280:80,1,110,4|0,0:3|0:0,0:0:0:0:
144,192,46550,6,0,L|80:192,2,55,8|0|0,0:3|0:0|0:0,0:0:0:0:
280,192,47095,1,2,0:2:0:0:
336,192,47232,1,2,0:0:0:0:
336,192,47368,1,2,0:0:0:0:
280,192,47504,1,2,0:0:0:0:
144,192,47641,2,0,P|72:176|56:128,1,110,8|0,0:3|0:0,0:0:0:0:
128,192,48050,2,0,L|200:192,2,55,8|4|0,0:3|0:3|0:0,0:0:0:0:
64,192,48459,1,8,0:3:0:0:
288,192,48732,6,0,P|352:160|344:104,1,110,4|0,0:0|0:0,0:0:0:0:
224,192,49277,2,0,L|168:192,2,55,4|0|0,0:3|0:0|0:0,0:0:0:0:
448,192,49822,2,0,L|328:192,1,110,8|2,0:3|0:0,0:0:0:0:
464,192,50368,2,0,L|344:192,1,110,4|0,0:3|0:0,0:0:0:0:
208,192,50913,6,0,L|144:192,2,55,8|0|0,0:3|0:0|0:0,0:0:0:0:
344,192,51459,1,4,0:3:0:0:
400,192,51595,1,0,0:0:0:0:
344,192,51732,1,0,0:0:0:0:
288,192,51868,1,0,0:0:0:0:
144,192,52004,2,0,P|88:176|72:120,1,110,8|0,0:3|0:0,0:0:0:0:
136,192,52413,1,0,0:0:0:0:
200,192,52550,1,4,0:3:0:0:
136,192,52686,2,0,L|64:192,2,55,0|0|0,0:0|0:0|0:0,0:0:0:0:
280,192,53095,5,4,0:0:0:0:
456,192,53641,1,8,0:3:0:0:
280,192,54186,1,8,0:3:0:0:
456,192,54732,1,8,0:3:0:0:
232,192,55277,5,8,0:3:0:0:
24,192,55822,1,8,0:3:0:0:
232,192,56368,1,8,0:3:0:0:
24,192,56913,1,8,0:3:0:0:
392,192,57459,6,0,L|280:192,3,110,8|8|8|8,0:3|0:3|0:3|0:3,0:0:0:0:
136,192,58550,2,0,L|256:192,3,110,8|8|8|8,0:3|0:3|0:3|0:3,0:0:0:0:
472,192,59641,6,0,L|472:136,2,55,8|8|8,0:3|0:3|0:3,0:0:0:0:
240,184,60186,1,8,0:3:0:0:
186,184,60322,1,8,0:3:0:0:
186,184,60459,1,8,0:3:0:0:
240,184,60595,1,8,0:3:0:0:
384,192,60732,1,4,0:0:0:0:
384,192,61822,6,0,L|312:192,1,55,4|8,0:0|0:3,0:0:0:0:
200,192,62232,2,0,L|264:192,1,55,0|2,0:0|0:3,0:0:0:0:
392,192,62641,2,0,P|456:176|472:136,1,110,0|8,0:0|0:3,0:0:0:0:
344,192,63186,2,0,L|456:192,1,110,0|2,0:0|0:3,0:0:0:0:
454,192,63595,1,0,0:0:0:0:
264,192,64004,6,0,L|264:136,1,55,8|0,0:3|0:0,0:0:0:0:
392,192,64413,2,0,L|328:192,1,55,0|2,0:0|0:3,0:0:0:0:
224,192,64822,1,0,0:0:0:0:
447,192,65095,2,0,L|327:192,1,110,12|4,0:3|0:3,0:0:0:0:
400,192,65504,1,0,0:0:0:0:
464,192,65641,1,6,0:3:0:0:
400,192,65777,1,4,0:3:0:0:
336,192,65913,1,4,0:3:0:0:
112,192,66186,6,0,L|48:192,1,55,4|8,0:0|0:3,0:0:0:0:
184,192,66595,2,0,L|248:192,1,55,0|2,0:0|0:3,0:0:0:0:
120,192,67004,2,0,L|232:192,1,110,0|8,0:0|0:3,0:0:0:0:
360,192,67550,2,0,L|240:192,1,110,0|2,0:0|0:3,0:0:0:0:
192,192,67959,1,0,0:0:0:0:
376,192,68368,6,0,L|440:192,1,55,8|0,0:3|0:0,0:0:0:0:
264,192,68777,2,0,L|184:192,1,55,0|2,0:0|0:3,0:0:0:0:
328,192,69186,1,0,0:0:0:0:
120,192,69459,1,2,0:3:0:0:
328,192,69732,1,2,0:3:0:0:
384,192,69868,1,2,0:3:0:0:
328,192,70004,1,2,0:3:0:0:
272,192,70141,1,2,0:3:0:0:
328,192,70277,2,0,L|328:128,1,55,4|4,0:3|0:3,0:0:0:0:
184,192,70550,6,0,L|120:192,1,55,4|8,0:0|0:3,0:0:0:0:
256,192,70959,2,0,L|176:192,1,55,0|2,0:0|0:3,0:0:0:0:
74,192,71368,2,0,L|202:192,1,110,0|8,0:0|0:3,0:0:0:0:
56,192,71913,2,0,L|168:192,1,110,0|2,0:0|0:3,0:0:0:0:
232,192,72322,1,0,0:0:0:0:
432,192,72732,6,0,L|368:192,1,55,8|0,0:3|0:0,0:0:0:0:
248,192,73141,2,0,L|328:192,1,55,0|2,0:0|0:3,0:0:0:0:
416,192,73550,1,0,0:0:0:0:
184,192,73822,2,0,L|64:192,1,110,12|4,0:3|0:3,0:0:0:0:
136,192,74232,1,0,0:0:0:0:
200,192,74368,1,6,0:3:0:0:
136,192,74504,1,4,0:3:0:0:
74,192,74641,1,4,0:3:0:0:
304,192,74913,6,0,L|368:192,1,55,4|8,0:0|0:3,0:0:0:0:
232,192,75322,2,0,L|176:192,1,55,0|2,0:0|0:3,0:0:0:0:
304,192,75732,2,0,L|424:192,1,110,0|8,0:0|0:3,0:0:0:0:
288,192,76277,2,0,L|400:192,1,110,0|2,0:0|0:3,0:0:0:0:
440,192,76686,1,0,0:0:0:0:
264,192,77095,6,0,L|264:136,1,55,8|0,0:3|0:0,0:0:0:0:
392,192,77504,2,0,L|336:192,1,55,0|2,0:0|0:3,0:0:0:0:
224,192,77913,1,0,0:0:0:0:
448,192,78186,2,0,P|488:152|440:128,1,110,12|0,0:3|0:0,0:0:0:0:
384,192,78595,2,0,P|336:160|368:128,1,110,12|0,0:3|0:0,0:0:0:0:
432,192,79004,1,12,0:3:0:0:
192,192,79277,6,0,P|136:184|120:120,1,110,4|0,0:0|0:0,0:0:0:0:
264,192,79822,2,0,P|352:160|360:136,1,110,4|0,0:3|0:0,0:0:0:0:
288,192,80232,2,0,P|232:168|264:120,1,110,0|0,0:0|0:0,0:0:0:0:
304,192,80641,1,0,0:0:0:0:
168,192,80913,1,4,0:3:0:0:
112,192,81050,1,0,0:0:0:0:
112,192,81186,1,0,0:0:0:0:
168,192,81322,1,0,0:0:0:0:
240,192,81459,5,8,0:3:0:0:
296,192,81595,1,0,0:0:0:0:
240,192,81732,1,0,0:0:0:0:
184,192,81868,1,0,0:0:0:0:
120,192,82004,2,0,P|64:176|64:120,1,110,4|0,0:3|0:0,0:0:0:0:
128,192,82413,2,0,P|192:168|216:120,1,110,0|0,0:0|0:0,0:0:0:0:
144,192,82822,1,0,0:0:0:0:
368,192,83095,2,0,L|480:192,1,110,4|2,0:3|0:0,0:0:0:0:
256,192,83641,6,0,P|208:152|256:120,1,110,4|0,0:0|0:0,0:0:0:0:
368,192,84186,2,0,L|240:192,1,110,4|0,0:3|0:0,0:0:0:0:
184,192,84595,2,0,L|344:192,1,110,0|0,0:0|0:0,0:0:0:0:
360,192,85004,1,0,0:0:0:0:
136,192,85277,2,0,P|72:176|64:128,1,110,4|0,0:3|0:0,0:0:0:0:
200,192,85822,5,8,0:3:0:0:
136,192,85959,1,0,0:0:0:0:
104,192,86095,1,0,0:0:0:0:
136,192,86232,1,0,0:0:0:0:
200,192,86368,1,4,0:3:0:0:
312,192,86641,1,0,0:0:0:0:
88,192,86913,1,4,0:1:0:0:
88,192,87459,1,8,0:3:0:0:
88,192,87595,1,4,0:3:0:0:
144,192,87732,1,4,0:3:0:0:
216,192,87868,1,4,0:3:0:0:
360,192,88004,6,0,P|424:160|424:128,1,110,4|0,0:0|0:0,0:0:0:0:
288,192,88550,2,0,P|240:144|264:120,1,110,4|0,0:3|0:0,0:0:0:0:
320,192,88959,2,0,P|376:168|400:128,1,110,0|0,0:0|0:0,0:0:0:0:
328,192,89368,1,0,0:0:0:0:
104,192,89641,1,4,0:3:0:0:
48,192,89777,1,2,0:0:0:0:
48,192,89913,1,2,0:0:0:0:
104,192,90050,1,2,0:0:0:0:
176,192,90186,5,8,0:3:0:0:
240,192,90322,1,0,0:0:0:0:
288,192,90459,1,0,0:0:0:0:
288,192,90595,1,0,0:0:0:0:
224,192,90732,2,0,P|160:168|176:120,1,110,4|0,0:3|0:0,0:0:0:0:
232,192,91141,2,0,P|272:152|232:120,1,110,0|0,0:0|0:0,0:0:0:0:
184,192,91550,1,0,0:0:0:0:
408,192,91822,1,4,0:3:0:0:
464,192,91959,1,2,0:0:0:0:
408,192,92095,1,2,0:0:0:0:
336,192,92232,1,2,0:0:0:0:
192,192,92368,6,0,P|136:168|136:112,1,110,4|0,0:0|0:0,0:0:0:0:
264,192,92913,2,0,P|328:168|312:112,1,110,4|0,0:3|0:0,0:0:0:0:
264,192,93322,2,0,P|224:152|256:128,1,110,0|0,0:0|0:0,0:0:0:0:
320,192,93732,1,0,0:0:0:0:
96,192,94004,2,0,L|40:192,1,55,4|2,0:3|0:0,0:0:0:0:
41,192,94277,2,0,L|104:192,1,55,2|2,0:0|0:0,0:0:0:0:
168,192,94550,6,0,L|168:128,1,55,8|0,0:3|0:0,0:0:0:0:
96,192,94822,2,0,L|96:128,1,55,0|0,0:0|0:0,0:0:0:0:
168,192,95095,2,0,L|280:192,1,110,4|0,0:3|0:0,0:0:0:0:
56,192,95641,5,2,0:3:0:0:
56,192,95777,1,8,0:3:0:0:
104,192,95913,1,4,0:3:0:0:
176,192,96050,1,4,0:3:0:0:
320,192,96186,1,6,0:3:0:0:
376,192,96322,1,4,0:3:0:0:
376,192,96459,1,4,0:3:0:0:
320,192,96595,1,4,0:3:0:0:
176,192,96732,5,12,0:3:0:0:
112,192,96868,1,8,0:3:0:0:
240,192,104368,6,0,P|168:160|160:112,1,110,8|0,0:3|0:0,0:0:0:0:
232,192,104777,2,0,P|280:160|240:120,1,110,8|0,0:3|0:0,0:0:0:0:
192,192,105186,1,8,0:3:0:0:
416,192,105459,6,0,L|416:128,1,55,8|8,0:3|0:3,0:0:0:0:
224,192,106004,1,2,0:3:0:0:
480,192,106822,2,0,L|360:192,1,110,8|2,0:3|0:3,0:0:0:0:
128,192,107641,6,0,L|128:128,1,55,8|0,0:3|0:0,0:0:0:0:
312,192,108186,1,2,0:3:0:0:
312,192,108732,1,0,0:0:0:0:
184,192,109004,1,8,0:3:0:0:
312,192,109277,2,0,L|368:192,1,55,2|0,0:3|0:0,0:0:0:0:
312,192,109550,1,2,0:0:0:0:
248,192,109686,1,0,0:0:0:0:
104,192,109822,6,0,L|48:192,2,55,8|8|4,0:3|0:3|0:3,0:0:0:0:
230,192,110368,2,0,L|296:104,1,110,4|4,0:3|0:3,0:0:0:0:
168,192,110913,2,0,L|74:136,1,110,4|4,0:3|0:3,0:0:0:0:
208,192,111459,2,0,L|344:192,1,110,4|4,0:3|0:3,0:0:0:0:
88,192,112004,6,0,L|32:192,2,55,4|4|4,0:3|0:3|0:3,0:0:0:0:
318,192,112550,1,4,0:3:0:0:
376,192,112686,1,4,0:3:0:0:
376,192,112822,1,4,0:3:0:0:
318,192,112959,1,4,0:3:0:0:
176,192,113095,1,4,0:0:0:0:
176,192,114186,6,0,L|248:192,1,55,4|8,0:0|0:3,0:0:0:0:
360,192,114595,2,0,L|296:192,1,55,0|2,0:0|0:0,0:0:0:0:
192,192,115004,1,4,0:3:0:0:
320,192,115277,1,8,0:3:0:0:
440,192,115550,2,0,L|368:192,1,55,0|0,0:0|0:0,0:0:0:0:
328,192,115822,2,0,L|448:192,1,110,2|2,0:0|0:0,0:0:0:0:
384,192,116232,1,2,0:0:0:0:
240,192,116368,6,0,L|168:192,1,55,8|0,0:3|0:0,0:0:0:0:
312,192,116777,2,0,L|312:128,1,55,0|2,0:0|0:0,0:0:0:0:
185,192,117186,2,0,P|128:160|128:120,1,110,4|8,0:3|0:3,0:0:0:0:
360,192,117732,2,0,L|416:192,2,55,2|0|2,0:0|0:0|0:0,0:0:0:0:
240,192,118277,1,0,0:0:0:0:
16,192,118550,6,0,L|80:192,1,55,8|0,0:3|0:0,0:0:0:0:
192,192,118959,2,0,L|256:192,1,55,0|2,0:0|0:0,0:0:0:0:
128,192,119368,2,0,L|192:192,1,55,4|4,0:3|0:3,0:0:0:0:
328,192,119641,2,0,P|392:168|400:128,1,110,8|4,0:3|0:3,0:0:0:0:
176,192,120186,2,0,P|112:168|112:120,1,110,8|2,0:3|0:0,0:0:0:0:
176,192,120595,1,2,0:0:0:0:
320,192,120732,6,0,L|392:192,1,55,8|0,0:3|0:0,0:0:0:0:
240,192,121141,2,0,L|184:192,1,55,0|2,0:0|0:0,0:0:0:0:
312,192,121550,2,0,L|248:192,1,55,4|4,0:3|0:3,0:0:0:0:
112,192,121822,2,0,P|32:168|16:96,2,165,8|8|8,0:3|0:3|0:3,0:0:0:0:
344,192,122913,6,0,L|408:192,1,55,4|8,0:0|0:3,0:0:0:0:
280,192,123322,2,0,L|280:136,1,55,0|2,0:0|0:0,0:0:0:0:
399,192,123732,1,4,0:3:0:0:
264,192,124004,2,0,L|232:144,1,55,8|4,0:3|0:3,0:0:0:0:
374,192,124277,2,0,P|439:168|447:112,1,110,8|0,0:3|0:0,0:0:0:0:
392,192,124686,1,8,0:3:0:0:
216,192,125095,6,0,L|144:192,1,55,8|0,0:3|0:0,0:0:0:0:
272,192,125504,2,0,L|328:192,1,55,0|2,0:0|0:0,0:0:0:0:
200,192,125913,2,0,L|128:192,1,55,4|4,0:3|0:3,0:0:0:0:
288,192,126186,2,0,L|400:192,2,110,12|4|4,0:3|0:3|0:3,0:0:0:0:
168,192,127004,1,4,0:3:0:0:
398,192,127277,6,0,L|454:192,1,55,4|8,0:0|0:3,0:0:0:0:
320,192,127686,2,0,L|256:192,1,55,0|2,0:0|0:0,0:0:0:0:
160,192,128095,1,4,0:3:0:0:
296,192,128368,2,0,P|340:157|304:136,1,110,8|0,0:3|0:0,0:0:0:0:
192,192,128913,2,0,L|248:192,1,55,2|0,0:0|0:0,0:0:0:0:
448,192,129459,6,0,L|392:192,1,55,8|0,0:3|0:0,0:0:0:0:
272,192,129868,2,0,L|208:192,1,55,0|2,0:0|0:0,0:0:0:0:
352,192,130277,2,0,L|296:176,1,55,4|4,0:3|0:3,0:0:0:0:
152,192,130550,1,12,0:3:0:0:
24,192,130822,1,8,0:3:0:0:
152,192,131095,1,8,0:3:0:0:
24,192,131368,1,8,0:3:0:0:
256,192,131641,6,0,L|320:192,1,55,4|8,0:0|0:3,0:0:0:0:
456,192,132050,2,0,L|401:192,1,55,4|8,0:3|0:3,0:0:0:0:
32,192,132732,2,0,L|32:128,1,55,4|8,0:0|0:3,0:0:0:0:
168,192,133141,2,0,L|88:192,1,55,4|8,0:3|0:3,0:0:0:0:
472,192,133822,6,0,L|472:136,1,55,4|8,0:0|0:3,0:0:0:0:
328,192,134232,2,0,L|392:192,1,55,4|8,0:3|0:3,0:0:0:0:
24,192,134913,2,0,L|24:136,1,55,4|8,0:0|0:3,0:0:0:0:
168,192,135322,2,0,L|88:192,1,55,4|8,0:3|0:3,0:0:0:0:
480,192,136004,5,4,0:0:0:0:
256,192,136277,12,0,140368,0:0:0:0:
