osu file format v14

[General]
AudioFilename: audio.mp3
AudioLeadIn: 0
PreviewTime: 61822
Countdown: 0
SampleSet: Soft
StackLeniency: 0.7
Mode: 2
LetterboxInBreaks: 0
WidescreenStoryboard: 1

[Editor]
DistanceSpacing: 0.8
BeatDivisor: 4
GridSize: 8
TimelineZoom: 1.7

[Metadata]
Title:Suit Up
TitleUnicode:Suit Up
Artist:Blue Stahli
ArtistUnicode:Blue Stahli
Creator:MBomb
Version:Rain
Source:
Tags:magic bomb antisleep vol. volume 3 electronic industrial rock instrumental
BeatmapID:2227911
BeatmapSetID:1061425

[Difficulty]
HPDrainRate:6
CircleSize:3.8
OverallDifficulty:9
ApproachRate:9
SliderMultiplier:2.6
SliderTickRate:2

[Events]
//Background and Video events
0,0,"radioactive-3793510_1920.jpg",0,0
//Break Periods
//Storyboard Layer 0 (Background)
//Storyboard Layer 1 (Fail)
//Storyboard Layer 2 (Pass)
//Storyboard Layer 3 (Foreground)
//Storyboard Layer 4 (Overlay)
//Storyboard Sound Samples

[TimingPoints]
732,545.454545454546,4,2,0,51,1,0
16004,-80,4,2,0,51,0,0
17095,-100,4,2,0,51,0,0
17641,-100,4,2,0,28,0,0
18186,-100,4,2,0,79,0,1
35641,-100,4,2,0,51,0,0
61822,-100,4,2,0,79,0,1
78186,-100,4,2,0,51,0,1
79277,-100,4,2,0,51,0,0
86913,-100,4,2,0,32,0,0
87459,-100,4,2,0,51,0,0
113504,-100,4,2,0,28,0,0
114186,-100,4,2,0,79,0,1
132459,-100,4,2,0,30,0,1
132732,-100,4,2,0,79,0,1
133550,-100,4,2,0,30,0,1
133822,-100,4,2,0,79,0,1
134641,-100,4,2,0,30,0,1
134914,-100,4,2,0,79,0,1
135732,-100,4,2,0,30,0,1
136004,-100,4,2,0,52,0,0
137095,-100,4,2,0,26,0,0

[Colours]
Combo1 : 34,145,255
Combo2 : 255,128,0
Combo3 : 0,128,64

[HitObjects]
160,192,732,5,8,0:3:0:0:
360,192,868,1,8,0:3:0:0:
256,192,1004,12,0,8913,0:0:0:0:
32,192,9322,5,8,0:3:0:0:
232,192,9459,5,4,0:0:0:0:
432,192,9595,2,0,P|488:136|408:104,1,195,8|2,0:3|0:0,0:0:0:0:
272,192,10277,2,0,L|336:192,1,65,0|0,0:0|0:0,0:0:0:0:
184,192,10550,1,2,0:0:0:0:
88,192,10686,2,0,P|24:144|112:120,1,195,0|2,0:0|0:0,0:0:0:0:
248,192,11368,2,0,L|304:144,1,65,0|0,0:0|0:0,0:0:0:0:
136,192,11641,6,0,L|56:192,1,65,2|0,0:0|0:0,0:0:0:0:
208,192,12050,2,0,L|288:192,1,65,0|2,0:0|0:0,0:0:0:0:
120,192,12459,2,0,L|120:128,1,65,0|0,0:0|0:0,0:0:0:0:
273,192,12732,2,0,L|307:137,1,65,2|0,0:0|0:0,0:0:0:0:
168,192,13141,2,0,L|96:192,1,65,0|2,0:0|0:0,0:0:0:0:
200,192,13550,1,0,0:0:0:0:
56,192,13686,1,8,0:3:0:0:
256,192,13822,5,8,0:3:0:0:
392,192,14095,1,4,0:3:0:0:
256,192,14368,1,4,0:3:0:0:
496,192,14641,1,4,0:3:0:0:
256,192,14913,2,0,L|256:128,1,65,4|0,0:3|0:0,0:0:0:0:
400,192,15186,2,0,L|400:128,1,65,4|0,0:3|0:0,0:0:0:0:
240,192,15459,2,0,L|200:136,1,65,4|0,0:3|0:0,0:0:0:0:
360,192,15732,2,0,L|400:136,1,65,4|0,0:3|0:0,0:0:0:0:
200,192,16004,6,0,L|104:192,1,81.25,12|4,0:3|0:3,0:0:0:0:
328,192,16277,2,0,L|432:192,1,81.25,4|4,0:3|0:3,0:0:0:0:
184,192,16550,2,0,L|80:192,1,81.25,12|4,0:3|0:3,0:0:0:0:
360,192,16822,2,0,L|448:192,1,81.25,4|4,0:3|0:3,0:0:0:0:
168,192,17095,2,0,P|64:152|24:16,1,260,4|0,0:0|0:0,0:0:0:0:
480,192,18186,5,4,0:0:0:0:
280,192,18322,2,0,P|216:176|192:104,1,130,8|0,0:3|0:0,0:0:0:0:
352,192,18732,1,2,0:3:0:0:
216,192,19004,2,0,L|160:152,1,65,0|0,0:0|0:0,0:0:0:0:
320,192,19277,2,0,L|400:192,1,65,8|0,0:3|0:0,0:0:0:0:
232,192,19550,2,0,P|168:176|160:104,1,130,0|2,0:0|0:3,0:0:0:0:
304,192,19959,2,0,L|152:192,1,130,0|0,0:0|0:0,0:0:0:0:
384,192,20368,5,8,0:3:0:0:
480,192,20504,2,0,P|464:128|384:120,1,130,0|0,0:0|0:0,0:0:0:0:
256,192,20913,1,2,0:3:0:0:
400,192,21186,2,0,L|400:128,1,65,0|0,0:0|0:0,0:0:0:0:
200,192,21459,2,0,L|128:192,2,65,12|0|4,0:3|0:0|0:3,0:0:0:0:
352,192,21868,1,0,0:0:0:0:
152,192,22004,2,0,L|225:192,1,65,6|4,0:3|0:3,0:0:0:0:
376,192,22277,2,0,L|424:144,1,65,4|0,0:3|0:0,0:0:0:0:
216,192,22550,5,4,0:0:0:0:
417,192,22686,2,0,P|472:160|440:112,1,130,8|0,0:3|0:0,0:0:0:0:
288,192,23095,1,2,0:3:0:0:
112,192,23368,2,0,L|184:192,1,65,0|0,0:0|0:0,0:0:0:0:
328,192,23641,2,0,L|264:192,1,65,8|0,0:3|0:0,0:0:0:0:
112,192,23913,2,0,P|88:136|144:112,1,130,0|2,0:0|0:3,0:0:0:0:
296,192,24322,2,0,P|384:168|392:112,1,130,0|0,0:0|0:0,0:0:0:0:
192,192,24732,5,8,0:3:0:0:
94,194,24868,2,0,P|86:130|150:114,1,130,0|0,0:0|0:0,0:0:0:0:
296,192,25277,1,2,0:3:0:0:
152,192,25550,2,0,L|152:128,1,65,0|0,0:0|0:0,0:0:0:0:
352,192,25822,2,0,L|416:192,2,65,12|0|0,0:3|0:0|0:0,0:0:0:0:
152,192,26232,2,0,L|88:192,2,65,12|0|0,0:3|0:0|0:0,0:0:0:0:
360,192,26641,2,0,L|432:192,1,65,12|0,0:3|0:0,0:0:0:0:
224,192,26913,5,4,0:0:0:0:
24,192,27050,2,0,P|56:128|136:112,1,130,8|0,0:3|0:0,0:0:0:0:
264,192,27459,1,2,0:3:0:0:
408,192,27732,2,0,L|336:192,1,65,0|0,0:0|0:0,0:0:0:0:
192,192,28004,2,0,L|256:192,1,65,8|0,0:3|0:0,0:0:0:0:
408,192,28277,2,0,P|456:160|400:120,1,130,0|2,0:0|0:3,0:0:0:0:
264,192,28686,2,0,P|184:176|160:128,1,130,0|0,0:0|0:0,0:0:0:0:
360,192,29095,5,8,0:3:0:0:
464,192,29232,2,0,P|464:128|400:120,1,130,0|0,0:0|0:0,0:0:0:0:
256,192,29641,1,2,0:3:0:0:
120,192,29913,2,0,L|192:192,1,65,0|0,0:0|0:0,0:0:0:0:
384,192,30186,2,0,L|312:192,1,65,12|0,0:3|0:0,0:0:0:0:
168,192,30459,2,0,L|88:192,1,65,4|0,0:3|0:0,0:0:0:0:
319,192,30732,2,0,L|320:128,1,65,6|4,0:3|0:3,0:0:0:0:
168,192,31004,2,0,L|96:192,1,65,4|0,0:3|0:0,0:0:0:0:
304,192,31277,5,4,0:0:0:0:
103,192,31413,2,0,P|55:152|103:128,1,130,8|0,0:3|0:0,0:0:0:0:
248,192,31822,1,2,0:3:0:0:
112,192,32095,2,0,L|72:128,1,65,0|0,0:0|0:0,0:0:0:0:
232,192,32368,2,0,L|320:192,1,65,8|0,0:3|0:0,0:0:0:0:
144,192,32641,2,0,P|128:120|208:104,1,130,0|2,0:0|0:3,0:0:0:0:
320,192,33050,2,0,P|408:176|424:120,1,130,0|0,0:0|0:0,0:0:0:0:
224,192,33459,5,8,0:3:0:0:
120,192,33595,2,0,P|80:144|144:128,1,130,0|0,0:0|0:0,0:0:0:0:
280,192,34004,1,2,0:3:0:0:
432,192,34277,2,0,L|360:192,1,65
120,192,34550,2,0,L|48:192,1,65,12|0,0:3|0:0,0:0:0:0:
136,192,34822,2,0,L|64:192,1,65
152,192,35095,2,0,L|80:192,1,65
240,192,35368,2,0,L|320:192,1,65,4|0,0:3|0:0,0:0:0:0:
96,192,35641,6,0,P|40:168|64:112,1,130,4|0,0:0|0:0,0:0:0:0:
304,192,36186,2,0,P|368:184|432:136,1,130,4|0,0:3|0:0,0:0:0:0:
400,192,36595,1,0,0:0:0:0:
240,192,36732,2,0,L|176:192,1,65,8|0,0:3|0:0,0:0:0:0:
335,192,37004,2,0,L|415:192,1,65
232,192,37277,1,4,0:3:0:0:
32,192,37550,2,0,L|32:120,1,65,0|0,0:0|0:0,0:0:0:0:
240,192,37822,5,8,0:3:0:0:
312,192,37959,1,0,0:0:0:0:
240,192,38095,1,0,0:0:0:0:
312,192,38232,1,0,0:0:0:0:
464,192,38368,2,0,P|496:144|440:112,1,130,4|0,0:3|0:0,0:0:0:0:
368,192,38777,1,0,0:0:0:0:
184,192,38913,2,0,P|104:160|104:120,1,130,8|0,0:3|0:0,0:0:0:0:
256,192,39322,1,8,0:3:0:0:
184,192,39459,2,0,L|128:128,1,65,4|0,0:3|0:0,0:0:0:0:
296,192,39732,2,0,L|368:192,1,65,8|0,0:3|0:0,0:0:0:0:
152,192,40004,6,0,P|104:144|152:128,1,130,4|0,0:0|0:0,0:0:0:0:
216,192,40413,1,0,0:0:0:0:
376,192,40550,2,0,P|424:160|376:128,1,130,4|0,0:3|0:0,0:0:0:0:
312,192,40959,1,0,0:0:0:0:
152,192,41095,2,0,L|152:128,1,65,8|0,0:3|0:0,0:0:0:0:
224,192,41368,2,0,L|224:128,1,65,0|0,0:0|0:0,0:0:0:0:
64,192,41641,2,0,P|16:152|56:120,1,130,4|0,0:3|0:0,0:0:0:0:
128,192,42050,1,0,0:0:0:0:
336,192,42186,6,0,L|416:192,2,65,8|0|0,0:3|0:0|0:0,0:0:0:0:
184,192,42595,1,8,0:3:0:0:
384,192,42732,2,0,P|440:144|408:128,1,130,4|0,0:3|0:0,0:0:0:0:
352,192,43141,1,0,0:0:0:0:
144,192,43277,2,0,P|104:168|152:120,1,130,8|0,0:3|0:0,0:0:0:0:
304,192,43686,2,0,L|328:160,1,32.5,8|8,0:3|0:3,0:0:0:0:
192,192,43822,1,4,0:3:0:0:
128,192,43959,1,0,0:0:0:0:
192,192,44095,1,0,0:0:0:0:
152,192,44186,1,0,0:0:0:0:
112,192,44277,1,0,0:0:0:0:
272,192,44368,6,0,P|336:184|376:128,1,130,4|0,0:0|0:0,0:0:0:0:
32,192,44913,1,4,0:3:0:0:
96,192,45050,1,0,0:0:0:0:
96,192,45186,1,0,0:0:0:0:
32,192,45322,1,0,0:0:0:0:
192,192,45459,2,0,L|264:192,1,65,8|0,0:3|0:0,0:0:0:0:
96,192,45732,2,0,L|32:192,1,65,2|0,0:0|0:0,0:0:0:0:
192,192,46004,1,4,0:3:0:0:
56,192,46277,2,0,L|56:128,1,65,0|0,0:0|0:0,0:0:0:0:
256,192,46550,5,8,0:3:0:0:
328,192,46686,1,0,0:0:0:0:
256,192,46822,1,0,0:0:0:0:
184,192,46959,1,0,0:0:0:0:
384,192,47095,2,0,L|448:192,1,65,2|2,0:2|0:0,0:0:0:0:
249,192,47368,2,0,L|169:192,1,65,2|2,0:0|0:0,0:0:0:0:
384,192,47641,2,0,P|424:144|384:136,1,130,8|0,0:3|0:0,0:0:0:0:
232,192,48050,1,8,0:3:0:0:
296,192,48186,1,4,0:3:0:0:
360,192,48322,1,0,0:0:0:0:
200,192,48459,2,0,L|144:152,1,65,8|0,0:3|0:0,0:0:0:0:
360,192,48732,6,0,P|448:168|464:112,1,130,4|0,0:0|0:0,0:0:0:0:
120,192,49277,1,4,0:3:0:0:
192,192,49413,1,0,0:0:0:0:
264,192,49550,1,0,0:0:0:0:
336,192,49686,1,0,0:0:0:0:
136,192,49822,2,0,P|72:152|88:112,1,130,8|2,0:3|0:0,0:0:0:0:
160,192,50232,1,0,0:0:0:0:
320,192,50368,1,4,0:3:0:0:
456,192,50641,2,0,L|456:128,1,65,0|0,0:0|0:0,0:0:0:0:
256,192,50913,5,8,0:3:0:0:
184,192,51050,1,0,0:0:0:0:
200,192,51186,1,0,0:0:0:0:
272,192,51322,1,8,0:3:0:0:
72,192,51459,2,0,L|16:160,1,65,4|0,0:3|0:0,0:0:0:0:
72,192,51732,1,0,0:0:0:0:
144,192,51868,1,0,0:0:0:0:
344,192,52004,2,0,P|432:160|440:112,1,130,8|0,0:3|0:0,0:0:0:0:
280,192,52413,1,0,0:0:0:0:
208,192,52550,1,0,0:3:0:0:
408,192,52686,2,0,L|472:192,1,65,0|0,0:0|0:0,0:0:0:0:
328,192,52959,1,0,0:0:0:0:
128,192,53095,6,0,L|64:192,1,65,4|0,0:0|0:0,0:0:0:0:
200,192,53504,2,0,L|200:128,1,65,0|8,0:0|0:3,0:0:0:0:
80,192,53913,1,0,0:0:0:0:
320,192,54186,2,0,L|320:128,1,65,8|0,0:3|0:0,0:0:0:0:
184,192,54595,2,0,L|184:128,1,65,0|8,0:0|0:3,0:0:0:0:
304,192,55004,1,0,0:0:0:0:
56,192,55277,6,0,L|56:128,1,65,8|0,0:3|0:0,0:0:0:0:
192,192,55686,2,0,L|256:192,1,65,0|8,0:0|0:3,0:0:0:0:
112,192,56095,2,0,L|192:192,1,65,0|0,0:0|0:0,0:0:0:0:
336,192,56368,2,0,L|408:192,1,65,8|0,0:3|0:0,0:0:0:0:
256,192,56777,2,0,L|320:192,1,65,0|8,0:0|0:3,0:0:0:0:
464,192,57186,2,0,L|392:192,1,65,0|0,0:0|0:0,0:0:0:0:
200,192,57459,6,0,L|128:192,1,65,8|0,0:3|0:0,0:0:0:0:
216,192,57732,2,0,L|296:192,1,65,8|0,0:3|0:0,0:0:0:0:
200,192,58004,2,0,L|280:192,1,65,8|0,0:3|0:0,0:0:0:0:
346,192,58277,2,0,L|266:192,1,65,8|0,0:3|0:0,0:0:0:0:
120,192,58550,2,0,L|120:128,1,65,8|0,0:3|0:0,0:0:0:0:
281,192,58822,2,0,L|312:136,1,65,8|0,0:3|0:0,0:0:0:0:
472,192,59095,2,0,L|472:128,1,65,8|0,0:3|0:0,0:0:0:0:
312,192,59368,2,0,L|281:136,1,65,8|0,0:3|0:0,0:0:0:0:
80,192,59641,6,0,L|8:192,3,65,8|8|8|8,0:3|0:3|0:3|0:3,0:0:0:0:
216,192,60186,1,8,0:3:0:0:
264,192,60254,1,8,0:3:0:0:
288,192,60322,1,8,0:3:0:0:
288,192,60391,1,8,0:3:0:0:
160,192,60459,1,8,0:3:0:0:
120,192,60527,1,8,0:3:0:0:
120,192,60595,1,8,0:3:0:0:
160,192,60663,1,8,0:3:0:0:
320,192,60732,1,4,0:0:0:0:
320,192,61686,1,0,0:0:0:0:
96,192,61822,5,4,0:0:0:0:
296,192,61959,2,0,P|344:168|304:120,1,130,8|0,0:3|0:0,0:0:0:0:
144,192,62368,1,2,0:3:0:0:
280,192,62640,2,0,L|336:152,1,65,0|0,0:0|0:0,0:0:0:0:
176,192,62913,2,0,L|96:192,1,65,8|0,0:3|0:0,0:0:0:0:
264,192,63186,2,0,P|328:176|352:120,1,130,0|2,0:0|0:3,0:0:0:0:
200,192,63595,2,0,L|352:192,1,130,0|0,0:0|0:0,0:0:0:0:
128,192,64004,5,8,0:3:0:0:
32,192,64140,2,0,P|48:128|128:120,1,130,0|0,0:0|0:0,0:0:0:0:
256,192,64549,1,2,0:3:0:0:
112,192,64822,2,0,L|112:128,1,65,0|0,0:0|0:0,0:0:0:0:
312,192,65095,2,0,L|384:192,2,65,12|0|4,0:3|0:0|0:3,0:0:0:0:
160,192,65504,1,0,0:0:0:0:
360,192,65640,2,0,L|287:192,1,65,6|4,0:3|0:3,0:0:0:0:
136,192,65913,2,0,L|88:144,1,65,4|0,0:3|0:0,0:0:0:0:
296,192,66186,5,4,0:0:0:0:
95,192,66322,2,0,P|40:160|72:112,1,130,8|0,0:3|0:0,0:0:0:0:
224,192,66731,1,2,0:3:0:0:
400,192,67004,2,0,L|328:192,1,65,0|0,0:0|0:0,0:0:0:0:
184,192,67277,2,0,L|248:192,1,65,8|0,0:3|0:0,0:0:0:0:
400,192,67549,2,0,P|424:136|368:112,1,130,0|2,0:0|0:3,0:0:0:0:
216,192,67959,2,0,P|128:168|120:112,1,130,0|0,0:0|0:0,0:0:0:0:
320,192,68368,5,8,0:3:0:0:
418,194,68504,2,0,P|426:130|362:114,1,130,0|0,0:0|0:0,0:0:0:0:
216,192,68913,1,2,0:3:0:0:
360,192,69186,2,0,L|360:128,1,65,0|0,0:0|0:0,0:0:0:0:
160,192,69458,2,0,L|160:128,1,65,2|0,0:3|0:0,0:0:0:0:
360,192,69732,2,0,L|288:192,1,65,2|2,0:3|0:3,0:0:0:0:
96,192,70004,2,0,L|176:192,1,65,2|2,0:3|0:3,0:0:0:0:
320,192,70277,2,0,L|248:192,1,65,4|4,0:3|0:3,0:0:0:0:
56,192,70549,5,4,0:0:0:0:
255,192,70686,2,0,P|351:160|375:120,1,130,8|0,0:3|0:0,0:0:0:0:
208,192,71095,1,2,0:3:0:0:
64,192,71368,2,0,L|136:192,1,65,0|0,0:0|0:0,0:0:0:0:
280,192,71640,2,0,L|280:128,1,65,8|0,0:3|0:0,0:0:0:0:
129,192,71913,2,0,P|72:160|104:120,1,130,0|2,0:0|0:3,0:0:0:0:
256,192,72322,2,0,P|328:176|352:128,1,130,0|0,0:0|0:0,0:0:0:0:
152,192,72731,5,8,0:3:0:0:
48,192,72868,2,0,P|48:128|112:120,1,130,0|0,0:0|0:0,0:0:0:0:
256,192,73277,1,2,0:3:0:0:
392,192,73549,2,0,L|320:192,1,65,0|0,0:0|0:0,0:0:0:0:
128,192,73822,2,0,L|200:192,1,65,12|0,0:3|0:0,0:0:0:0:
344,192,74095,2,0,L|424:192,1,65,4|0,0:3|0:0,0:0:0:0:
193,192,74368,2,0,L|192:128,1,65,6|4,0:3|0:3,0:0:0:0:
344,192,74640,2,0,L|416:192,1,65,4|0,0:3|0:0,0:0:0:0:
208,192,74913,5,4,0:0:0:0:
409,192,75049,2,0,P|457:152|409:128,1,130,8|0,0:3|0:0,0:0:0:0:
264,192,75458,1,2,0:3:0:0:
400,192,75731,2,0,L|440:128,1,65,0|0,0:0|0:0,0:0:0:0:
280,192,76004,2,0,L|192:192,1,65,8|0,0:3|0:0,0:0:0:0:
368,192,76277,2,0,P|384:128|336:136,1,130,0|2,0:0|0:3,0:0:0:0:
184,192,76686,2,0,P|104:176|88:120,1,130,0|0,0:0|0:0,0:0:0:0:
288,192,77095,5,8,0:3:0:0:
392,192,77231,2,0,P|432:144|368:128,1,130,0|0,0:0|0:0,0:0:0:0:
232,192,77640,1,2,0:3:0:0:
80,192,77913,2,0,L|152:192,1,65,0|0,0:0|0:0,0:0:0:0:
352,192,78186,2,0,P|408:152|352:112,1,130,12|0,0:3|0:0,0:0:0:0:
184,192,78595,2,0,P|128:160|176:136,1,130,12|0,0:3|0:0,0:0:0:0:
360,192,79004,2,0,L|440:192,1,65,12|0,0:3|0:0,0:0:0:0:
224,192,79277,6,0,P|144:168|128:112,1,130,4|0,0:0|0:0,0:0:0:0:
368,192,79822,2,0,P|408:184|368:128,1,130,4|0,0:3|0:0,0:0:0:0:
224,192,80232,2,0,L|160:192,2,65,0|8|0,0:0|0:3|0:0,0:0:0:0:
376,192,80641,2,0,L|448:192,1,65,0|0,0:0|0:0,0:0:0:0:
240,192,80913,1,4,0:3:0:0:
168,192,81050,1,0,0:0:0:0:
240,192,81186,1,0,0:0:0:0:
168,192,81322,1,0,0:0:0:0:
368,192,81459,5,8,0:3:0:0:
432,192,81595,1,0,0:0:0:0:
432,192,81732,1,0,0:0:0:0:
368,192,81868,1,0,0:0:0:0:
208,192,82004,2,0,P|152:168|192:120,1,130,4|0,0:3|0:0,0:0:0:0:
336,192,82413,2,0,L|408:192,2,65,0|8|0,0:0|0:3|0:0,0:0:0:0:
184,192,82822,2,0,L|112:192,1,65,0|0,0:0|0:0,0:0:0:0:
320,192,83095,1,4,0:3:0:0:
112,192,83368,2,0,L|112:128,1,65,2|0,0:0|0:0,0:0:0:0:
320,192,83641,6,0,P|392:176|424:112,1,130,4|0,0:0|0:0,0:0:0:0:
176,192,84186,2,0,P|224:136|288:128,1,130,4|0,0:3|0:0,0:0:0:0:
432,192,84595,1,0,0:0:0:0:
360,192,84732,1,8,0:3:0:0:
288,192,84868,1,0,0:0:0:0:
136,192,85004,1,0,0:0:0:0:
480,192,85277,2,0,P|448:128|392:120,1,130,4|0,0:3|0:0,0:0:0:0:
320,192,85686,1,0,0:0:0:0:
120,192,85822,5,8,0:3:0:0:
56,192,85959,1,0,0:0:0:0:
32,192,86095,1,0,0:0:0:0:
96,192,86232,1,0,0:0:0:0:
256,192,86368,2,0,P|304:152|248:128,1,130,4|0,0:3|0:0,0:0:0:0:
192,192,86777,1,0,0:0:0:0:
392,192,86913,1,4,0:1:0:0:
392,192,87050,1,0,0:0:0:0:
320,192,87186,1,0,0:0:0:0:
248,192,87322,1,0,0:0:0:0:
448,192,87459,1,8,0:3:0:0:
384,192,87595,1,4,0:3:0:0:
448,192,87732,1,4,0:3:0:0:
384,192,87868,1,4,0:3:0:0:
184,192,88004,6,0,P|112:176|88:128,1,130,4|0,0:0|0:0,0:0:0:0:
160,192,88413,1,0,0:0:0:0:
320,192,88550,2,0,P|416:152|416:96,1,130,4|0,0:3|0:0,0:0:0:0:
264,192,88959,1,0,0:0:0:0:
200,192,89095,2,0,L|200:128,1,65,8|0,0:3|0:0,0:0:0:0:
360,192,89368,2,0,L|440:192,1,65,0|0,0:0|0:0,0:0:0:0:
224,192,89641,1,4,0:3:0:0:
24,192,89777,2,0,L|24:128,1,65,2|2,0:0|0:0,0:0:0:0:
224,192,90050,1,2,0:0:0:0:
424,192,90186,5,8,0:3:0:0:
488,192,90322,1,0,0:0:0:0:
424,192,90459,1,0,0:0:0:0:
360,192,90595,1,0,0:0:0:0:
200,192,90732,2,0,P|136:144|152:112,1,130,4|0,0:3|0:0,0:0:0:0:
304,192,91141,2,0,L|376:192,2,65,0|8|0,0:0|0:3|0:0,0:0:0:0:
152,192,91550,2,0,L|224:192,1,65,0|0,0:0|0:0,0:0:0:0:
416,192,91822,1,4,0:3:0:0:
344,192,91959,1,2,0:0:0:0:
344,192,92095,1,2,0:0:0:0:
416,192,92232,1,2,0:0:0:0:
217,192,92368,6,0,P|176:160|240:120,1,130,4|0,0:0|0:0,0:0:0:0:
288,192,92777,1,0,0:0:0:0:
128,192,92913,2,0,P|88:168|144:128,1,130,4|0,0:3|0:0,0:0:0:0:
288,192,93322,1,0,0:0:0:0:
360,192,93459,2,0,L|360:128,1,65,8|0,0:3|0:0,0:0:0:0:
208,192,93732,2,0,L|136:192,1,65,0|0,0:0|0:0,0:0:0:0:
296,192,94004,1,4,0:3:0:0:
96,192,94141,1,2,0:0:0:0:
296,192,94277,1,2,0:0:0:0:
336,192,94345,1,2,0:0:0:0:
336,192,94413,1,2,0:0:0:0:
296,192,94481,1,2,0:0:0:0:
160,192,94550,5,8,0:3:0:0:
88,192,94686,1,0,0:0:0:0:
160,192,94822,1,0,0:0:0:0:
88,192,94959,1,0,0:0:0:0:
248,192,95095,1,4,0:3:0:0:
312,192,95232,1,0,0:0:0:0:
248,192,95368,1,0,0:0:0:0:
184,192,95504,1,0,0:0:0:0:
384,192,95641,2,0,L|384:128,1,65,2|8,0:3|0:3,0:0:0:0:
312,192,95913,1,4,0:3:0:0:
248,192,96050,1,4,0:3:0:0:
48,192,96186,1,6,0:3:0:0:
48,192,96322,1,4,0:3:0:0:
96,192,96459,1,4,0:3:0:0:
168,192,96595,1,4,0:3:0:0:
368,192,96732,5,12,0:3:0:0:
472,192,96868,2,0,P|480:120|424:96,1,130,8|0,0:3|0:0,0:0:0:0:
360,192,97277,1,2,0:0:0:0:
232,192,97550,2,0,L|200:136,1,65,0|0,0:0|0:0,0:0:0:0:
328,192,97959,2,0,L|368:136,1,65,0|0,0:0|0:0,0:0:0:0:
224,192,98368,2,0,L|224:128,1,65,2|0,0:0|0:0,0:0:0:0:
296,192,98641,2,0,L|296:128,1,65,0|0,0:0|0:0,0:0:0:0:
144,192,98913,6,0,L|96:144,1,65,2|0,0:0|0:0,0:0:0:0:
240,192,99322,2,0,L|240:128,1,65,0|2,0:0|0:0,0:0:0:0:
128,192,99732,1,0,0:0:0:0:
280,192,99868,1,0,0:0:0:0:
280,192,100141,2,0,L|200:192,1,65,0|0,0:0|0:0,0:0:0:0:
80,192,100550,2,0,L|80:128,1,65,2|0,0:0|0:0,0:0:0:0:
136,192,100822,1,0,0:0:0:0:
208,192,100959,1,0,0:0:0:0:
408,192,101095,6,0,L|472:192,1,65,4|0,0:1|0:0,0:0:0:0:
336,192,101504,2,0,L|288:144,1,65,0|2,0:0|0:0,0:0:0:0:
424,192,101913,2,0,L|352:192,1,65,0|0,0:0|0:0,0:0:0:0:
224,192,102322,1,0,0:0:0:0:
376,192,102459,1,0,0:0:0:0:
480,192,102732,1,2,0:0:0:0:
472,192,102868,1,0,0:0:0:0:
416,192,103004,1,0,0:0:0:0:
344,192,103141,1,0,0:0:0:0:
192,192,103277,6,0,L|152:128,1,65,2|0,0:0|0:0,0:0:0:0:
304,192,103686,2,0,L|376:192,2,65,0|2|0,0:0|0:0|0:0,0:0:0:0:
232,192,104095,1,0,0:0:0:0:
168,192,104232,1,0,0:0:0:0:
369,192,104368,2,0,P|425:160|385:120,1,130,8|0,0:3|0:0,0:0:0:0:
192,192,104777,2,0,P|144:144|200:128,1,130,8|0,0:3|0:0,0:0:0:0:
384,192,105186,2,0,L|456:192,1,65,8|0,0:3|0:0,0:0:0:0:
248,192,105459,5,8,0:3:0:0:
48,192,105595,2,0,P|16:160|104:88,1,195,8|2,0:3|0:3,0:0:0:0:
240,192,106277,1,0,0:0:0:0:
168,192,106413,2,0,P|96:168|88:112,1,130,0|0,0:0|0:0,0:0:0:0:
160,192,106822,1,8,0:3:0:0:
400,192,107095,2,0,P|464:160|448:104,1,130,2|0,0:3|0:0,0:0:0:0:
384,192,107504,1,0,0:0:0:0:
225,192,107641,6,0,L|153:192,1,65,8|0,0:3|0:0,0:0:0:0:
304,192,108050,2,0,L|360:160,1,65,0|2,0:0|0:3,0:0:0:0:
216,192,108459,1,0,0:0:0:0:
288,192,108595,2,0,P|360:176|384:128,1,130,0|0,0:0|0:0,0:0:0:0:
304,192,109004,1,8,0:3:0:0:
64,192,109277,1,2,0:3:0:0:
128,192,109413,1,0,0:0:0:0:
64,192,109550,1,2,0:0:0:0:
128,192,109686,1,0,0:0:0:0:
328,192,109822,6,0,L|400:192,1,65,8|8,0:3|0:3,0:0:0:0:
328,192,110095,1,4,0:3:0:0:
256,192,110232,1,0,0:0:0:0:
96,192,110368,2,0,L|64:136,1,65,4|0,0:3|0:0,0:0:0:0:
120,192,110641,2,0,L|192:192,1,65,4|0,0:3|0:0,0:0:0:0:
344,192,110913,2,0,L|400:160,1,65,4|0,0:3|0:0,0:0:0:0:
328,192,111186,2,0,L|272:160,1,65,4|0,0:3|0:0,0:0:0:0:
432,192,111459,1,4,0:3:0:0:
496,192,111595,1,0,0:0:0:0:
432,192,111732,1,4,0:3:0:0:
360,192,111868,1,0,0:0:0:0:
160,192,112004,5,4,0:3:0:0:
88,192,112141,1,4,0:3:0:0:
88,192,112277,1,4,0:3:0:0:
160,192,112413,1,4,0:3:0:0:
360,192,112550,1,4,0:3:0:0:
400,192,112618,1,4,0:3:0:0:
400,192,112686,1,4,0:3:0:0:
360,192,112754,1,4,0:3:0:0:
224,192,112822,1,4,0:3:0:0:
184,192,112891,1,4,0:3:0:0:
184,192,112959,1,4,0:3:0:0:
224,192,113027,1,4,0:3:0:0:
376,192,113095,2,0,P|472:168|440:32,1,260,4|0,0:0|0:0,0:0:0:0:
64,192,114186,5,4,0:0:0:0:
264,192,114322,2,0,P|328:160|336:96,1,130,8|0,0:3|0:0,0:0:0:0:
184,192,114732,1,2,0:0:0:0:
408,192,115004,2,0,L|336:192,1,65,4|0,0:3|0:0,0:0:0:0:
184,192,115277,2,0,L|104:192,1,65,8|0,0:3|0:0,0:0:0:0:
184,192,115550,1,0,0:0:0:0:
152,192,115618,1,0,0:0:0:0:
120,192,115686,1,0,0:0:0:0:
320,192,115822,1,2,0:0:0:0:
120,192,116095,1,2,0:0:0:0:
320,192,116232,1,2,0:0:0:0:
120,192,116368,5,8,0:3:0:0:
16,192,116504,2,0,P|56:128|120:128,1,130,0|0,0:0|0:0,0:0:0:0:
264,192,116913,1,2,0:0:0:0:
40,192,117186,2,0,L|112:192,1,65,4|0,0:3|0:0,0:0:0:0:
264,192,117459,2,0,L|264:128,1,65,8|0,0:3|0:0,0:0:0:0:
64,192,117732,2,0,L|144:192,1,65,2|0,0:0|0:0,0:0:0:0:
264,192,118004,1,2,0:0:0:0:
200,192,118141,1,0,0:0:0:0:
136,192,118277,1,0,0:0:0:0:
72,192,118413,1,0,0:0:0:0:
280,192,118550,5,8,0:3:0:0:
384,192,118686,2,0,P|424:136|376:128,1,130,0|0,0:0|0:0,0:0:0:0:
232,192,119095,1,2,0:0:0:0:
456,192,119368,2,0,L|384:192,1,65,4|4,0:3|0:3,0:0:0:0:
192,192,119641,2,0,P|120:152|136:104,1,130,8|4,0:3|0:3,0:0:0:0:
480,192,120186,1,8,0:3:0:0:
416,192,120322,1,0,0:0:0:0:
272,192,120459,1,2,0:0:0:0:
416,192,120595,1,2,0:0:0:0:
216,192,120732,5,8,0:3:0:0:
112,192,120868,2,0,P|48:160|72:112,1,130,0|0,0:0|0:0,0:0:0:0:
224,192,121277,1,2,0:0:0:0:
464,192,121550,2,0,L|384:192,1,65,4|4,0:3|0:3,0:0:0:0:
192,192,121822,2,0,P|144:160|200:120,1,130,8|0,0:3|0:0,0:0:0:0:
384,192,122232,2,0,P|424:168|376:120,1,130,8|0,0:3|0:0,0:0:0:0:
184,192,122641,2,0,L|112:192,1,65,8|0,0:3|0:0,0:0:0:0:
320,192,122913,5,4,0:0:0:0:
120,192,123050,2,0,P|48:152|80:112,1,130,8|0,0:3|0:0,0:0:0:0:
216,192,123459,1,2,0:0:0:0:
80,192,123732,2,0,L|152:192,1,65,4|0,0:3|0:0,0:0:0:0:
344,192,124004,2,0,L|264:192,1,65,8|4,0:3|0:3,0:0:0:0:
80,192,124277,2,0,P|48:144|104:136,1,130,8|0,0:3|0:0,0:0:0:0:
304,192,124686,2,0,P|368:176|392:112,1,130,8|0,0:3|0:0,0:0:0:0:
192,192,125095,5,8,0:3:0:0:
88,192,125232,2,0,P|104:120|168:112,1,130,0|0,0:0|0:0,0:0:0:0:
304,192,125641,1,2,0:0:0:0:
168,192,125913,2,0,L|240:192,1,65,4|4,0:3|0:3,0:0:0:0:
432,192,126186,2,0,L|352:192,1,65,12|0,0:3|0:0,0:0:0:0:
216,192,126459,2,0,L|288:192,1,65,4|0,0:3|0:0,0:0:0:0:
432,192,126732,2,0,L|352:192,1,65,4|0,0:3|0:0,0:0:0:0:
208,192,127004,2,0,P|152:176|144:144,1,65,4|0,0:3|0:0,0:0:0:0:
352,192,127277,5,4,0:0:0:0:
456,192,127413,2,0,P|488:136|424:112,1,130,8|0,0:3|0:0,0:0:0:0:
288,192,127822,1,2,0:0:0:0:
432,192,128095,2,0,L|432:128,1,65,4|0,0:3|0:0,0:0:0:0:
272,192,128368,2,0,L|192:192,1,65,8|0,0:3|0:0,0:0:0:0:
296,192,128641,2,0,P|344:160|296:112,1,130,0|2,0:0|0:0,0:0:0:0:
152,192,129050,2,0,P|72:176|48:112,1,130,0|0,0:0|0:0,0:0:0:0:
256,192,129459,5,8,0:3:0:0:
360,192,129595,2,0,P|432:152|400:104,1,130,0|0,0:0|0:0,0:0:0:0:
264,192,130004,1,2,0:0:0:0:
48,192,130277,2,0,L|128:192,1,65,4|4,0:3|0:3,0:0:0:0:
312,192,130550,2,0,L|312:128,1,65,12|0,0:3|0:0,0:0:0:0:
160,192,130822,1,8,0:3:0:0:
400,192,131095,1,8,0:3:0:0:
144,192,131368,1,8,0:3:0:0:
480,192,131641,5,4,0:0:0:0:
344,192,131777,2,0,P|248:160|240:112,1,130,8|4,0:3|0:3,0:0:0:0:
440,192,132186,2,0,P|480:144|432:112,1,130,8|0,0:3|0:0,0:0:0:0:
96,192,132732,1,4,0:0:0:0:
232,192,132868,2,0,P|320:160|320:96,1,130,8|4,0:3|0:3,0:0:0:0:
128,192,133277,2,0,P|56:176|56:104,1,130,8|0,0:3|0:0,0:0:0:0:
384,192,133822,5,4,0:0:0:0:
248,192,133959,2,0,P|232:136|288:104,1,130,8|4,0:3|0:3,0:0:0:0:
488,192,134368,2,0,P|456:128|400:128,1,130,8|0,0:3|0:0,0:0:0:0:
64,192,134913,1,4,0:0:0:0:
194,192,135050,2,0,L|50:192,1,130,8|4,0:3|0:3,0:0:0:0:
266,192,135459,2,0,L|130:192,1,130,8|0,0:3|0:0,0:0:0:0:
474,192,136004,5,4,0:0:0:0:
256,192,136277,12,0,140368,0:0:0:0:
