osu file format v14

[General]
AudioFilename: audio.mp3
AudioLeadIn: 0
PreviewTime: 61822
Countdown: 0
SampleSet: Soft
StackLeniency: 0.7
Mode: 2
LetterboxInBreaks: 0
WidescreenStoryboard: 0

[Editor]
DistanceSpacing: 0.8
BeatDivisor: 12
GridSize: 8
TimelineZoom: 1

[Metadata]
Title:Suit Up
TitleUnicode:Suit Up
Artist:Blue Stahli
ArtistUnicode:Blue Stahli
Creator:MBomb
Version:Overdose
Source:
Tags:magic bomb antisleep vol. volume 3 electronic industrial rock instrumental
BeatmapID:2222665
BeatmapSetID:1061425

[Difficulty]
HPDrainRate:6
CircleSize:4.3
OverallDifficulty:9.2
ApproachRate:9.2
SliderMultiplier:2.8
SliderTickRate:2

[Events]
//Background and Video events
0,0,"radioactive-3793510_1920.jpg",0,0
//Break Periods
//Storyboard Layer 0 (Background)
//Storyboard Layer 1 (Fail)
//Storyboard Layer 2 (Pass)
//Storyboard Layer 3 (Foreground)
//Storyboard Layer 4 (Overlay)
//Storyboard Sound Samples

[TimingPoints]
732,545.454545454546,4,2,0,51,1,0
17641,-100,4,2,0,28,0,0
18186,-100,4,2,0,79,0,1
35641,-66.6666666666667,4,2,0,51,0,0
36186,-100,4,2,0,51,0,0
60732,-66.6666666666667,4,2,0,51,0,0
61822,-100,4,2,0,79,0,1
78186,-100,4,2,0,51,0,1
79277,-100,4,2,0,51,0,0
83095,-36,4,2,0,51,0,0
83641,-100,4,2,0,51,0,0
86913,-100,4,2,0,32,0,0
87459,-100,4,2,0,51,0,0
94550,-83.3333333333333,4,2,0,51,0,0
94822,-100,4,2,0,51,0,0
113504,-100,4,2,0,28,0,0
114186,-100,4,2,0,79,0,1
115822,-52.6315789473684,4,2,0,79,0,1
116095,-100,4,2,0,79,0,1
132459,-100,4,2,0,30,0,1
132732,-100,4,2,0,79,0,1
133550,-100,4,2,0,30,0,1
133822,-100,4,2,0,79,0,1
134641,-100,4,2,0,30,0,1
134914,-100,4,2,0,79,0,1
135732,-100,4,2,0,30,0,1
136004,-100,4,2,0,52,0,0
137095,-100,4,2,0,26,0,0

[Colours]
Combo1 : 34,145,255
Combo2 : 255,128,0
Combo3 : 0,128,64

[HitObjects]
160,192,732,5,8,0:3:0:0:
352,192,868,1,8,0:3:0:0:
256,192,1004,12,0,8913,0:0:0:0:
456,192,9322,6,0,L|456:152,1,35,8|8,0:3|0:3,0:0:0:0:
312,192,9459,1,4,0:0:0:0:
120,192,9595,2,0,P|72:144|128:112,1,140,8|0,0:3|0:0,0:0:0:0:
256,192,10004,2,0,P|294:169|288:128,1,70,2|0,0:0|0:0,0:0:0:0:
256,192,10277,1,0,0:0:0:0:
184,192,10413,1,0,0:0:0:0:
40,192,10550,1,2,0:0:0:0:
184,192,10686,2,0,L|256:192,2,70,0|0|0,0:0|0:0|0:0,0:0:0:0:
328,192,11095,2,0,L|400:192,1,70,2|0,0:0|0:0,0:0:0:0:
398,192,11368,2,0,L|320:192,1,70,0|0,0:0|0:0,0:0:0:0:
184,192,11641,5,2,0:0:0:0:
328,192,11777,2,0,L|400:192,2,70
184,192,12186,2,0,L|104:192,1,70,2|0,0:0|0:0,0:0:0:0:
208,192,12459,2,0,L|288:192,1,70,0|0,0:0|0:0,0:0:0:0:
136,192,12732,1,2,0:0:0:0:
24,192,12868,1,0,0:0:0:0:
40,192,13004,1,0,0:0:0:0:
114,192,13141,1,0,0:0:0:0:
256,192,13277,2,0,L|328:192,2,70,2|0|0,0:0|0:0|0:0,0:0:0:0:
56,192,13686,2,0,L|96:192,1,35,8|8,0:3|0:3,0:0:0:0:
216,192,13822,5,12,1:1:0:0:
368,192,14095,1,4,0:3:0:0:
216,192,14368,1,4,0:3:0:0:
368,192,14641,1,4,0:3:0:0:
144,192,14913,2,0,L|64:192,1,70,4|0,0:3|0:0,0:0:0:0:
216,192,15186,2,0,L|296:192,1,70,4|0,0:3|0:0,0:0:0:0:
144,192,15459,2,0,L|64:192,1,70,4|0,0:3|0:0,0:0:0:0:
216,192,15732,2,0,L|296:192,1,70,4|0,0:3|0:0,0:0:0:0:
74,192,16004,5,12,0:3:0:0:
272,192,16141,1,4,0:3:0:0:
464,192,16277,1,4,0:3:0:0:
272,192,16413,1,4,0:3:0:0:
464,192,16550,1,12,0:3:0:0:
272,192,16686,1,4,0:3:0:0:
74,192,16822,1,4,0:3:0:0:
272,192,16959,1,4,0:3:0:0:
74,192,17095,2,0,P|40:168|136:21,1,280,4|0,0:0|0:0,0:0:0:0:
137,192,17777,2,0,P|80:184|48:112,1,140,0|0,0:0|0:0,0:0:0:0:
248,192,18186,5,4,0:0:0:0:
56,192,18322,2,0,L|128:192,1,70,8|0,0:3|0:0,0:0:0:0:
264,192,18595,1,0,0:0:0:0:
72,192,18732,2,0,L|142:192,1,70,2|0,0:3|0:0,0:0:0:0:
216,192,19004,2,0,L|288:192,1,70,0|0,0:0|0:0,0:0:0:0:
142,192,19277,2,0,L|216:192,1,70,8|0,0:3|0:0,0:0:0:0:
352,192,19550,2,0,L|352:120,1,70,0|0,0:0|0:0,0:0:0:0:
216,192,19822,1,2,0:3:0:0:
352,192,19959,1,0,0:0:0:0:
424,192,20095,1,0,0:0:0:0:
456,192,20232,1,0,0:0:0:0:
256,192,20368,5,8,0:3:0:0:
64,192,20504,2,0,P|32:176|24:144,1,70,0|0,0:0|0:0,0:0:0:0:
168,192,20777,1,0,0:0:0:0:
360,192,20913,2,0,L|432:192,1,70,2|0,0:3|0:0,0:0:0:0:
344,192,21186,2,0,L|432:192,1,70,0|0,0:0|0:0,0:0:0:0:
200,192,21459,1,12,0:3:0:0:
328,192,21595,1,0,0:0:0:0:
192,192,21732,1,4,0:3:0:0:
336,192,21868,1,0,0:0:0:0:
104,192,22004,1,6,0:3:0:0:
296,192,22141,1,4,0:3:0:0:
488,192,22277,2,0,L|488:120,1,70,4|0,0:3|0:0,0:0:0:0:
272,192,22550,5,4,0:0:0:0:
464,192,22686,2,0,L|392:192,1,70,8|0,0:3|0:0,0:0:0:0:
240,192,22959,1,0,0:0:0:0:
432,192,23095,2,0,P|490:175|496:160,1,70,2|0,0:3|0:0,0:0:0:0:
416,192,23368,2,0,L|496:192,1,70,0|0,0:0|0:0,0:0:0:0:
344,192,23641,2,0,L|264:192,1,70,8|0,0:3|0:0,0:0:0:0:
416,192,23913,2,0,L|416:112,1,70,0|0,0:0|0:0,0:0:0:0:
274,192,24186,1,2,0:3:0:0:
144,192,24322,1,0,0:0:0:0:
72,192,24459,1,0,0:0:0:0:
72,192,24595,1,0,0:0:0:0:
274,192,24732,5,8,0:3:0:0:
472,192,24868,2,0,L|400:192,1,70,0|0,0:0|0:0,0:0:0:0:
256,192,25141,1,0,0:0:0:0:
56,192,25277,2,0,L|136:192,1,70,2|0,0:3|0:0,0:0:0:0:
40,192,25550,2,0,L|112:192,1,70,0|0,0:0|0:0,0:0:0:0:
312,192,25822,2,0,L|240:192,2,70,12|0|0,0:3|0:0|0:0,0:0:0:0:
104,192,26232,2,0,L|176:192,2,70,12|0|0,0:3|0:0|0:0,0:0:0:0:
312,192,26641,2,0,L|224:192,1,70,12|0,0:3|0:0,0:0:0:0:
448,192,26913,5,4,0:0:0:0:
240,192,27050,2,0,L|168:192,1,70,8|0,0:3|0:0,0:0:0:0:
312,192,27322,1,0,0:0:0:0:
112,192,27459,2,0,L|40:192,1,70,2|0,0:3|0:0,0:0:0:0:
128,192,27732,2,0,L|56:192,1,70,0|0,0:0|0:0,0:0:0:0:
256,192,28004,2,0,P|288:168|280:136,1,70,8|0,0:3|0:0,0:0:0:0:
136,192,28277,2,0,L|64:192,1,70,0|0,0:0|0:0,0:0:0:0:
272,192,28550,1,2,0:3:0:0:
144,192,28686,1,0,0:0:0:0:
72,192,28822,1,0,0:0:0:0:
96,192,28959,1,0,0:0:0:0:
296,192,29095,5,8,0:3:0:0:
496,192,29232,2,0,L|416:192,1,70,0|0,0:0|0:0,0:0:0:0:
280,192,29504,1,0,0:0:0:0:
88,192,29641,1,2,0:3:0:0:
32,192,29777,1,0,0:0:0:0:
88,192,29913,1,0,0:0:0:0:
176,192,30050,1,0,0:0:0:0:
376,192,30186,1,12,0:3:0:0:
248,192,30322,1,0,0:0:0:0:
384,192,30459,1,4,0:3:0:0:
240,192,30595,1,0,0:0:0:0:
456,192,30732,1,6,0:3:0:0:
256,192,30868,1,4,0:3:0:0:
64,192,31004,2,0,P|24:152|24:144,1,70,4|0,0:3|0:0,0:0:0:0:
224,192,31277,5,4,0:0:0:0:
24,192,31413,2,0,L|104:192,1,70,8|0,0:3|0:0,0:0:0:0:
240,192,31686,1,0,0:0:0:0:
448,192,31822,2,0,L|376:192,1,70,2|0,0:3|0:0,0:0:0:0:
464,192,32095,2,0,L|384:192,1,70,0|0,0:0|0:0,0:0:0:0:
192,192,32368,2,0,L|112:192,1,70,8|0,0:3|0:0,0:0:0:0:
272,192,32641,2,0,L|360:192,1,70,0|0,0:0|0:0,0:0:0:0:
144,192,32913,1,2,0:3:0:0:
272,192,33050,1,0,0:0:0:0:
360,192,33186,1,0,0:0:0:0:
408,192,33322,1,0,0:0:0:0:
208,192,33459,5,8,0:3:0:0:
16,192,33595,2,0,L|96:192,1,70,0|0,0:0|0:0,0:0:0:0:
232,192,33868,1,0,0:0:0:0:
32,192,34004,2,0,L|104:192,1,70,2|0,0:3|0:0,0:0:0:0:
184,192,34277,1,0,0:0:0:0:
328,192,34413,1,0,0:0:0:0:
128,192,34550,1,12,0:3:0:0:
256,192,34686,1,0,0:0:0:0:
120,192,34822,1,0,0:0:0:0:
264,192,34959,1,0,0:0:0:0:
120,192,35095,1,0,0:0:0:0:
264,192,35232,1,0,0:0:0:0:
464,192,35368,2,0,P|480:152|464:128,1,70,4|0,0:3|0:0,0:0:0:0:
240,192,35641,6,0,P|168:176|160:56,1,210.000008010865,4|0,0:0|0:0,0:0:0:0:
384,192,36186,1,4,0:3:0:0:
152,192,36459,2,0,L|152:120,1,70
296,192,36732,1,8,0:3:0:0:
222,192,36868,1,0,0:0:0:0:
368,192,37004,1,0,0:0:0:0:
222,192,37141,1,0,0:0:0:0:
24,192,37277,1,4,0:3:0:0:
240,192,37550,2,0,L|242:120,1,70,0|0,0:0|0:0,0:0:0:0:
48,192,37822,6,0,L|128:192,3,70,8|0|0|0,0:3|0:0|0:0|0:0,0:0:0:0:
320,192,38368,1,4,0:3:0:0:
118,192,38641,2,0,L|62:136,1,70
272,192,38913,2,0,P|320:160|264:128,1,140,8|0,0:3|0:0,0:0:0:0:
72,192,39322,2,0,L|160:192,2,70,8|4|0,0:3|0:3|0:0,0:0:0:0:
280,192,39732,2,0,L|350:192,1,70,8|0,0:3|0:0,0:0:0:0:
144,192,40004,6,0,P|96:152|144:112,1,140,4|0,0:0|0:0,0:0:0:0:
224,192,40413,1,0,0:0:0:0:
424,192,40550,1,4,0:3:0:0:
224,192,40822,2,0,L|152:192,1,70
296,192,41095,2,0,L|320:192,1,23.3333333333333
424,192,41232,2,0,L|400:192,1,23.3333333333333
296,192,41368,2,0,L|264:192,1,23.3333333333333
168,192,41504,2,0,L|208:192,1,23.3333333333333
368,192,41641,1,4,0:3:0:0:
168,192,41913,2,0,L|168:120,1,70,0|0,0:0|0:0,0:0:0:0:
368,192,42186,6,0,L|280:192,3,70,8|0|0|8,0:3|0:0|0:0|0:3,0:0:0:0:
96,192,42732,1,4,0:3:0:0:
96,192,43004,2,0,L|176:192,1,70,0|0,0:0|0:0,0:0:0:0:
368,192,43277,2,0,P|432:160|400:112,1,140,8|0,0:3|0:0,0:0:0:0:
201,192,43686,2,0,L|153:192,1,35,8|8,0:3|0:3,0:0:0:0:
296,192,43822,2,0,P|344:168|336:136,1,70,4|0,0:3|0:0,0:0:0:0:
128,192,44095,1,0,0:0:0:0:
80,192,44186,1,0,0:0:0:0:
128,192,44277,1,0,0:0:0:0:
288,192,44368,6,0,P|368:160|384:96,1,140,4|0,0:0|0:0,0:0:0:0:
24,192,44913,1,4,0:3:0:0:
152,192,45050,1,0,0:0:0:0:
48,192,45186,1,0,0:0:0:0:
128,192,45322,1,0,0:0:0:0:
328,192,45459,2,0,L|416:192,1,70,8|0,0:3|0:0,0:0:0:0:
256,192,45732,2,0,L|176:192,1,70,2|0,0:0|0:0,0:0:0:0:
398,192,46004,2,0,L|472:192,1,70,4|0,0:3|0:0,0:0:0:0:
328,192,46277,2,0,L|408:192,1,70,0|0,0:0|0:0,0:0:0:0:
184,192,46550,5,8,0:3:0:0:
256,192,46686,1,0,0:0:0:0:
328,192,46822,1,0,0:0:0:0:
256,192,46959,1,0,0:0:0:0:
64,192,47095,1,2,0:2:0:0:
256,192,47232,1,2,0:0:0:0:
448,192,47368,1,2,0:0:0:0:
256,192,47504,1,2,0:0:0:0:
64,192,47641,2,0,P|80:137|168:112,1,140,8|0,0:3|0:0,0:0:0:0:
352,192,48050,2,0,L|272:192,2,70,8|4|0,0:3|0:3|0:0,0:0:0:0:
152,192,48459,2,0,L|72:192,1,70,8|0,0:3|0:0,0:0:0:0:
304,192,48732,6,0,P|376:176|424:112,1,140,4|0,0:0|0:0,0:0:0:0:
56,192,49277,1,4,0:3:0:0:
184,192,49413,1,0,0:0:0:0:
312,192,49550,2,0,L|392:192,1,70,0|0,0:0|0:0,0:0:0:0:
184,192,49822,2,0,P|112:160|144:96,1,140,8|2,0:3|0:0,0:0:0:0:
200,192,50232,1,0,0:0:0:0:
400,192,50368,1,4,0:3:0:0:
472,192,50504,1,0,0:0:0:0:
472,192,50641,1,0,0:0:0:0:
400,192,50777,1,0,0:0:0:0:
200,192,50913,6,0,L|280:192,3,70,8|0|0|8,0:3|0:0|0:0|0:3,0:0:0:0:
72,192,51459,2,0,L|160:192,1,70,4|0,0:3|0:0,0:0:0:0:
288,192,51732,1,0,0:0:0:0:
144,192,51868,1,0,0:0:0:0:
352,192,52004,2,0,L|424:192,2,70,8|0|0,0:3|0:0|0:0,0:0:0:0:
152,192,52413,1,0,0:0:0:0:
352,192,52550,1,4,0:3:0:0:
280,192,52686,1,0,0:0:0:0:
416,192,52822,1,0,0:0:0:0:
272,192,52959,1,0,0:0:0:0:
472,192,53095,6,0,L|472:120,1,70,4|0,0:0|0:0,0:0:0:0:
344,192,53504,2,0,L|344:120,1,70,0|8,0:0|0:3,0:0:0:0:
472,192,53913,2,0,L|400:192,1,70,0|0,0:0|0:0,0:0:0:0:
256,192,54186,2,0,L|176:192,1,70,8|0,0:3|0:0,0:0:0:0:
344,192,54595,2,0,L|416:192,1,70,0|8,0:0|0:3,0:0:0:0:
256,192,55004,2,0,L|176:192,1,70,0|0,0:0|0:0,0:0:0:0:
328,192,55277,6,0,L|408:192,1,70,8|0,0:3|0:0,0:0:0:0:
248,192,55686,2,0,L|336:192,1,70,0|8,0:0|0:3,0:0:0:0:
472,192,56095,2,0,L|384:192,1,70,0|0,0:0|0:0,0:0:0:0:
256,192,56368,2,0,L|184:192,1,70,8|0,0:3|0:0,0:0:0:0:
48,192,56777,2,0,L|120:192,1,70,0|8,0:0|0:3,0:0:0:0:
256,192,57186,2,0,L|328:192,1,70
118,192,57459,6,0,L|120:120,1,70,8|0,0:3|0:0,0:0:0:0:
202,191,57732,2,0,L|202:119,1,70,8|0,0:3|0:0,0:0:0:0:
118,192,58004,2,0,L|86:128,1,70,8|0,0:3|0:0,0:0:0:0:
202,191,58277,2,0,L|234:127,1,70,8|0,0:3|0:0,0:0:0:0:
120,192,58550,2,0,L|56:160,1,70,8|0,0:3|0:0,0:0:0:0:
202,191,58822,2,0,L|266:159,1,70,8|0,0:3|0:0,0:0:0:0:
120,192,59095,2,0,L|32:192,1,70,8|0,0:3|0:0,0:0:0:0:
202,191,59368,2,0,L|290:191,1,70,8|0,0:3|0:0,0:0:0:0:
50,192,59641,5,8,0:3:0:0:
120,192,59777,1,8,0:3:0:0:
50,192,59913,1,8,0:3:0:0:
120,192,60050,1,8,0:3:0:0:
320,192,60186,1,8,0:3:0:0:
376,192,60254,1,8,0:3:0:0:
376,192,60322,1,8,0:3:0:0:
320,192,60391,1,8,0:3:0:0:
192,192,60458,1,8,0:3:0:0:
136,192,60526,1,8,0:3:0:0:
136,192,60594,1,8,0:3:0:0:
192,192,60663,1,8,0:3:0:0:
376,192,60732,2,0,B|448:184|448:184|432:48,1,210.000008010865,4|0,0:0|0:0,0:0:0:0:
432,192,61686,1,0,0:0:0:0:
216,192,61822,5,4,0:0:0:0:
416,192,61959,2,0,L|487:192,1,70,8|0,0:3|0:0,0:0:0:0:
344,192,62232,1,0,0:0:0:0:
144,192,62368,2,0,L|64:192,1,70,2|0,0:3|0:0,0:0:0:0:
160,192,62641,2,0,L|88:192,1,70,0|0,0:0|0:0,0:0:0:0:
232,192,62913,2,0,L|312:192,1,70,8|0,0:3|0:0,0:0:0:0:
160,192,63186,2,0,L|160:104,1,70,0|0,0:0|0:0,0:0:0:0:
302,192,63459,1,2,0:3:0:0:
432,192,63595,2,0,L|496:160,2,70,0|0|0,0:0|0:0|0:0,0:0:0:0:
232,192,64004,5,8,0:3:0:0:
32,192,64141,2,0,L|120:192,1,70,0|0,0:0|0:0,0:0:0:0:
248,192,64413,1,0,0:0:0:0:
48,192,64550,2,0,P|32:160|56:144,1,70,2|0,0:3|0:0,0:0:0:0:
128,192,64822,1,0,0:0:0:0:
208,192,64959,1,0,0:0:0:0:
400,192,65095,1,12,0:3:0:0:
272,192,65232,1,0,0:0:0:0:
408,192,65368,1,4,0:3:0:0:
264,192,65504,1,0,0:0:0:0:
472,192,65641,1,6,0:3:0:0:
264,192,65777,1,4,0:3:0:0:
64,192,65913,2,0,P|24:160|48:136,1,70,4|0,0:3|0:0,0:0:0:0:
240,192,66186,5,4,0:0:0:0:
40,192,66322,2,0,L|120:192,1,70,8|0,0:3|0:0,0:0:0:0:
256,192,66595,1,0,0:0:0:0:
464,192,66732,2,0,L|384:192,1,70,2|0,0:3|0:0,0:0:0:0:
480,192,67004,2,0,L|392:192,1,70,0|0,0:0|0:0,0:0:0:0:
264,192,67277,2,0,L|184:192,1,70,8|0,0:3|0:0,0:0:0:0:
336,192,67550,2,0,L|336:112,1,70,0|0,0:0|0:0,0:0:0:0:
194,192,67822,1,2,0:3:0:0:
336,192,67959,1,0,0:0:0:0:
408,192,68095,1,0,0:0:0:0:
448,192,68232,1,0,0:0:0:0:
256,192,68368,5,8,0:3:0:0:
64,192,68504,2,0,L|144:192,1,70,0|0,0:0|0:0,0:0:0:0:
280,192,68777,1,0,0:0:0:0:
88,192,68913,2,0,L|16:192,1,70,2|0,0:3|0:0,0:0:0:0:
18,192,69186,1,0,0:0:0:0:
88,192,69322,1,0,0:0:0:0:
320,192,69459,2,0,L|392:192,1,70,2|0,0:3|0:0,0:0:0:0:
184,192,69732,1,2,0:3:0:0:
392,192,69868,1,2,0:3:0:0:
184,192,70004,1,2,0:3:0:0:
392,192,70141,1,2,0:3:0:0:
184,192,70277,2,0,L|104:192,1,70,4|4,0:3|0:3,0:0:0:0:
328,192,70550,5,4,0:0:0:0:
128,192,70686,2,0,L|56:192,1,70,8|0,0:3|0:0,0:0:0:0:
200,192,70959,1,0,0:0:0:0:
398,192,71095,2,0,L|318:192,1,70,2|0,0:3|0:0,0:0:0:0:
408,192,71368,2,0,L|312:192,1,70,0|0,0:0|0:0,0:0:0:0:
136,192,71641,1,8,0:3:0:0:
136,192,71777,1,0,0:0:0:0:
280,192,71913,2,0,L|280:120,1,70,0|0,0:0|0:0,0:0:0:0:
80,192,72186,1,2,0:3:0:0:
200,192,72322,1,0,0:0:0:0:
128,192,72459,1,0,0:0:0:0:
56,192,72595,1,0,0:0:0:0:
256,192,72732,5,8,0:3:0:0:
456,192,72868,2,0,L|376:192,1,70,0|0,0:0|0:0,0:0:0:0:
240,192,73141,1,0,0:0:0:0:
440,192,73277,2,0,L|440:120,1,70,2|0,0:3|0:0,0:0:0:0:
368,192,73550,1,0,0:0:0:0:
280,192,73686,1,0,0:0:0:0:
80,192,73822,1,12,0:3:0:0:
208,192,73959,1,0,0:0:0:0:
72,192,74095,1,4,0:3:0:0:
216,192,74232,1,0,0:0:0:0:
16,192,74368,1,6,0:3:0:0:
216,192,74504,1,4,0:3:0:0:
416,192,74641,2,0,L|488:192,1,70,4|0,0:3|0:0,0:0:0:0:
280,192,74913,5,4,0:0:0:0:
480,192,75050,2,0,L|408:192,1,70,8|0,0:3|0:0,0:0:0:0:
264,192,75322,1,0,0:0:0:0:
64,192,75459,2,0,L|160:192,1,70,2|0,0:3|0:0,0:0:0:0:
48,192,75732,2,0,L|128:192,1,70,0|0,0:0|0:0,0:0:0:0:
320,192,76004,2,0,L|392:192,1,70,8|0,0:3|0:0,0:0:0:0:
240,192,76277,2,0,L|240:104,1,70,0|0,0:0|0:0,0:0:0:0:
440,192,76550,1,2,0:3:0:0:
320,192,76686,1,0,0:0:0:0:
390,192,76822,1,0,0:0:0:0:
456,192,76959,1,0,0:0:0:0:
256,192,77095,5,8,0:3:0:0:
56,192,77232,2,0,L|128:192,1,70,0|0,0:0|0:0,0:0:0:0:
272,192,77504,1,0,0:0:0:0:
64,192,77641,2,0,P|24:184|32:128,1,70,2|0,0:3|0:0,0:0:0:0:
80,192,77913,1,0,0:0:0:0:
160,192,78050,1,0,0:0:0:0:
360,192,78186,2,0,P|335:135|256:120,1,140,12|0,0:3|0:0,0:0:0:0:
64,192,78595,2,0,P|88:135|168:120,1,140,12|0,0:3|0:0,0:0:0:0:
368,192,79004,2,0,L|288:192,1,70,12|0,0:3|0:0,0:0:0:0:
88,192,79277,6,0,P|40:144|88:120,1,140,4|0,0:0|0:0,0:0:0:0:
438,192,79822,2,0,L|366:192,1,70,4|0,0:3|0:0,0:0:0:0:
224,192,80095,1,0,0:0:0:0:
368,192,80232,2,0,L|448:192,1,70,0|8,0:0|0:3,0:0:0:0:
296,192,80504,1,0,0:0:0:0:
438,192,80641,2,0,L|358:192,1,70,0|0,0:0|0:0,0:0:0:0:
168,192,80913,2,0,L|192:192,1,23.3333333333333,4|0,0:3|0:0,0:0:0:0:
296,192,81050,2,0,L|328:192,1,23.3333333333333
424,192,81186,2,0,L|400:192,1,23.3333333333333
296,192,81322,2,0,L|272:192,1,23.3333333333333
98,192,81459,6,0,L|178:192,3,70,8|0|0|0,0:3|0:0|0:0|0:0,0:0:0:0:
368,192,82004,2,0,L|440:192,1,70,4|0,0:3|0:0,0:0:0:0:
296,192,82277,1,0,0:0:0:0:
160,192,82413,2,0,L|88:192,1,70,0|8,0:0|0:3,0:0:0:0:
232,192,82686,1,0,0:0:0:0:
88,192,82822,1,0,0:0:0:0:
232,192,82959,1,0,0:0:0:0:
432,192,83095,2,0,L|32:192,1,388.888888888889,4|2,0:3|0:0,0:0:0:0:
432,192,83641,6,0,P|472:128|424:112,1,140,4|0,0:0|0:0,0:0:0:0:
72,192,84186,2,0,L|144:192,1,70,4|0,0:3|0:0,0:0:0:0:
288,192,84459,1,0,0:0:0:0:
142,192,84595,2,0,L|64:192,1,70,0|8,0:0|0:3,0:0:0:0:
216,192,84868,1,0,0:0:0:0:
72,192,85004,2,0,L|144:192,1,70,0|0,0:0|0:0,0:0:0:0:
360,192,85277,2,0,L|432:192,1,70,4|0,0:3|0:0,0:0:0:0:
232,192,85550,1,0,0:0:0:0:
432,192,85686,1,0,0:0:0:0:
296,192,85754,1,0,0:0:0:0:
160,192,85822,6,0,L|80:192,3,70,8|0|0|0,0:3|0:0|0:0|0:0,0:0:0:0:
288,192,86368,2,0,L|376:192,1,70,4|0,0:3|0:0,0:0:0:0:
280,192,86641,1,0,0:0:0:0:
358,192,86777,1,0,0:0:0:0:
152,192,86913,1,4,0:1:0:0:
152,192,87050,2,0,L|232:192,1,70,0|0,0:0|0:0,0:0:0:0:
368,192,87322,1,0,0:0:0:0:
168,192,87459,1,8,0:3:0:0:
32,192,87595,1,4,0:3:0:0:
168,192,87732,1,4,0:3:0:0:
32,192,87868,1,4,0:3:0:0:
240,192,88004,6,0,P|312:176|344:120,1,140,4|0,0:0|0:0,0:0:0:0:
264,192,88413,1,0,0:0:0:0:
64,192,88550,2,0,L|138:192,1,70,4|0,0:3|0:0,0:0:0:0:
280,192,88822,1,0,0:0:0:0:
416,192,88959,2,0,L|336:192,1,70,0|8,0:0|0:3,0:0:0:0:
200,192,89232,1,0,0:0:0:0:
344,192,89368,2,0,L|424:192,1,70,0|0,0:0|0:0,0:0:0:0:
216,192,89641,1,4,0:3:0:0:
416,192,89777,1,2,0:0:0:0:
288,192,89913,1,2,0:0:0:0:
488,192,90050,1,2,0:0:0:0:
270,192,90186,6,0,L|198:192,3,70,8|0|0|0,0:3|0:0|0:0|0:0,0:0:0:0:
400,192,90732,2,0,L|400:120,1,70,4|0,0:3|0:0,0:0:0:0:
256,192,91004,1,0,0:0:0:0:
120,192,91141,2,0,L|120:120,1,70,0|8,0:0|0:3,0:0:0:0:
256,192,91413,1,0,0:0:0:0:
120,192,91550,1,0,0:0:0:0:
256,192,91686,1,0,0:0:0:0:
456,192,91822,1,4,0:3:0:0:
256,192,91959,2,0,L|280:192,1,23.3333333333333,2|0,0:0|0:0,0:0:0:0:
384,192,92095,2,0,L|360:192,1,23.3333333333333,2|0,0:0|0:0,0:0:0:0:
184,192,92232,2,0,L|208:192,1,23.3333333333333,2|0,0:0|0:0,0:0:0:0:
408,192,92368,6,0,P|456:160|392:128,1,140,4|0,0:0|0:0,0:0:0:0:
328,192,92777,1,0,0:0:0:0:
128,192,92913,2,0,L|32:192,1,70,4|0,0:3|0:0,0:0:0:0:
200,192,93186,1,0,0:0:0:0:
56,192,93322,2,0,L|128:192,1,70,0|8,0:0|0:3,0:0:0:0:
272,192,93595,1,0,0:0:0:0:
408,192,93732,2,0,L|328:192,1,70,0|0,0:0|0:0,0:0:0:0:
120,192,94004,1,4,0:3:0:0:
322,192,94141,1,2,0:0:0:0:
96,192,94277,1,2,0:0:0:0:
224,192,94345,1,2,0:0:0:0:
352,192,94413,1,2,0:0:0:0:
480,192,94482,1,2,0:0:0:0:
352,192,94550,6,0,L|256:192,1,83.9999974365235,8|0,0:3|0:0,0:0:0:0:
336,192,94822,2,0,L|264:192,1,70
72,192,95095,1,4,0:3:0:0:
200,192,95232,1,0,0:0:0:0:
64,192,95368,1,0,0:0:0:0:
208,192,95504,1,0,0:0:0:0:
424,192,95641,1,2,0:3:0:0:
296,192,95777,1,8,0:3:0:0:
496,192,95913,1,4,0:3:0:0:
368,192,96050,1,4,0:3:0:0:
168,192,96186,1,6,0:3:0:0:
32,192,96322,1,4,0:3:0:0:
144,192,96459,1,4,0:3:0:0:
56,192,96595,1,4,0:3:0:0:
256,192,96732,5,12,0:3:0:0:
448,192,96868,2,0,P|488:136|440:112,1,140,8|0,0:3|0:0,0:0:0:0:
368,192,97277,1,2,0:0:0:0:
296,192,97413,1,0,0:0:0:0:
368,192,97550,1,0,0:0:0:0:
296,192,97686,1,0,0:0:0:0:
152,192,97959,2,0,L|232:192,1,70,0|0,0:0|0:0,0:0:0:0:
368,192,98368,2,0,L|440:192,1,70,2|0,0:0|0:0,0:0:0:0:
368,192,98641,2,0,L|280:192,1,70,0|0,0:0|0:0,0:0:0:0:
152,192,98913,6,0,P|112:192|88:152,1,70,2|0,0:0|0:0,0:0:0:0:
240,192,99322,2,0,L|288:136,1,70,0|2,0:0|0:0,0:0:0:0:
152,192,99732,1,0,0:0:0:0:
288,192,99868,1,0,0:0:0:0:
144,192,100141,2,0,L|216:192,1,70,0|0,0:0|0:0,0:0:0:0:
72,192,100550,2,0,L|24:128,1,70,2|0,0:0|0:0,0:0:0:0:
80,192,100822,1,0,0:0:0:0:
160,192,100959,1,0,0:0:0:0:
304,192,101095,6,0,L|352:128,1,70,4|0,0:1|0:0,0:0:0:0:
200,192,101504,2,0,L|288:192,1,70,0|2,0:0|0:0,0:0:0:0:
416,192,101913,2,0,L|344:192,1,70,0|0,0:0|0:0,0:0:0:0:
208,192,102322,1,0,0:0:0:0:
346,192,102459,1,0,0:0:0:0:
486,192,102732,2,0,L|414:192,3,70,2|0|0|0,0:0|0:0|0:0|0:0,0:0:0:0:
272,192,103277,6,0,L|192:192,1,70,2|0,0:0|0:0,0:0:0:0:
360,192,103686,2,0,L|432:192,2,70,0|2|0,0:0|0:0|0:0,0:0:0:0:
280,192,104095,2,0,L|232:128,1,70,0|0,0:0|0:0,0:0:0:0:
440,192,104368,2,0,B|504:160|504:160|440:192,1,140,8|0,0:3|0:0,0:0:0:0:
232,192,104777,2,0,P|160:168|152:104,1,140,8|0,0:3|0:0,0:0:0:0:
352,192,105186,2,0,L|440:192,1,70,8|0,0:3|0:0,0:0:0:0:
224,192,105459,5,8,0:3:0:0:
424,192,105595,2,0,L|496:192,1,70,8|0,0:3|0:0,0:0:0:0:
240,192,106004,2,0,P|160:168|152:112,1,140,2|0,0:3|0:0,0:0:0:0:
224,192,106413,2,0,P|272:144|216:120,1,140,0|0,0:0|0:0,0:0:0:0:
88,192,106822,1,8,0:3:0:0:
336,192,107095,2,0,P|408:168|432:104,1,140,2|0,0:3|0:0,0:0:0:0:
352,192,107504,1,0,0:0:0:0:
208,192,107641,6,0,L|128:192,1,70,8|0,0:3|0:0,0:0:0:0:
288,192,108050,1,0,0:0:0:0:
432,192,108186,2,0,P|472:160|416:112,1,140,2|0,0:3|0:0,0:0:0:0:
344,192,108595,2,0,P|273:183|248:112,1,140,0|0,0:0|0:0,0:0:0:0:
384,192,109004,1,8,0:3:0:0:
160,192,109277,2,0,L|80:192,1,70,2|0,0:3|0:0,0:0:0:0:
232,192,109550,2,0,L|312:192,1,70,2|0,0:0|0:0,0:0:0:0:
104,192,109822,5,8,0:3:0:0:
304,192,109959,1,8,0:3:0:0:
440,192,110095,2,0,L|440:120,1,70,4|0,0:3|0:0,0:0:0:0:
304,192,110368,2,0,L|304:120,1,70,4|0,0:3|0:0,0:0:0:0:
440,192,110641,2,0,L|408:128,1,70,4|0,0:3|0:0,0:0:0:0:
272,192,110913,2,0,L|304:128,1,70,4|0,0:3|0:0,0:0:0:0:
448,192,111186,2,0,L|384:152,1,70,4|0,0:3|0:0,0:0:0:0:
248,192,111459,2,0,L|312:152,1,70,4|0,0:3|0:0,0:0:0:0:
448,192,111732,2,0,L|368:192,1,70,4|0,0:3|0:0,0:0:0:0:
168,192,112004,5,4,0:3:0:0:
312,192,112141,1,4,0:3:0:0:
168,192,112277,1,4,0:3:0:0:
384,192,112413,1,4,0:3:0:0:
128,192,112550,1,4,0:3:0:0:
72,192,112618,1,4,0:3:0:0:
72,192,112686,1,4,0:3:0:0:
128,192,112755,1,4,0:3:0:0:
256,192,112822,1,4,0:3:0:0:
312,192,112890,1,4,0:3:0:0:
312,192,112958,1,4,0:3:0:0:
256,192,113027,1,4,0:3:0:0:
112,192,113096,2,0,P|56:184|88:72,1,210,4|0,0:0|0:0,0:0:0:0:
88,192,113777,2,0,B|24:192|24:192|24:88,1,140,0|0,0:0|0:0,0:0:0:0:
224,192,114186,5,4,0:0:0:0:
80,192,114322,2,0,L|152:192,1,70,8|0,0:3|0:0,0:0:0:0:
296,192,114595,1,0,0:0:0:0:
496,192,114732,2,0,L|416:192,1,70,2|0,0:0|0:0,0:0:0:0:
288,192,115004,2,0,L|240:136,1,70,4|0,0:3|0:0,0:0:0:0:
440,192,115277,1,8,0:3:0:0:
312,192,115413,1,0,0:0:0:0:
440,192,115550,2,0,L|480:192,2,35,0|0|0,0:0|0:0|0:0,0:0:0:0:
232,192,115822,2,0,L|368:192,1,132.999996448517,2|0,0:0|0:0,0:0:0:0:
168,192,116095,1,2,0:0:0:0:
376,192,116232,2,0,L|416:192,1,35,2|0,0:0|0:0,0:0:0:0:
264,192,116368,5,8,0:3:0:0:
120,192,116504,2,0,L|32:192,1,70,0|0,0:0|0:0,0:0:0:0:
192,192,116777,1,0,0:0:0:0:
392,192,116913,2,0,L|464:192,1,70,2|0,0:0|0:0,0:0:0:0:
320,192,117186,2,0,L|400:192,1,70,4|0,0:3|0:0,0:0:0:0:
192,192,117459,2,0,L|192:120,1,70,8|0,0:3|0:0,0:0:0:0:
390,192,117732,1,2,0:0:0:0:
192,192,117868,1,0,0:0:0:0:
332,192,118004,1,2,0:0:0:0:
206,192,118141,1,0,0:0:0:0:
336,192,118277,1,0,0:0:0:0:
203,192,118413,2,0,L|163:192,1,35,0|0,0:0|0:0,0:0:0:0:
296,192,118550,5,8,0:3:0:0:
488,192,118686,2,0,L|418:192,1,70,0|0,0:0|0:0,0:0:0:0:
272,192,118959,1,0,0:0:0:0:
72,192,119095,2,0,L|160:192,1,70,2|0,0:0|0:0,0:0:0:0:
288,192,119368,1,4,0:3:0:0:
142,192,119504,1,4,0:3:0:0:
344,192,119641,1,8,0:3:0:0:
120,192,119913,1,4,0:3:0:0:
480,192,120186,2,0,L|408:192,1,70,8|0,0:3|0:0,0:0:0:0:
264,192,120459,1,2,0:0:0:0:
464,192,120595,1,2,0:0:0:0:
256,192,120732,5,8,0:3:0:0:
64,192,120868,2,0,L|160:192,1,70,0|0,0:0|0:0,0:0:0:0:
280,192,121141,1,0,0:0:0:0:
88,192,121277,2,0,L|16:192,1,70,2|0,0:0|0:0,0:0:0:0:
160,192,121550,1,4,0:3:0:0:
16,192,121686,1,4,0:3:0:0:
256,192,121822,2,0,P|336:160|360:104,1,140,8|0,0:3|0:0,0:0:0:0:
104,192,122232,2,0,P|64:144|128:128,1,140,8|0,0:3|0:0,0:0:0:0:
344,192,122641,2,0,L|424:192,1,70,8|0,0:3|0:0,0:0:0:0:
176,192,122913,5,4,0:0:0:0:
384,192,123050,2,0,L|464:192,1,70,8|0,0:3|0:0,0:0:0:0:
312,192,123322,1,0,0:0:0:0:
112,192,123459,2,0,L|24:192,1,70,2|0,0:0|0:0,0:0:0:0:
182,192,123732,2,0,L|110:192,1,70,4|0,0:3|0:0,0:0:0:0:
312,192,124004,1,8,0:3:0:0:
392,192,124141,1,4,0:3:0:0:
182,192,124277,2,0,P|168:152|240:112,1,140,8|0,0:3|0:0,0:0:0:0:
464,192,124686,2,0,P|488:128|416:112,1,140,8|0,0:3|0:0,0:0:0:0:
216,192,125095,5,8,0:3:0:0:
16,192,125232,2,0,L|88:192,1,70,0|0,0:0|0:0,0:0:0:0:
232,192,125504,1,0,0:0:0:0:
432,192,125641,2,0,L|464:128,1,70,2|0,0:0|0:0,0:0:0:0:
320,192,125913,1,4,0:3:0:0:
464,192,126050,1,4,0:3:0:0:
264,192,126186,1,12,0:3:0:0:
392,192,126322,1,0,0:0:0:0:
264,192,126459,1,4,0:3:0:0:
392,192,126595,1,0,0:0:0:0:
264,192,126732,1,4,0:3:0:0:
392,192,126868,1,0,0:0:0:0:
168,192,127004,2,0,L|96:192,1,70,4|0,0:3|0:0,0:0:0:0:
296,192,127277,5,4,0:0:0:0:
488,192,127413,2,0,L|416:192,1,70,8|0,0:3|0:0,0:0:0:0:
272,192,127686,1,0,0:0:0:0:
80,192,127822,2,0,L|168:192,1,70,2|0,0:0|0:0,0:0:0:0:
16,192,128095,2,0,L|96:192,1,70,4|0,0:3|0:0,0:0:0:0:
288,192,128368,2,0,L|368:192,1,70,8|0,0:3|0:0,0:0:0:0:
216,192,128641,2,0,L|216:120,1,70,0|0,0:0|0:0,0:0:0:0:
408,192,128913,1,2,0:0:0:0:
272,192,129050,2,0,L|432:192,1,140,0|0,0:0|0:0,0:0:0:0:
208,192,129459,5,8,0:3:0:0:
16,192,129595,2,0,L|96:192,1,70,0|0,0:0|0:0,0:0:0:0:
232,192,129868,1,0,0:0:0:0:
432,192,130004,2,0,L|360:192,1,70,2|0,0:0|0:0,0:0:0:0:
216,192,130277,1,4,0:3:0:0:
80,192,130413,1,4,0:3:0:0:
272,192,130550,2,0,L|328:144,1,70,12|0,0:3|0:0,0:0:0:0:
128,192,130822,1,8,0:3:0:0:
488,192,131095,1,8,0:3:0:0:
128,192,131368,1,8,0:3:0:0:
488,192,131641,5,4,0:0:0:0:
280,192,131777,2,0,P|208:160|208:104,1,140,8|4,0:3|0:3,0:0:0:0:
400,192,132186,2,0,P|488:168|504:112,1,140,8|0,0:3|0:0,0:0:0:0:
32,192,132732,1,4,0:0:0:0:
240,192,132868,2,0,P|328:160|352:112,1,140,8|4,0:3|0:3,0:0:0:0:
152,192,133277,2,0,P|88:144|120:96,1,140,8|0,0:3|0:0,0:0:0:0:
480,192,133822,5,4,0:0:0:0:
280,192,133959,2,0,L|432:192,1,140,8|4,0:3|0:3,0:0:0:0:
224,192,134368,2,0,L|376:192,1,140,8|0,0:3|0:0,0:0:0:0:
16,192,134913,1,4,0:0:0:0:
216,192,135050,2,0,L|72:192,1,140,8|4,0:3|0:3,0:0:0:0:
272,192,135459,2,0,L|120:192,1,140,8|0,0:3|0:0,0:0:0:0:
472,200,136004,5,4,0:0:0:0:
256,192,136277,12,0,140368,0:0:0:0:
