osu file format v14

[General]
AudioFilename: audio.mp3
AudioLeadIn: 0
PreviewTime: 61822
Countdown: 0
SampleSet: Soft
StackLeniency: 0.7
Mode: 2
LetterboxInBreaks: 0
WidescreenStoryboard: 1

[Editor]
DistanceSpacing: 0.8
BeatDivisor: 4
GridSize: 8
TimelineZoom: 1

[Metadata]
Title:Suit Up
TitleUnicode:Suit Up
Artist:Blue Stahli
ArtistUnicode:Blue Stahli
Creator:MBomb
Version:Cup
Source:
Tags:magic bomb antisleep vol. volume 3 electronic industrial rock instrumental
BeatmapID:2223562
BeatmapSetID:1061425

[Difficulty]
HPDrainRate:3
CircleSize:2.3
OverallDifficulty:5.8
ApproachRate:5.8
SliderMultiplier:2
SliderTickRate:1

[Events]
//Background and Video events
0,0,"radioactive-3793510_1920.jpg",0,0
//Break Periods
2,97068,103289
//Storyboard Layer 0 (Background)
//Storyboard Layer 1 (Fail)
//Storyboard Layer 2 (Pass)
//Storyboard Layer 3 (Foreground)
//Storyboard Layer 4 (Overlay)
//Storyboard Sound Samples

[TimingPoints]
732,545.454545454546,4,2,0,51,1,0
17641,-100,4,2,0,28,0,0
18186,-100,4,2,0,79,0,1
35641,-100,4,2,0,51,0,0
61822,-100,4,2,0,79,0,1
78186,-100,4,2,0,51,0,1
79277,-100,4,2,0,51,0,0
86913,-100,4,2,0,32,0,0
87459,-100,4,2,0,51,0,0
113504,-100,4,2,0,28,0,0
114186,-100,4,2,0,79,0,1
132459,-100,4,2,0,30,0,1
132732,-100,4,2,0,79,0,1
133550,-100,4,2,0,30,0,1
133822,-100,4,2,0,79,0,1
134641,-100,4,2,0,30,0,1
134914,-100,4,2,0,79,0,1
135732,-100,4,2,0,30,0,1
136004,-100,4,2,0,52,0,0
137095,-100,4,2,0,26,0,0

[Colours]
Combo1 : 34,145,255
Combo2 : 255,128,0
Combo3 : 0,128,64

[HitObjects]
208,192,732,5,8,0:3:0:0:
272,192,868,1,8,0:3:0:0:
256,192,1277,12,0,8913,0:0:0:0:
272,192,9459,5,4,0:0:0:0:
208,192,9595,1,8,0:3:0:0:
80,192,10004,2,0,L|184:192,1,100,2|0,0:0|0:0,0:0:0:0:
304,192,10550,1,2,0:0:0:0:
128,192,11095,2,0,P|96:160|136:136,1,100,2|0,0:0|0:0,0:0:0:0:
264,192,11641,5,2,0:0:0:0:
456,192,12186,2,0,L|344:192,1,100,2|0,0:0|0:0,0:0:0:0:
232,192,12732,1,2,0:0:0:0:
432,192,13277,2,0,L|320:192,1,100,2|0,0:0|0:0,0:0:0:0:
192,192,13822,6,0,P|82:182|24:120,3,200,8|4|4|4,0:3|0:3|0:3|0:3,0:0:0:0:
264,192,16004,2,0,L|368:192,1,100,12|4,0:3|0:3,0:0:0:0:
232,192,16550,2,0,L|128:192,1,100,12|4,0:3|0:3,0:0:0:0:
272,192,17095,1,4,0:0:0:0:
272,192,18186,6,0,L|200:192,1,50,4|8,0:0|0:3,0:0:0:0:
56,192,18732,1,2,0:3:0:0:
248,192,19277,1,8,0:3:0:0:
128,192,19550,2,0,P|80:160|144:128,1,150,0|0,0:0|0:0,0:0:0:0:
312,192,20368,6,0,L|376:192,1,50,8|0,0:3|0:0,0:0:0:0:
200,192,20913,1,2,0:3:0:0:
412,192,21459,2,0,L|300:192,3,100,12|4|6|4,0:3|0:3|0:3|0:3,0:0:0:0:
176,192,22550,6,0,L|176:136,1,50,4|8,0:0|0:3,0:0:0:0:
328,192,23095,1,2,0:3:0:0:
142,192,23641,1,8,0:3:0:0:
264,192,23913,2,0,P|328:168|328:88,1,150,0|0,0:0|0:0,0:0:0:0:
160,192,24732,6,0,L|104:192,1,50,8|0,0:3|0:0,0:0:0:0:
280,192,25277,1,2,0:3:0:0:
64,192,25822,2,0,L|216:192,2,150,12|12|12,0:3|0:3|0:3,0:0:0:0:
200,192,26913,6,0,L|272:192,1,50,4|8,0:0|0:3,0:0:0:0:
88,192,27459,1,2,0:3:0:0:
280,192,28004,1,8,0:3:0:0:
400,192,28277,2,0,L|288:192,1,100,0|2,0:0|0:3,0:0:0:0:
232,192,28686,1,0,0:0:0:0:
56,192,29095,6,0,L|112:192,1,50,8|0,0:3|0:0,0:0:0:0:
274,192,29641,1,2,0:3:0:0:
56,192,30186,2,0,L|160:192,3,100,12|4|6|4,0:3|0:3|0:3|0:3,0:0:0:0:
288,192,31277,6,0,L|352:192,1,50,4|8,0:0|0:3,0:0:0:0:
192,192,31822,1,2,0:3:0:0:
376,192,32368,1,8,0:3:0:0:
248,192,32641,2,0,P|184:176|176:144,1,100,0|2,0:0|0:3,0:0:0:0:
232,192,33050,1,0,0:0:0:0:
408,192,33459,6,0,L|352:192,1,50,8|0,0:3|0:0,0:0:0:0:
208,192,34004,1,2,0:3:0:0:
416,192,34550,2,0,B|528:184|528:136|509:99|304:80,1,300,12|4,0:3|0:3,0:0:0:0:
200,192,35641,6,0,P|128:168|208:112,1,200,4|4,0:0|0:3,0:0:0:0:
392,192,36732,1,8,0:3:0:0:
488,192,37004,1,0,0:0:0:0:
392,192,37277,1,4,0:3:0:0:
288,192,37550,1,0,0:0:0:0:
160,192,37822,6,0,L|56:192,2,100,8|0|4,0:3|0:0|0:3,0:0:0:0:
384,192,38913,2,0,P|472:176|488:112,2,150,8|8|8,0:3|0:3|0:3,0:0:0:0:
248,192,40004,6,0,L|456:192,1,200,4|4,0:0|0:3,0:0:0:0:
240,192,41095,1,8,0:3:0:0:
136,192,41368,1,0,0:0:0:0:
32,192,41641,2,0,L|32:80,1,100,4|0,0:3|0:0,0:0:0:0:
152,192,42186,6,0,L|256:192,2,100,8|0|4,0:3|0:0|0:3,0:0:0:0:
344,192,43277,2,0,P|416:168|416:96,1,150,8|8,0:3|0:3,0:0:0:0:
352,192,43822,1,4,0:3:0:0:
232,192,44095,1,0,0:0:0:0:
376,192,44368,6,0,P|448:160|376:104,1,200,4|4,0:0|0:3,0:0:0:0:
160,192,45459,2,0,L|48:192,1,100,8|2,0:3|0:0,0:0:0:0:
160,192,46004,1,4,0:3:0:0:
264,192,46277,1,0,0:0:0:0:
160,192,46550,6,0,L|40:192,1,100,8|0,0:3|0:0,0:0:0:0:
184,192,47095,1,2,0:2:0:0:
60,192,47368,1,2,0:0:0:0:
184,192,47641,2,0,P|281:177|320:128,2,150,8|8|8,0:3|0:3|0:3,0:0:0:0:
320,192,48732,6,0,P|392:144|312:112,1,200,4|4,0:0|0:3,0:0:0:0:
208,192,49550,1,0,0:0:0:0:
88,192,49822,2,0,L|208:192,1,100,8|2,0:3|0:0,0:0:0:0:
312,192,50368,1,4,0:3:0:0:
112,192,50913,6,0,P|55:178|32:128,2,100,8|0|4,0:3|0:0|0:3,0:0:0:0:
224,192,51732,1,0,0:0:0:0:
352,192,52004,2,0,P|419:159|416:128,1,100,8|0,0:3|0:0,0:0:0:0:
288,192,52550,2,0,L|184:192,1,100,4|0,0:3|0:0,0:0:0:0:
320,192,53095,5,4,0:0:0:0:
400,192,53641,1,8,0:3:0:0:
320,192,54186,1,8,0:3:0:0:
232,192,54732,1,8,0:3:0:0:
88,192,55277,5,8,0:3:0:0:
232,192,55822,1,8,0:3:0:0:
376,192,56368,1,8,0:3:0:0:
232,192,56913,1,8,0:3:0:0:
456,192,57459,5,8,0:3:0:0:
344,192,57732,1,8,0:3:0:0:
232,192,58004,1,8,0:3:0:0:
120,192,58277,1,8,0:3:0:0:
248,192,58550,1,8,0:3:0:0:
360,192,58822,1,8,0:3:0:0:
248,192,59095,1,8,0:3:0:0:
136,192,59368,1,8,0:3:0:0:
268,192,59641,6,0,L|388:192,1,100,8|8,0:3|0:3,0:0:0:0:
232,192,60186,2,0,L|160:192,2,50,8|8|8,0:3|0:3|0:3,0:0:0:0:
368,192,60732,1,4,0:0:0:0:
368,192,61822,6,0,L|312:192,1,50,4|8,0:0|0:3,0:0:0:0:
160,192,62368,1,2,0:3:0:0:
352,192,62913,1,8,0:3:0:0:
472,192,63186,2,0,L|312:192,1,150,0|0,0:0|0:0,0:0:0:0:
136,192,64004,6,0,L|72:192,1,50,8|0,0:3|0:0,0:0:0:0:
256,192,64550,1,2,0:3:0:0:
488,192,65095,2,0,L|368:192,3,100,12|4|6|4,0:3|0:3|0:3|0:3,0:0:0:0:
256,192,66186,6,0,L|192:192,1,50,4|8,0:0|0:3,0:0:0:0:
376,192,66732,1,2,0:3:0:0:
184,192,67277,1,8,0:3:0:0:
312,192,67550,2,0,P|368:160|312:128,1,150,0|0,0:0|0:0,0:0:0:0:
128,192,68368,6,0,L|48:192,1,50,8|0,0:3|0:0,0:0:0:0:
240,192,68913,1,2,0:3:0:0:
24,192,69459,1,2,0:3:0:0:
160,192,69732,2,0,L|216:192,2,50,2|2|2,0:3|0:3|0:3,0:0:0:0:
24,192,70277,1,4,0:3:0:0:
160,192,70550,6,0,L|240:192,1,50,4|8,0:0|0:3,0:0:0:0:
56,192,71095,1,2,0:3:0:0:
256,192,71641,1,8,0:3:0:0:
136,192,71913,2,0,P|80:176|64:128,1,100,0|2,0:0|0:3,0:0:0:0:
120,192,72322,1,0,0:0:0:0:
304,192,72732,6,0,L|304:136,1,50,8|0,0:3|0:0,0:0:0:0:
136,192,73277,1,2,0:3:0:0:
360,192,73822,2,0,L|472:192,3,100,12|4|6|4,0:3|0:3|0:3|0:3,0:0:0:0:
328,192,74913,6,0,L|272:192,1,50,4|8,0:0|0:3,0:0:0:0:
120,192,75459,1,2,0:3:0:0:
304,192,76004,1,8,0:3:0:0:
424,192,76277,2,0,P|480:176|480:128,1,100,0|2,0:0|0:3,0:0:0:0:
424,192,76686,1,0,0:0:0:0:
248,192,77095,6,0,L|192:192,1,50,8|0,0:3|0:0,0:0:0:0:
352,192,77641,1,2,0:3:0:0:
136,192,78186,2,0,P|170:159|273:140,2,150,12|12|12,0:3|0:3|0:3,0:0:0:0:
272,192,79277,6,0,P|336:176|264:120,1,200,4|4,0:0|0:3,0:0:0:0:
64,192,80368,2,0,P|80:152|216:88,1,200,8|4,0:3|0:3,0:0:0:0:
312,192,81186,1,0,0:0:0:0:
176,192,81459,6,0,L|64:192,2,100,8|0|4,0:3|0:0|0:3,0:0:0:0:
376,192,82550,1,8,0:3:0:0:
144,192,83095,2,0,L|256:192,1,100,4|2,0:3|0:0,0:0:0:0:
392,192,83641,6,0,P|464:168|408:88,1,200,4|4,0:0|0:3,0:0:0:0:
208,192,84732,1,8,0:3:0:0:
448,192,85277,2,0,L|336:192,1,100,4|0,0:3|0:0,0:0:0:0:
216,192,85822,6,0,L|112:192,2,100,8|0|4,0:3|0:0|0:3,0:0:0:0:
424,192,86913,1,4,0:1:0:0:
424,192,87459,2,0,L|320:192,1,100,8|4,0:3|0:3,0:0:0:0:
192,192,88004,6,0,P|104:168|152:96,1,200,4|4,0:0|0:3,0:0:0:0:
344,192,89095,1,8,0:3:0:0:
104,192,89641,2,0,P|32:160|32:136,1,100,4|2,0:3|0:0,0:0:0:0:
160,192,90186,5,8,0:3:0:0:
264,192,90459,1,0,0:0:0:0:
368,192,90732,1,4,0:3:0:0:
160,192,91277,1,8,0:3:0:0:
368,192,91822,2,0,L|256:192,1,100,4|2,0:3|0:0,0:0:0:0:
136,192,92368,6,0,P|80:160|168:112,1,200,4|4,0:0|0:3,0:0:0:0:
360,192,93459,1,8,0:3:0:0:
152,192,94004,1,4,0:3:0:0:
272,192,94277,1,2,0:0:0:0:
144,192,94550,6,0,L|32:192,1,100,8|0,0:3|0:0,0:0:0:0:
144,192,95095,1,4,0:3:0:0:
248,192,95368,1,0,0:0:0:0:
376,192,95641,2,0,L|440:192,2,50,2|8|4,0:3|0:3|0:3,0:0:0:0:
248,192,96186,2,0,L|128:192,1,100,6|4,0:3|0:3,0:0:0:0:
280,192,96732,6,0,L|352:192,1,50,12|8,0:3|0:3,0:0:0:0:
351,191,104368,6,0,P|423:180|456:116,2,150,8|8|8,0:3|0:3|0:3,0:0:0:0:
216,192,105459,6,0,L|144:192,1,50,8|8,0:3|0:3,0:0:0:0:
320,192,106004,1,2,0:3:0:0:
80,192,106822,2,0,L|80:88,1,100,8|2,0:3|0:3,0:0:0:0:
304,192,107641,5,8,0:3:0:0:
120,192,108186,1,2,0:3:0:0:
368,192,109004,2,0,L|368:80,1,100,8|2,0:3|0:3,0:0:0:0:
256,192,109550,1,2,0:0:0:0:
136,192,109822,6,0,L|72:192,1,50,8|8,0:3|0:3,0:0:0:0:
240,192,110368,1,4,0:3:0:0:
424,192,110913,1,4,0:3:0:0:
240,192,111459,1,4,0:3:0:0:
16,192,112004,6,0,L|128:192,1,100,4|4,0:3|0:3,0:0:0:0:
248,192,112550,2,0,L|304:192,2,50,4|4|4,0:3|0:3|0:3,0:0:0:0:
116,192,113095,1,4,0:0:0:0:
116,192,114186,6,0,L|196:192,1,50,4|8,0:0|0:3,0:0:0:0:
336,192,114732,1,2,0:0:0:0:
144,192,115277,1,8,0:3:0:0:
272,192,115550,2,0,L|376:192,2,100,0|2|2,0:0|0:0|0:0,0:0:0:0:
136,192,116368,6,0,L|72:192,1,50,8|0,0:3|0:0,0:0:0:0:
256,192,116913,1,2,0:0:0:0:
472,192,117459,1,8,0:3:0:0:
368,192,117732,1,2,0:0:0:0:
368,192,118004,1,2,0:0:0:0:
472,192,118277,1,0,0:0:0:0:
344,192,118550,6,0,L|272:192,1,50,8|0,0:3|0:0,0:0:0:0:
144,192,119095,1,2,0:0:0:0:
272,192,119368,2,0,L|272:136,1,50,4|4,0:3|0:3,0:0:0:0:
208,192,119641,1,8,0:3:0:0:
88,192,119913,1,4,0:3:0:0:
208,192,120186,2,0,L|96:192,1,100,8|2,0:3|0:0,0:0:0:0:
240,192,120732,6,0,L|320:192,1,50,8|0,0:3|0:0,0:0:0:0:
440,192,121277,1,2,0:0:0:0:
312,192,121550,1,4,0:3:0:0:
256,192,121686,1,4,0:3:0:0:
328,192,121822,2,0,P|424:168|448:128,2,150,8|8|8,0:3|0:3|0:3,0:0:0:0:
192,192,122913,6,0,L|136:192,1,50,4|8,0:0|0:3,0:0:0:0:
320,192,123459,1,2,0:0:0:0:
104,192,124004,2,0,L|208:192,1,100,8|8,0:3|0:3,0:0:0:0:
328,192,124550,1,0,0:0:0:0:
264,192,124686,1,8,0:3:0:0:
80,192,125095,6,0,L|160:192,1,50,8|0,0:3|0:0,0:0:0:0:
296,192,125641,1,2,0:0:0:0:
64,192,126186,2,0,L|184:192,3,100,12|4|4|4,0:3|0:3|0:3|0:3,0:0:0:0:
296,192,127277,6,0,L|360:192,1,50,4|8,0:0|0:3,0:0:0:0:
184,192,127822,1,2,0:0:0:0:
384,192,128368,1,8,0:3:0:0:
256,192,128641,2,0,P|176:176|160:144,1,100,0|2,0:0|0:0,0:0:0:0:
168,192,129050,1,0,0:0:0:0:
360,192,129459,6,0,L|432:192,1,50,8|0,0:3|0:0,0:0:0:0:
240,192,130004,1,2,0:0:0:0:
104,192,130277,2,0,L|168:192,1,50,4|4,0:3|0:3,0:0:0:0:
224,192,130550,1,12,0:3:0:0:
336,192,130822,1,8,0:3:0:0:
224,192,131095,1,8,0:3:0:0:
112,192,131368,1,8,0:3:0:0:
248,192,131641,6,0,L|248:136,1,50,4|8,0:0|0:3,0:0:0:0:
128,192,132050,2,0,L|128:136,1,50,4|8,0:3|0:3,0:0:0:0:
368,192,132732,2,0,L|432:192,1,50,4|8,0:0|0:3,0:0:0:0:
296,192,133141,2,0,L|224:192,1,50,4|8,0:3|0:3,0:0:0:0:
488,192,133822,6,0,L|416:192,1,50,4|8,0:0|0:3,0:0:0:0:
312,192,134232,2,0,L|256:192,1,50,4|8,0:3|0:3,0:0:0:0:
496,192,134913,2,0,L|432:192,1,50,4|8,0:0|0:3,0:0:0:0:
320,192,135322,2,0,L|376:192,1,50,4|8,0:3|0:3,0:0:0:0:
152,192,136004,5,4,0:0:0:0:
256,192,136277,12,0,140368,0:0:0:0:
