osu file format v14

[General]
AudioFilename: Blue Stahli-Shotgun Senorita.mp3
AudioLeadIn: 1500
PreviewTime: 24020
Countdown: 0
SampleSet: Normal
StackLeniency: 0.7
Mode: 0
LetterboxInBreaks: 1
WidescreenStoryboard: 1

[Editor]
Bookmarks: 32047,59047
DistanceSpacing: 1.4
BeatDivisor: 4
GridSize: 4
TimelineZoom: 1

[Metadata]
Title:Shotgun Senorita
TitleUnicode:Shotgun Senorita
Artist:Blue Stahli
ArtistUnicode:Blue Stahli
Creator:quiz-chan
Version:Normal
Source:
Tags:antisleep Vass_Bass instrumental electronic featured artist fa
BeatmapID:414852
BeatmapSetID:73372

[Difficulty]
HPDrainRate:4
CircleSize:3
OverallDifficulty:5
ApproachRate:6
SliderMultiplier:1
SliderTickRate:2

[Events]
//Background and Video events
0,0,"BlueStahli.jpg",0,0
//Break Periods
2,60220,64970
2,66407,70220
2,96220,103970
2,108220,112970
//Storyboard Layer 0 (Background)
//Storyboard Layer 1 (Fail)
//Storyboard Layer 2 (Pass)
//Storyboard Layer 3 (Foreground)
//Storyboard Layer 4 (Overlay)
//Storyboard Sound Samples

[TimingPoints]
20,375,4,1,1,100,1,0
12020,-100,4,2,1,40,0,0
18020,-100,4,1,1,45,0,0
24020,-86.9565217391304,4,1,1,60,0,1
24113,-86.9565217391304,4,1,1,60,0,0
48020,-86.9565217391304,4,1,1,60,0,1
48113,-86.9565217391304,4,1,1,60,0,0
54020,-86.9565217391304,4,1,1,60,0,1
54113,-86.9565217391304,4,1,1,60,0,0
58520,-86.9565217391304,4,1,1,60,0,0
58801,-86.9565217391304,4,1,1,40,0,0
59082,-86.9565217391304,4,1,1,60,0,0
59363,-86.9565217391304,4,1,1,40,0,0
59645,-86.9565217391304,4,1,1,60,0,0
71270,-86.9565217391304,4,1,1,50,0,0
72020,-86.9565217391304,4,2,1,50,0,0
77270,-86.9565217391304,4,1,1,60,0,0
84020,-86.9565217391304,4,1,1,60,0,1
84113,-86.9565217391304,4,1,1,60,0,0
90020,-86.9565217391304,4,1,1,60,0,1
90113,-86.9565217391304,4,1,1,60,0,0
114020,-86.9565217391304,4,2,1,40,0,0
126020,-86.9565217391304,4,1,1,60,0,0
138020,-86.9565217391304,4,1,1,60,0,1
138113,-86.9565217391304,4,1,1,60,0,0
144020,-86.9565217391304,4,1,1,60,0,1
144113,-86.9565217391304,4,1,1,60,0,0
150020,-80,4,1,1,60,0,1
155926,-86.9565217391304,4,1,1,60,0,0
156020,-80,4,1,1,60,0,1
159020,-86.9565217391304,4,1,1,55,0,1
160520,-86.9565217391304,4,1,1,60,0,1
161645,-86.9565217391304,4,1,1,60,0,0

[Colours]
Combo1 : 30,98,86
Combo2 : 213,66,66
Combo3 : 174,163,81

[HitObjects]
144,156,12020,6,0,P|76:124|0:136,2,150,4|2|2,3:1|0:0|0:0,0:0:0:0:
252,128,13520,2,0,P|236:204|236:288,1,150,2|2,0:0|0:0,0:0:0:0:
340,312,14457,1,0,0:0:0:0:
340,312,14645,1,2,0:0:0:0:
440,272,15020,6,0,P|472:228|484:132,2,150,2|2|2,0:0|0:0|0:0,0:0:0:0:
352,336,16520,2,0,P|268:336|196:344,1,150,2|2,0:0|0:0,0:0:0:0:
112,280,17457,1,0,0:0:0:0:
112,280,17645,1,2,0:0:0:0:
116,172,18020,6,0,P|148:152|260:168,1,150,4|0,0:0|0:0,0:0:0:0:
312,256,18957,1,0,3:0:0:0:
312,256,19145,1,0,0:0:0:0:
392,180,19520,2,0,P|388:128|392:24,2,150,4|0|0,0:0|0:0|0:0,0:0:0:0:
256,192,21020,12,0,22520,2:3:0:0:
224,248,23270,5,0,0:0:0:0:
292,132,23645,1,0,0:0:0:0:
172,60,24020,6,0,P|80:60|-8:104,1,172.500003290176,12|8,0:0|0:0,0:0:0:0:
52,216,24957,1,4,3:0:0:0:
52,216,25145,1,8,0:0:0:0:
148,296,25520,2,0,P|180:224|156:136,2,172.500003290176,12|8|8,0:0|0:0|0:0,0:0:0:0:
272,312,27020,6,0,P|372:304|432:340,1,172.500003290176,12|8,0:0|0:0,0:0:0:0:
488,228,27957,1,4,3:0:0:0:
488,228,28145,1,8,0:0:0:0:
440,112,28520,2,0,P|340:104|280:140,2,172.500003290176,8|8|8,0:0|0:0|0:0,0:0:0:0:
380,224,30020,6,0,P|324:260|212:256,1,172.500003290176,12|8,0:0|0:0,0:0:0:0:
160,148,30957,1,4,3:0:0:0:
160,148,31145,1,8,0:0:0:0:
36,140,31520,2,0,P|72:200|52:320,2,172.500003290176,12|8|8,0:0|0:0|0:0,0:0:0:0:
140,72,33020,6,0,P|208:52|328:76,1,172.500003290176,12|8,0:0|0:0,0:0:0:0:
424,128,33957,1,4,3:0:0:0:
424,128,34145,1,8,0:0:0:0:
296,152,34520,2,0,P|232:132|128:196,2,172.500003290176,12|8|0,0:0|0:0|0:0,0:0:0:0:
284,264,36020,6,0,P|368:276|440:232,1,172.500003290176,14|10,1:0|0:0,0:0:0:0:
344,152,36957,1,0,0:0:0:0:
344,152,37145,1,10,0:0:0:0:
256,60,37520,2,0,P|192:64|72:56,2,172.500003290176,14|10|8,0:0|0:0|0:0,0:0:0:0:
164,148,39020,6,0,P|132:180|140:316,1,172.500003290176,14|10,0:0|0:0,0:0:0:0:
256,340,39957,1,0,0:0:0:0:
256,340,40145,1,10,0:0:0:0:
360,268,40520,2,0,P|444:260|516:316,2,172.500003290176,8|8|8,0:0|0:0|0:0,0:0:0:0:
228,252,42020,6,0,P|180:268|116:264,1,115.000002193451,4|8,0:0|0:0,0:0:0:0:
52,156,42770,2,0,P|100:140|164:140,1,115.000002193451,4|8,3:0|0:0,0:0:0:0:
260,224,43520,2,0,P|248:280|260:344,1,115.000002193451,4|8,3:0|0:0,0:0:0:0:
372,284,44270,1,4,3:0:0:0:
372,284,44457,2,0,L|448:280,1,57.5000010967255,4|8,3:0|0:0,0:0:0:0:
256,192,45020,12,0,46520,3:0:0:0:
128,84,47270,5,8,0:0:0:0:
64,192,47645,1,8,0:0:0:0:
144,292,48020,6,2,P|200:296|276:284,1,115.000002193451,6|8,0:0|0:0,0:0:0:0:
368,228,48770,2,0,L|432:232,2,57.5000010967255,2|4|8,0:2|3:0|0:0,0:0:0:0:
324,112,49520,2,0,P|280:96|200:120,1,115.000002193451,6|8,0:0|0:0,0:0:0:0:
184,164,50082,2,0,P|140:180|60:156,1,115.000002193451,2|4,0:0|3:0,0:0:0:0:
56,112,50645,1,10,0:0:0:0:
52,248,51020,6,2,P|40:284|64:368,1,115.000002193451,6|8,0:0|0:0,0:0:0:0:
164,296,51770,1,2,0:2:0:0:
164,296,51957,2,0,L|240:292,1,57.5000010967255,4|8,3:0|0:0,0:0:0:0:
328,220,52520,2,0,B|420:196|412:252|500:224,2,172.500003290176,6|2|10,1:0|0:1|1:0,3:0:0:0:
256,116,54020,6,0,P|208:136|128:132,1,115.000002193451,6|8,0:0|0:0,0:0:0:0:
52,220,54770,2,0,P|46:252|48:292,2,57.5000010967255,2|4|8,0:2|3:0|0:0,0:0:0:0:
176,248,55520,2,0,P|280:248|356:272,2,172.500003290176,6|2|8,1:0|0:1|1:0,2:0:0:0:
100,148,57020,6,0,P|88:112|112:32,1,115.000002193451,6|8,0:0|0:0,0:0:0:0:
216,100,57770,2,0,L|336:104,1,115.000002193451,4|8,3:0|0:0,0:0:0:0:
424,192,58520,2,2,P|444:240|412:296,1,115.000002193451,6|8,0:0|0:0,0:0:0:0:
376,324,59082,2,0,L|252:316,1,115.000002193451,2|8,0:0|0:0,0:0:0:0:
212,312,59645,1,2,1:0:0:0:
100,208,60020,5,4,2:0:0:0:
256,192,66020,5,4,0:0:0:0:
256,192,66207,1,0,0:0:0:0:
304,224,71270,5,8,1:0:0:0:
396,312,71645,1,8,0:0:0:0:
456,200,72020,6,0,P|464:148|456:72,1,115.000002193451,4|2,0:0|0:0,0:0:0:0:
336,108,72770,2,0,P|280:101|216:108,1,115.000002193451,0|2,0:0|0:0,0:0:0:0:
100,60,73520,2,0,P|81:113|103:165,1,115.000002193451,0|2,0:0|0:0,0:0:0:0:
144,184,74082,2,0,P|172:237|145:301,1,115.000002193451
116,312,74645,1,2,0:0:0:0:
271,332,75020,6,0,P|351:336|399:332,1,115.000002193451,4|2,0:0|0:0,0:0:0:0:
485,250,75770,1,0,0:0:0:0:
436,132,76145,1,2,0:0:0:0:
324,192,76520,2,0,P|308:136|328:68,1,115.000002193451,0|2,3:0|3:2,3:0:0:0:
356,44,77082,2,0,L|240:36,1,115.000002193451,0|0,3:0|1:0,1:0:0:0:
192,48,77645,1,0,1:0:0:0:
96,172,78020,6,8,P|73:218|100:344,2,172.500003290176,12|8|8,0:0|0:0|0:0,0:0:0:0:
199,255,79520,2,8,P|287:255|371:247,1,172.500003290176,12|8,0:0|0:0,0:0:0:0:
456,348,80457,1,4,0:3:0:0:
456,348,80645,1,8,0:0:0:0:
371,246,81020,6,8,P|387:179|379:115,1,115.000002193451,12|8,0:0|0:0,0:0:0:0:
224,152,81770,2,8,P|208:219|216:283,1,115.000002193451
364,320,82520,6,0,P|396:224|236:48,1,345.000006580353,4|0,1:0|3:0,3:0:0:0:
156,136,84020,5,6,0:0:0:0:
72,228,84395,1,8,0:0:0:0:
164,316,84770,2,0,P|240:320|292:312,1,115.000002193451,2|8,0:2|0:0,0:0:0:0:
404,276,85520,2,2,P|424:224|396:164,1,115.000002193451,2|8,0:0|0:0,0:0:0:0:
356,168,86082,2,0,P|336:116|364:56,1,115.000002193451,2|0,0:0|0:0,0:0:0:0:
408,48,86645,1,10,0:0:0:0:
254,80,87020,6,0,P|197:87|146:113,1,115.000002193451,6|8,0:0|0:0,0:0:0:0:
80,232,87770,2,0,P|48:234|20:228,2,57.5000010967255,2|4|8,2:0|3:0|0:0,0:0:0:0:
196,192,88520,2,2,P|180:216|188:308,1,115.000002193451,2|8,0:0|0:0,0:0:0:0:
216,336,89082,2,0,B|336:345,1,115.000002193451,2|4,0:0|3:0,0:0:0:0:
376,324,89645,1,10,0:0:0:0:
370,166,90020,6,0,P|358:118|386:46,1,115.000002193451,6|8,0:0|0:0,0:0:0:0:
264,116,90770,2,0,P|220:120|144:120,1,115.000002193451,2|8,2:2|0:0,0:0:0:0:
44,68,91520,1,2,0:0:0:0:
140,132,91895,2,0,P|148:172|144:204,1,57.5000010967255,8|2,0:0|2:0,0:0:0:0:
58,303,92457,2,0,P|50:263|54:231,1,57.5000010967255,2|8,1:2|0:0,0:0:0:0:
156,272,93020,6,0,P|215:278|281:279,1,115.000002193451,6|8,0:3|0:0,0:0:0:0:
396,260,93770,2,0,P|424:256|476:256,2,57.5000010967255,2|4|8,2:0|3:0|0:0,0:0:0:0:
332,152,94520,2,0,B|248:164|255:110|164:120,1,172.500003290176,6|2,0:0|0:0,0:0:0:0:
88,220,95457,1,0,3:0:0:0:
88,220,95645,1,2,0:0:0:0:
184,304,96020,5,4,0:0:0:0:
256,192,105020,12,4,108020,3:2:0:0:
424,267,114020,6,0,P|358:320|274:319,2,172.500003290176,4|2|0,2:1|0:0|0:0,0:0:0:0:
316,192,115520,2,0,B|232:216|232:168|144:192,1,172.500003290176,2|2,0:0|0:0,0:0:0:0:
68,292,116457,1,0,0:0:0:0:
68,292,116645,1,2,0:0:0:0:
147,191,117020,6,0,P|132:112|168:28,1,172.500003290176,2|2,0:0|0:0,0:0:0:0:
264,120,117957,1,0,0:0:0:0:
264,120,118145,1,2,0:0:0:0:
376,52,118520,2,0,P|390:135|356:213,2,172.500003290176,2|2|2,0:0|0:0|0:0,0:0:0:0:
248,64,120020,5,0,0:0:0:0:
268,188,120395,1,2,0:0:0:0:
268,188,120582,2,0,B|236:224|188:224|188:224|104:216,1,172.500003290176,0|2,0:0|0:0,0:0:0:0:
80,92,121520,2,0,P|156:96|200:124,1,115.000002193451,2|0,0:0|0:0,0:0:0:0:
240,96,122082,2,0,P|291:119|348:118,1,115.000002193451,2|0,0:0|0:0,0:0:0:0:
400,96,122645,2,0,L|404:32,2,57.5000010967255,2|0|2,0:0|0:0|0:0,0:0:0:0:
452,216,123395,5,0,0:0:0:0:
452,216,123582,2,0,P|375:253|291:241,1,172.500003290176,2|2,0:0|0:0,0:0:0:0:
164,236,124520,2,0,P|95:223|0:265,2,172.500003290176,2|2|8,0:0|0:0|1:3,0:0:0:0:
260,333,126020,6,0,P|284:288|277:217,1,115.000002193451,6|0,1:0|0:0,0:0:0:0:
291,169,126582,2,0,P|229:166|173:113,1,115.000002193451,10|0,1:0|0:0,0:0:0:0:
166,88,127145,1,10,0:0:0:0:
296,76,127520,2,0,B|388:68|380:116|464:104,2,172.500003290176,14|10|8,0:0|0:0|0:0,0:0:0:0:
352,192,129020,6,2,P|360:252|336:316,1,115.000002193451,14|0,0:0|0:0,0:0:0:0:
364,360,129582,2,0,P|308:353|248:357,1,115.000002193451,10|0,0:0|0:0,0:0:0:0:
196,344,130145,1,10,0:0:0:0:
72,300,130520,2,8,P|44:224|72:128,2,172.500003290176,10|10|8,0:0|0:0|0:0,0:0:0:0:
172,216,132020,6,10,L|248:212,1,57.5000010967255
452,176,133520,6,10,L|376:172,1,57.5000010967255
200,108,135020,5,12,0:0:0:0:
256,192,135207,12,4,136520,0:0:0:0:
278,49,137270,5,8,0:0:0:0:
164,108,137645,1,8,0:0:0:0:
54,165,138020,6,2,P|46:217|70:301,1,115.000002193451,6|8,0:0|0:0,0:0:0:0:
184,333,138770,1,2,2:0:0:0:
184,333,138957,2,0,P|213:323|262:322,1,57.5000010967255,4|8,3:0|0:0,0:0:0:0:
316,220,139520,2,2,P|376:208|436:228,1,115.000002193451,6|8,0:0|0:0,0:0:0:0:
464,260,140082,2,2,P|456:192|480:140,1,115.000002193451,2|4,0:0|3:0,0:0:0:0:
500,112,140645,1,10,0:0:0:0:
380,76,141020,6,2,B|323:69|323:69|256:76,1,115.000002193451,6|8,0:0|0:0,0:0:0:0:
140,96,141770,1,2,1:2:0:0:
140,96,141957,2,0,P|104:112|84:116,1,57.5000010967255,4|8,3:0|1:0,0:0:0:0:
164,216,142520,2,2,P|220:212|276:236,1,115.000002193451,6|8,0:0|0:0,0:0:0:0:
308,268,143082,2,2,P|360:289|417:286,1,115.000002193451,2|4,0:0|3:0,0:0:0:0:
456,260,143645,1,10,0:0:0:0:
424,132,144020,6,2,P|356:116|308:132,1,115.000002193451,6|8,0:0|0:0,0:0:0:0:
256,152,144582,1,2,2:0:0:0:
200,124,144770,2,0,P|132:108|84:124,1,115.000002193451,2|8,0:3|0:0,0:0:0:0:
132,271,145520,6,2,P|185:297|263:266,1,115.000002193451,6|8,0:0|0:0,0:0:0:0:
276,244,146082,2,0,P|331:234|381:260,1,115.000002193451,2|4,0:0|1:3,0:0:0:0:
429,231,146644,2,0,P|444:198|444:163,1,57.5000010967255,10|2,0:0|0:0,0:0:0:0:
428,123,147020,6,2,P|364:107|296:111,1,115.000002193451,6|10,0:0|0:0,0:0:0:0:
256,128,147582,1,4,3:0:0:0:
199,148,147770,2,2,P|135:164|67:160,1,115.000002193451,2|10,0:0|0:0,0:0:0:0:
229,253,148520,6,0,P|276:260|396:224,2,172.500003290176,12|12|8,1:1|1:0|1:0,1:0:0:0:
100,320,150020,6,2,P|88:244|104:184,1,125,6|8,0:0|0:0,0:0:0:0:
68,60,150770,2,0,L|204:52,1,125,2|8,0:0|0:0,0:0:0:0:
256,76,151332,1,4,0:3:0:0:
320,100,151520,2,2,L|456:92,1,125,6|8,0:0|0:0,0:0:0:0:
460,156,152082,2,2,P|472:216|461:278,1,125,2|4,0:0|3:0,0:0:0:0:
396,300,152645,1,10,0:0:0:0:
224,320,153020,6,2,P|168:312|116:264,1,125,6|8,0:0|0:0,0:0:0:0:
56,144,153770,1,2,0:2:0:0:
76,80,153957,1,4,3:0:0:0:
56,16,154145,1,8,0:0:0:0:
144,132,154520,2,2,P|196:164|272:144,1,125,6|8,0:0|0:0,0:0:0:0:
296,104,155082,2,0,P|356:94|408:126,1,125,2|4,0:0|1:3,0:0:0:0:
412,192,155645,1,10,0:0:0:0:
336,308,156020,6,0,L|211:292,1,125,6|8,0:0|0:0,0:0:0:0:
320,208,156770,1,2,1:2:0:0:
356,152,156957,1,0,0:0:0:0:
344,84,157145,1,8,0:0:0:0:
208,64,157520,2,2,P|228:104|208:188,1,125,2|8,0:0|0:0,0:0:0:0:
152,196,158082,2,2,P|125:251|141:310,1,125,2|0,0:0|0:0,0:0:0:0:
196,340,158645,1,10,0:0:0:0:
324,344,159020,6,0,P|380:352|444:324,1,115.000002193451,8|8,0:0|0:0,3:0:0:0:
432,276,159582,1,0,0:0:0:0:
432,276,159770,2,0,P|448:220|512:184,1,115.000002193451,8|8,1:0|0:0,2:0:0:0:
384,96,160520,6,0,P|340:64|268:72,1,115.000002193451,6|8,1:0|0:0,0:0:0:0:
256,144,161082,2,0,P|200:146|154:113,1,115.000002193451,6|8,1:0|0:0,0:0:0:0:
136,32,161645,1,6,1:0:0:0:
