osu file format v14

[General]
AudioFilename: Blue Stahli-Shotgun Senorita.mp3
AudioLeadIn: 1500
PreviewTime: 24020
Countdown: 0
SampleSet: Normal
StackLeniency: 0.7
Mode: 0
LetterboxInBreaks: 1
WidescreenStoryboard: 1

[Editor]
Bookmarks: 32047,59047
DistanceSpacing: 1.4
BeatDivisor: 4
GridSize: 4
TimelineZoom: 1

[Metadata]
Title:Shotgun Senorita
TitleUnicode:Shotgun Senorita
Artist:Blue Stahli
ArtistUnicode:Blue Stahli
Creator:quiz-chan
Version:Insane
Source:
Tags:antisleep Vass_Bass instrumental electronic featured artist fa
BeatmapID:2319346
BeatmapSetID:73372

[Difficulty]
HPDrainRate:6.5
CircleSize:4.1
OverallDifficulty:8
ApproachRate:8.2
SliderMultiplier:1.7
SliderTickRate:2

[Events]
//Background and Video events
0,0,"BlueStahli.jpg",0,0
//Break Periods
2,60220,65300
2,66407,70362
2,108220,113300
//Storyboard Layer 0 (Background)
//Storyboard Layer 1 (Fail)
//Storyboard Layer 2 (Pass)
//Storyboard Layer 3 (Foreground)
//Storyboard Layer 4 (Overlay)
//Storyboard Sound Samples

[TimingPoints]
20,375,4,1,1,100,1,0
12020,-133.333333333333,4,2,1,40,0,0
18020,-125,4,1,1,40,0,0
24020,-100,4,1,1,65,0,1
24113,-100,4,1,1,65,0,0
37520,-90.9090909090909,4,1,1,65,0,0
38645,-100,4,1,1,65,0,0
48020,-90.9090909090909,4,1,1,65,0,1
48113,-90.9090909090909,4,1,1,65,0,0
54020,-90.9090909090909,4,1,1,65,0,1
54113,-90.9090909090909,4,1,1,65,0,0
58520,-100,4,1,1,65,0,0
71270,-100,4,1,1,55,0,0
72020,-111.111111111111,4,2,1,55,0,0
77270,-100,4,1,1,65,0,0
84020,-90.9090909090909,4,1,1,65,0,1
84113,-90.9090909090909,4,1,1,65,0,0
90020,-90.9090909090909,4,1,1,65,0,1
90113,-90.9090909090909,4,1,1,65,0,0
96020,-111.111111111111,4,3,1,65,0,0
98645,-100,4,1,1,65,0,0
99020,-111.111111111111,4,1,1,65,0,0
100332,-111.111111111111,4,3,1,65,0,0
105020,-100,4,1,1,65,0,0
105395,-111.111111111111,4,1,1,65,0,0
114020,-133.333333333333,4,2,1,35,0,0
125832,-100,4,1,1,57,0,0
126020,-90.9090909090909,4,1,1,65,0,0
138020,-90.9090909090909,4,1,1,65,0,1
138113,-90.9090909090909,4,1,1,65,0,0
144020,-90.9090909090909,4,1,1,65,0,1
144207,-90.9090909090909,4,1,1,65,0,0
150020,-83.3333333333333,4,1,1,65,0,1
155926,-83.3333333333333,4,1,1,65,0,0
156020,-83.3333333333333,4,1,1,65,0,1
159020,-83.3333333333333,4,1,1,50,0,0
160520,-71.4285714285714,4,1,1,65,0,1
161645,-83.3333333333333,4,1,1,65,0,0

[Colours]
Combo1 : 30,98,86
Combo2 : 213,66,66
Combo3 : 174,163,81

[HitObjects]
60,232,12020,6,0,P|52:169|76:108,1,127.500004863739,4|2,1:0|0:0,0:0:0:0:
136,152,12582,2,0,B|196:164|196:164|264:156,1,127.500004863739,0|2,0:0|0:0,0:0:0:0:
328,120,13145,2,0,P|324:88|336:52,1,63.7500024318696
408,40,13520,1,2,0:0:0:0:
411,116,13707,1,0,0:0:0:0:
411,116,13895,1,2,0:0:0:0:
480,136,14083,2,0,P|484:196|456:256,1,127.500004863739,0|2,0:0|0:0,0:0:0:0:
412,317,14645,2,0,P|386:282|384:237,1,63.7500024318696
330,211,15020,6,0,P|269:190|202:227,1,127.500004863739,0|2,0:0|0:0,0:0:0:0:
176,276,15582,2,0,P|118:299|56:275,1,127.500004863739
46,206,16145,1,2,0:0:0:0:
254,253,16520,2,0,P|314:261|386:237,1,127.500004863739,0|2,0:0|0:0,0:0:0:0:
360,168,17082,2,0,P|300:160|232:184,1,127.500004863739,0|2,0:0|0:0,0:0:0:0:
184,232,17645,1,0,0:0:0:0:
427,171,18020,6,0,P|439:105|426:39,1,136,4|0,0:0|3:0,3:0:0:0:
275,88,18582,2,0,P|263:154|276:220,1,136,0|0,0:0|2:0,3:0:0:0:
369,195,19145,1,0,0:0:0:0:
369,195,19332,1,0,3:0:0:0:
410,285,19520,2,0,P|443:288|477:282,1,68,4|0,0:0|3:0,1:0:0:0:
350,342,19895,1,2,2:0:0:0:
350,342,20082,2,0,P|298:322|210:342,1,136,0|2,0:0|3:2,3:0:0:0:
122,332,20645,2,0,P|92:304|80:268,1,68,0|0,0:0|2:0,0:0:0:0:
98,143,21020,5,4,0:0:0:0:
170,81,21207,1,0,3:0:0:0:
215,165,21395,1,2,3:2:0:0:
284,104,21582,2,0,P|324:104|360:88,1,68,0|0,2:0|2:0,0:0:0:0:
413,172,21957,1,0,0:0:0:0:
413,172,22145,2,2,L|405:252,1,68,0|0,3:0|2:0,0:0:0:0:
387,333,22520,1,0,0:0:0:0:
300,288,22707,1,0,0:0:0:0:
284,292,22801,1,0,3:0:0:0:
268,296,22895,2,0,L|180:292,1,68,2|4,2:0|2:0,0:0:0:0:
69,300,23270,5,0,0:0:0:0:
60,268,23363,1,8,3:0:0:0:
60,232,23457,1,0,0:0:0:0:
72,200,23551,1,0,3:0:0:0:
92,172,23645,1,8,1:3:0:0:
108,140,23738,1,8,3:0:0:0:
112,108,23832,1,4,3:0:0:0:
104,68,23926,1,0,3:0:0:0:
88,40,24020,5,4,0:0:0:0:
184,16,24207,1,0,0:0:0:0:
212,108,24395,1,8,0:3:0:0:
300,68,24582,2,0,P|360:58|468:69,1,170
368,160,25145,2,0,P|323:166|272:184,1,85,8|0,0:3|0:0,0:0:0:0:
392,328,25520,6,0,P|439:320|484:304,1,85,4|4,0:0|3:0,0:0:0:0:
376,244,25895,1,8,0:3:0:0:
264,240,26082,2,0,P|196:272|100:260,1,170
12,292,26645,2,0,P|8:256|24:208,1,85,8|0,0:3|0:0,0:0:0:0:
136,52,27020,6,0,P|140:88|128:136,1,85,4|0,0:0|0:0,0:0:0:0:
24,84,27395,1,8,0:3:0:0:
112,148,27582,2,0,B|172:168|172:168|280:160,1,170
400,208,28145,2,0,P|440:200|496:200,1,85,8|0,0:3|0:0,0:0:0:0:
328,280,28520,2,0,P|264:288|168:248,1,170,4|0,0:0|0:0,0:0:0:0:
105,136,29082,2,0,P|169:128|265:168,1,170
391,142,29645,1,8,0:3:0:0:
190,296,30020,6,0,P|173:249|125:215,1,85,4|0,0:0|3:0,0:0:0:0:
36,214,30395,1,8,1:3:0:0:
1,107,30582,2,0,P|71:151|155:139,1,170,0|2,0:0|1:3,0:0:0:0:
271,171,31145,2,0,P|272:133|263:87,1,85,4|2,1:3|1:2,0:0:0:0:
88,260,31520,6,0,P|87:298|96:344,1,85,4|0,0:0|0:0,0:0:0:0:
200,268,31895,1,8,0:3:0:0:
200,268,32082,2,0,B|220:184|176:184|192:100,1,170,0|2,0:0|1:3,0:0:0:0:
308,152,32645,2,0,P|348:164|404:160,1,85,8|0,0:3|0:0,0:0:0:0:
472,280,33020,6,0,P|400:268|328:324,1,170,4|8,0:0|0:3,0:0:0:0:
236,272,33582,2,0,B|180:268|180:268|149:286|108:292|68:276,1,170
117,174,34145,2,0,L|32:166,1,85,8|4,0:3|3:0,0:0:0:0:
162,81,34520,2,0,L|246:88,1,85,4|0,0:0|0:0,0:0:0:0:
341,10,34895,1,8,0:3:0:0:
444,74,35082,2,0,P|452:146|416:234,1,170
296,352,35645,2,0,P|292:300|300:264,1,85,8|0,0:3|0:0,0:0:0:0:
320,232,35926,1,0,0:0:0:0:
320,232,36020,5,6,0:0:0:0:
224,276,36207,2,0,L|136:280,1,85
20,320,36582,2,2,P|26:233|83:171,1,170,2|2,0:0|1:3,0:0:0:0:
211,167,37145,1,2,0:0:0:0:
61,174,37332,1,2,2:0:0:0:
229,167,37520,6,2,P|275:176|328:156,1,93.5000028533936,6|8,0:0|3:0,0:0:0:0:
495,96,37895,1,4,0:3:0:0:
337,68,38082,2,2,P|317:132|361:244,1,187.000005706787,2|2,0:0|1:3,0:0:0:0:
482,293,38645,2,0,P|450:325|438:369,1,85,2|0,0:0|0:0,0:0:0:0:
441,184,39020,6,2,P|453:127|401:30,1,170,6|8,0:0|0:3,0:0:0:0:
230,95,39582,2,2,P|218:152|270:249,1,170,2|0,0:0|0:0,0:0:0:0:
336,140,40145,1,2,0:0:0:0:
344,152,40520,1,6,0:0:0:0:
314,53,40707,1,0,0:0:0:0:
226,108,40895,1,8,0:3:0:0:
226,108,41082,2,2,P|130:104|58:120,1,170,2|2,0:0|1:3,0:0:0:0:
201,188,41645,2,0,P|241:192|289:204,1,85,2|0,0:0|0:0,0:0:0:0:
336,290,42020,6,0,P|320:242|376:142,1,170,4|8,0:0|1:0,0:0:0:0:
420,234,42582,1,0,0:0:0:0:
503,178,42770,2,0,P|519:226|463:326,1,170,4|8,0:0|0:0,0:0:0:0:
377,362,43332,1,0,0:0:0:0:
292,312,43520,2,0,P|236:296|136:336,1,170,4|8,0:0|0:0,0:0:0:0:
72,232,44082,1,0,0:0:0:0:
72,232,44270,2,0,P|96:192|104:152,1,85,4|2,0:0|2:2,0:0:0:0:
35,47,44645,1,8,0:0:0:0:
176,208,45020,6,0,P|208:128|200:36,1,170,4|8,0:0|0:0,0:0:0:0:
382,135,45770,1,0,0:0:0:0:
478,119,45957,1,4,0:0:0:0:
418,43,46145,1,8,0:0:0:0:
204,284,46520,6,0,L|104:296,1,85,4|0,0:0|0:0,0:0:0:0:
0,212,46895,2,0,L|100:200,1,85,8|2,0:0|2:0,0:0:0:0:
164,64,47270,5,8,1:0:0:0:
197,59,47363,1,8,3:0:0:0:
233,64,47457,1,4,3:0:0:0:
262,79,47551,1,0,3:0:0:0:
284,100,47645,1,0,0:0:0:0:
313,119,47738,1,8,3:0:0:0:
343,128,47832,1,4,3:0:0:0:
376,128,47926,1,0,3:0:0:0:
408,116,48020,6,2,P|452:148|472:216,1,93.5000028533936,4|0,0:0|3:0,0:0:0:0:
428,304,48395,1,10,0:3:0:0:
268,300,48582,1,2,0:0:0:0:
228,180,48770,2,0,P|184:168|136:180,1,93.5000028533936,2|0,0:0|0:0,0:0:0:0:
56,324,49145,2,2,P|100:336|145:325,1,93.5000028533936,8|0,0:3|0:0,0:0:0:0:
268,156,49520,2,2,P|244:243|288:332,1,187.000005706787,6|8,0:0|0:3,0:0:0:0:
420,232,50082,2,2,P|443:144|404:56,1,187.000005706787,2|8,0:0|0:3,0:0:0:0:
304,160,50645,5,2,0:0:0:0:
315,290,50832,1,2,0:0:0:0:
172,324,51020,22,2,P|186:254|153:201,1,93.5000028533936,4|0,0:0|3:0,0:0:0:0:
152,109,51395,1,8,0:3:0:0:
249,29,51582,1,2,0:0:0:0:
271,147,51770,2,2,P|316:160|361:150,1,93.5000028533936,2|0,0:0|0:0,0:0:0:0:
452,264,52145,2,2,P|407:252|361:260,1,93.5000028533936,8|0,0:3|0:0,0:0:0:0:
248,344,52520,2,2,P|224:308|232:200,1,140.25000428009,6|0,0:0|2:0,0:0:0:0:
244,184,52895,1,8,0:3:0:0:
352,16,53082,2,2,P|380:84|340:196,1,187.000005706787
208,103,53645,1,8,0:3:0:0:
96,276,53926,21,0,0:0:0:0:
96,276,54020,2,2,P|186:287|216:278,1,93.5000028533936,4|0,0:0|3:0,0:0:0:0:
305,241,54395,1,8,0:3:0:0:
404,320,54582,1,2,0:0:0:0:
492,218,54770,2,2,P|452:190|406:185,1,93.5000028533936,2|0,0:0|0:0,0:0:0:0:
252,96,55145,2,2,P|288:104|348:80,1,93.5000028533936,8|0,1:3|0:0,0:0:0:0:
200,205,55520,2,2,P|115:169|4:181,1,187.000005706787,6|8,0:0|0:3,0:0:0:0:
96,315,56082,2,2,P|193:357|292:339,1,187.000005706787,2|0,0:0|0:0,0:0:0:0:
200,205,56645,5,2,0:0:0:0:
72,200,56832,1,2,0:0:0:0:
120,80,57020,22,2,P|196:88|308:76,1,187.000005706787,4|8,0:0|0:3,0:0:0:0:
464,168,57582,1,2,0:0:0:0:
464,168,57770,2,2,P|472:104|460:68,1,93.5000028533936,2|0,0:0|0:0,0:0:0:0:
352,184,58145,2,2,P|344:248|356:284,1,93.5000028533936,8|0,0:3|0:0,0:0:0:0:
167,319,58520,22,2,P|111:279|107:207,1,127.5,6|0,0:0|0:0,0:0:0:0:
116,192,58895,1,0,0:0:0:0:
287,68,59082,2,2,P|291:108|203:188,1,170,6|0,0:0|0:0,0:0:0:0:
200,96,59645,1,6,0:0:0:0:
440,136,60020,21,4,2:0:0:0:
256,192,66020,37,4,0:0:0:0:
256,192,66207,1,0,0:0:0:0:
84,80,71082,5,6,2:0:0:0:
184,144,71270,2,0,L|180:188,2,42.5
292,104,71645,1,0,0:0:0:0:
312,96,71738,1,0,0:0:0:0:
332,88,71832,1,0,0:0:0:0:
352,88,71926,1,0,0:0:0:0:
372,88,72020,5,0,1:0:0:0:
392,242,72207,1,0,1:0:0:0:
475,221,72395,5,2,0:0:0:0:
475,221,72582,2,0,P|471:273|391:329,1,152.999995330811
291,287,73145,2,0,P|299:324|292:362,1,76.4999976654053,2|0,0:0|0:0,0:0:0:0:
180,328,73520,6,0,P|164:276|188:192,1,114.749996498108,0|0,0:0|3:0,0:0:0:0:
192,188,73895,1,2,0:0:0:0:
92,220,74082,1,0,0:0:0:0:
56,120,74270,1,0,0:0:0:0:
168,92,74458,1,2,0:0:0:0:
168,92,74552,1,0,0:0:0:0:
168,92,74645,1,0,0:0:0:0:
192,188,74832,1,2,0:0:0:0:
312,164,75020,5,0,1:0:0:0:
451,104,75207,1,0,1:0:0:0:
420,212,75395,5,2,0:0:0:0:
420,212,75582,2,0,P|444:280|408:348,1,152.999995330811
320,300,76145,1,2,0:0:0:0:
252,368,76332,1,0,0:0:0:0:
168,312,76520,2,0,P|128:288|60:288,1,114.749996498108,2|0,0:0|0:0,0:0:0:0:
40,284,76895,2,0,B|28:248|28:248|32:204,1,76.4999976654053,0|2,0:0|0:0,0:0:0:0:
64,80,77270,21,8,1:0:0:0:
140,216,77457,1,4,2:0:0:0:
200,72,77645,1,8,0:0:0:0:
210,48,77738,1,0,0:0:0:0:
219,24,77832,1,8,3:0:0:0:
376,72,78020,6,0,P|396:116|384:176,1,85,4|0,1:0|0:3,0:0:0:0:
332,264,78395,1,4,0:3:0:0:
212,304,78582,2,0,P|172:290|144:260,1,85,0|0,1:0|0:3,0:0:0:0:
280,184,78957,1,4,0:3:0:0:
396,228,79145,2,0,P|432:236|480:220,1,85,4|0,0:0|0:0,0:0:0:0:
428,115,79520,6,2,L|424:31,2,85,4|0|4,0:0|0:3|0:3,0:0:0:0:
304,132,80082,2,0,P|240:117|192:121,1,85,0|0,0:0|0:3,0:0:0:0:
109,177,80457,1,4,0:3:0:0:
20,96,80645,2,0,P|12:60|28:16,1,85
96,208,81020,6,0,P|104:244|88:288,1,85,4|4,0:0|0:3,0:0:0:0:
260,332,81395,2,0,P|216:344|172:336,1,85,4|0,0:3|0:0,0:0:0:0:
276,192,81770,2,0,P|320:180|364:188,1,85,4|0,0:3|0:0,0:0:0:0:
392,320,82145,1,4,0:0:0:0:
371,192,82332,1,0,0:0:0:0:
412,68,82520,5,4,0:0:0:0:
304,52,82707,1,8,0:0:0:0:
264,68,82801,1,0,0:0:0:0:
224,60,82895,1,8,0:0:0:0:
184,52,82988,1,0,3:0:0:0:
144,60,83082,1,10,0:0:0:0:
32,112,83270,5,8,0:0:0:0:
32,112,83457,1,8,0:0:0:0:
82,216,83645,1,0,1:0:0:0:
64,254,83738,1,8,0:0:0:0:
62,298,83832,1,8,0:0:0:0:
76,338,83926,1,8,0:0:0:0:
108,368,84020,6,2,P|172:372|248:364,1,140.25000428009,4|0,0:0|2:0,0:0:0:0:
260,344,84395,2,0,B|305:364|352:352,1,93.5000028533936,2|0,0:0|0:0,0:0:0:0:
260,192,84770,2,0,P|216:176|164:180,1,93.5000028533936,2|0,0:0|0:0,0:0:0:0:
388,220,85145,1,8,0:3:0:0:
508,168,85332,1,2,0:0:0:0:
403,83,85520,2,2,P|359:111|235:79,1,187.000005706787,2|8,0:0|0:3,0:0:0:0:
128,204,86082,2,2,P|172:176|296:208,1,187.000005706787,2|0,0:0|0:3,0:0:0:0:
116,288,86645,2,0,P|72:292|20:308,1,93.5000028533936,2|2,0:0|0:0,0:0:0:0:
176,348,87020,6,2,P|244:356|304:348,1,93.5000028533936,4|0,0:0|3:0,0:0:0:0:
400,340,87395,1,2,0:0:0:0:
332,228,87582,1,0,0:0:0:0:
452,172,87770,2,2,P|459:126|451:80,1,93.5000028533936,2|0,0:0|0:0,0:0:0:0:
268,40,88145,2,2,P|260:85|268:131,1,93.5000028533936,8|0,0:3|0:0,0:0:0:0:
360,268,88520,2,2,P|301:303|232:300,1,140.25000428009,2|0,0:0|3:0,0:0:0:0:
200,276,88895,1,8,0:3:0:0:
268,131,89082,2,2,P|357:109|439:148,1,187.000005706787,2|2,0:0|0:0,0:0:0:0:
480,304,89645,1,8,0:3:0:0:
311,351,89926,5,0,0:0:0:0:
311,351,90020,2,2,P|287:303|294:224,1,93.5000028533936,4|0,0:0|3:0,0:0:0:0:
284,140,90395,1,2,0:0:0:0:
160,112,90582,1,0,0:0:0:0:
112,232,90770,2,2,P|158:224|204:232,1,93.5000028533936,2|0,0:0|0:0,0:0:0:0:
380,116,91145,2,2,P|335:125|289:119,1,93.5000028533936,8|0,0:3|0:0,0:0:0:0:
470,41,91520,2,2,P|489:131|446:212,1,187.000005706787,2|8,0:0|0:3,0:0:0:0:
284,192,92082,2,2,P|266:102|311:23,1,187.000005706787,2|0,0:0|0:0,0:0:0:0:
380,116,92645,5,2,0:0:0:0:
220,8,92832,1,2,0:0:0:0:
124,80,93020,22,2,P|108:164|152:264,1,187.000005706787,4|2,0:0|0:0,0:0:0:0:
272,288,93582,1,0,0:0:0:0:
344,184,93770,2,2,P|348:128|328:96,1,93.5000028533936,2|0,0:0|0:0,0:0:0:0:
356,272,94145,2,0,P|352:328|372:360,1,93.5000028533936,2|0,0:0|0:0,0:0:0:0:
456,260,94520,5,6,0:0:0:0:
464,108,94707,1,8,3:0:0:0:
464,108,94895,1,0,0:0:0:0:
280,12,95082,5,6,0:0:0:0:
292,140,95270,1,4,0:0:0:0:
292,140,95457,1,8,3:0:0:0:
396,68,95645,1,6,0:0:0:0:
160,136,95926,5,8,3:0:0:0:
160,136,96020,2,0,P|176:204|144:292,1,152.999995330811,4|8,0:0|1:0,0:0:0:0:
60,286,96582,1,0,3:0:0:0:
73,293,96957,1,4,1:3:0:0:
176,308,97145,1,8,1:0:0:0:
136,212,97332,1,0,0:0:0:0:
184,328,97520,22,0,P|244:332|276:328,1,76.4999976654053,2|0,2:0|0:0,0:0:0:0:
280,328,97801,1,0,0:0:0:0:
300,324,97895,1,8,1:0:0:0:
368,242,98082,1,0,3:0:0:0:
368,242,98176,2,0,P|405:246|483:209,1,114.749996498108,4|2,3:0|1:3,3:0:0:0:
429,126,98645,2,2,P|481:114|517:126,1,85,10|0,0:0|3:2,0:0:0:0:
357,161,99020,6,0,P|321:169|269:153,1,76.4999976654053,2|2,1:0|1:0,0:0:0:0:
205,70,99395,1,8,1:0:0:0:
88,108,99582,1,0,0:0:0:0:
88,108,99676,2,0,P|64:164|80:240,1,114.749996498108,4|8,3:0|3:0,3:0:0:0:
162,305,100145,1,8,1:1:0:0:
84,316,100332,1,0,0:0:0:0:
256,204,100520,6,0,P|264:164|260:128,1,76.4999976654053,2|0,1:2|0:0,0:0:0:0:
258,118,100801,1,0,0:0:0:0:
256,109,100895,1,8,1:1:0:0:
183,273,101082,1,0,1:0:0:0:
183,273,101176,2,0,P|199:284|299:288,1,114.749996498108,4|0,1:3|0:0,0:0:0:0:
392,296,101645,2,0,P|424:324|444:364,1,76.4999976654053,8|0,1:0|0:0,0:0:0:0:
480,256,102020,5,6,1:0:0:0:
460,136,102207,1,2,1:0:0:0:
364,124,102395,1,8,1:0:0:0:
300,56,102582,2,0,P|331:76|440:56,1,152.999995330811,4|2,3:0|1:3,0:0:0:0:
244,112,103145,2,0,P|208:92|172:88,1,76.4999976654053,8|0,1:0|0:0,0:0:0:0:
76,212,103520,22,0,P|112:232|148:236,1,76.4999976654053,2|0,1:2|2:0,0:0:0:0:
158,234,103801,1,0,3:0:0:0:
167,231,103895,1,8,1:0:0:0:
268,196,104082,1,0,3:0:0:0:
270,186,104176,1,8,3:3:0:0:
396,344,104457,1,2,0:0:0:0:
504,304,104645,1,10,1:0:0:0:
412,232,104832,1,0,3:0:0:0:
308,276,105020,5,2,1:0:0:0:
204,328,105207,1,2,1:0:0:0:
212,212,105395,1,8,1:0:0:0:
116,272,105582,1,0,3:0:0:0:
116,272,105676,2,0,P|60:268|3:255,1,114.749996498108,0|8,2:0|1:3,3:0:0:0:
2,255,106145,2,0,L|15:177,1,76.4999976654053,8|0,0:0|2:0,0:0:0:0:
144,32,106520,6,0,B|140:68|140:68|124:104,1,76.4999976654053,2|0,1:3|2:0,0:0:0:0:
111,117,106801,1,0,2:0:0:0:
100,128,106895,2,0,P|156:119|207:144,1,114.749996498108,8|0,1:0|3:0,1:0:0:0:
208,164,107270,2,0,P|244:178|282:175,1,76.4999976654053,0|4,0:3|1:3,0:0:0:0:
428,112,107645,1,8,2:0:0:0:
445,136,107738,1,0,0:0:0:0:
460,165,107832,1,0,0:0:0:0:
470,196,107926,1,0,0:0:0:0:
475,228,108020,1,4,0:0:0:0:
106,206,114020,6,0,P|84:147|108:90,1,127.500004863739,4|2,1:0|0:0,0:0:0:0:
185,150,114582,2,0,P|203:209|181:268,1,127.500004863739,0|2,0:0|0:0,0:0:0:0:
100,309,115145,1,0,0:0:0:0:
176,353,115332,1,0,0:0:0:0:
260,324,115520,6,0,P|300:324|352:320,1,63.7500024318696,2|0,0:0|0:0,0:0:0:0:
408,352,115895,1,0,0:0:0:0:
456,280,116082,2,0,P|420:240|416:168,1,127.500004863739,2|0,0:0|0:0,0:0:0:0:
500,140,116645,2,0,P|504:168|492:220,1,63.7500024318696,2|0,0:0|0:0,0:0:0:0:
424,92,117020,6,0,P|420:64|432:12,2,63.7500024318696,2|0|0,0:0|0:0|0:0,0:0:0:0:
336,136,117582,2,0,P|292:116|216:140,1,127.500004863739,2|0,0:0|0:0,0:0:0:0:
128,124,118145,1,2,0:0:0:0:
128,124,118520,2,0,P|124:153|132:188,1,63.7500024318696,2|0,0:0|0:0,0:0:0:0:
216,230,118895,1,0,0:0:0:0:
304,196,119082,2,0,P|352:220|420:196,1,127.500004863739,2|0,0:0|0:0,0:0:0:0:
448,105,119645,2,0,P|413:102|376:108,1,63.7500024318696,2|0,0:0|0:0,0:0:0:0:
374,111,119926,1,2,0:0:0:0:
364,116,120020,5,0,0:0:0:0:
176,96,120395,1,2,0:0:0:0:
176,96,120582,2,0,P|112:92|40:100,1,127.500004863739
49,98,121145,2,0,L|52:172,1,63.7500024318696,2|0,0:0|0:0,0:0:0:0:
24,248,121520,6,0,B|44:276|80:280|80:280|148:276,1,127.500004863739,2|0,0:0|0:0,0:0:0:0:
197,339,122082,2,0,B|228:312|226:270|226:270|253:275|285:271,1,127.500004863739,2|2,0:0|0:0,0:0:0:0:
356,304,122645,2,0,P|363:260|358:241,1,63.7500024318696
296,180,123020,5,2,0:0:0:0:
276,272,123207,1,0,0:0:0:0:
366,249,123395,1,0,0:0:0:0:
366,249,123582,2,0,P|428:236|493:255,1,127.500004863739,2|0,0:0|0:0,0:0:0:0:
425,312,124145,2,0,P|421:344|425:376,1,63.7500024318696,2|2,0:0|0:0,0:0:0:0:
488,252,124520,6,0,P|492:219|488:187,1,63.7500024318696,2|0,0:0|0:0,0:0:0:0:
512,96,124895,1,2,0:0:0:0:
512,96,125082,2,0,P|444:88|380:88,1,127.500004863739,0|2,0:0|0:0,0:0:0:0:
260,128,125645,2,0,L|172:136,1,63.7500024318696
174,129,125926,1,0,0:0:0:0:
152,124,126020,5,12,0:0:0:0:
68,216,126207,1,0,0:0:0:0:
160,304,126395,1,8,0:3:0:0:
160,304,126582,2,0,P|224:312|344:288,1,187.000005706787,8|0,0:0|0:0,0:0:0:0:
296,170,127145,2,2,P|336:164|392:178,1,93.5000028533936,8|0,1:0|0:0,0:0:0:0:
468,72,127520,5,12,0:0:0:0:
387,175,127707,2,0,P|374:137|379:75,1,93.5000028533936,8|4,3:0|0:3,0:0:0:0:
492,180,128082,2,2,P|512:272|496:368,1,187.000005706787,8|0,0:0|0:0,0:0:0:0:
368,280,128645,1,8,1:0:0:0:
276,356,128832,1,0,0:0:0:0:
160,336,129020,6,0,B|128:248|128:248|172:228|188:180,1,187.000005706787,12|8,0:0|0:3,0:0:0:0:
64,40,129582,2,0,B|92:132|92:132|52:152|36:200,1,187.000005706787,8|0,0:0|0:0,0:0:0:0:
128,248,130145,2,0,P|165:221|188:180,1,93.5000028533936,8|0,1:0|0:0,0:0:0:0:
240,52,130520,2,0,P|236:96|260:144,1,93.5000028533936,12|0,0:0|0:0,0:0:0:0:
244,268,130895,1,4,3:0:0:0:
360,228,131082,2,0,P|392:140|360:56,1,187.000005706787,8|0,0:0|0:0,0:0:0:0:
264,140,131645,1,8,0:0:0:0:
147,130,131832,1,0,0:0:0:0:
28,116,132020,5,12,1:0:0:0:
4,252,132207,1,8,1:0:0:0:
484,268,133520,5,8,1:0:0:0:
508,132,133707,1,8,1:0:0:0:
188,51,135020,5,4,0:0:0:0:
62,88,135207,1,0,0:0:0:0:
157,178,135395,2,0,P|170:227|214:268,1,93.5000028533936,8|0,1:0|3:0,0:0:0:0:
333,339,135770,5,8,3:0:0:0:
429,248,135957,1,0,0:3:0:0:
334,150,136145,2,0,P|288:157|248:179,1,93.5000028533936,8|0,1:0|2:0,0:0:0:0:
101,314,136520,6,0,P|147:307|187:285,1,93.5000028533936,4|0,1:0|0:0,0:0:0:0:
421,179,136895,2,0,P|374:172|334:150,1,93.5000028533936,8|2,1:0|3:2,0:0:0:0:
211,48,137270,6,0,L|165:55,3,46.7500014266968,8|8|4|0,0:0|3:3|3:0|3:0,0:0:0:0:
89,144,137645,2,0,L|136:136,3,46.7500014266968,8|8|4|0,1:0|3:3|3:0|3:0,0:0:0:0:
61,149,138020,22,2,P|37:217|45:277,1,93.5000028533936,4|0,0:0|3:0,0:0:0:0:
80,360,138395,1,2,0:0:0:0:
212,344,138582,1,0,0:0:0:0:
236,216,138770,2,0,P|195:213|144:220,1,93.5000028533936,2|0,0:0|0:0,0:0:0:0:
276,144,139145,2,2,P|316:148|368:140,1,93.5000028533936,8|2,0:3|0:0,0:0:0:0:
460,227,139520,2,2,P|487:139|460:52,1,187.000005706787,0|8,0:0|0:3,0:0:0:0:
348,206,140082,2,2,P|351:298|409:371,1,187.000005706787,2|0,0:0|0:0,0:0:0:0:
472,208,140645,21,2,0:0:0:0:
436,40,140832,1,2,0:0:0:0:
272,84,141020,6,2,B|184:100|184:100|88:72,1,187.000005706787,4|2,0:0|0:0,0:0:0:0:
20,8,141582,1,0,0:0:0:0:
128,164,141770,2,2,P|136:208|128:256,1,93.5000028533936
4,364,142145,2,0,P|-4:319|4:273,1,93.5000028533936,8|2,0:3|0:0,0:0:0:0:
200,156,142520,2,2,P|204:256|164:336,1,187.000005706787,0|8,0:0|0:3,0:0:0:0:
48,216,143082,2,2,P|44:116|84:36,1,187.000005706787
256,112,143645,1,8,0:3:0:0:
496,204,143926,21,0,0:0:0:0:
496,204,144020,2,2,P|493:157|472:112,1,93.5000028533936,4|0,0:0|3:0,0:0:0:0:
388,16,144395,1,2,0:0:0:0:
376,144,144582,1,0,0:0:0:0:
244,172,144770,2,2,P|244:120|276:60,1,93.5000028533936,2|0,0:0|0:0,0:0:0:0:
376,144,145145,2,2,P|380:190|363:234,1,93.5000028533936,8|2,0:3|0:0,0:0:0:0:
276,332,145520,2,2,P|364:357|454:335,1,187.000005706787,2|8,0:0|0:3,0:0:0:0:
316,188,146082,2,2,P|226:163|136:184,1,187.000005706787,2|0,0:0|0:0,0:0:0:0:
388,132,146645,21,2,0:0:0:0:
504,80,146832,1,2,0:0:0:0:
389,226,147020,22,2,P|365:298|425:382,1,187.000005706787,4|2,0:0|0:0,0:0:0:0:
459,292,147582,1,0,0:0:0:0:
304,360,147770,2,2,L|208:368,1,93.5000028533936,2|0,0:0|0:0,0:0:0:0:
160,248,148145,2,0,L|256:256,1,93.5000028533936,8|2,0:3|0:0,0:0:0:0:
76,296,148520,22,0,P|64:260|76:204,1,93.5000028533936,6|0,0:0|0:0,0:0:0:0:
92,192,148801,1,0,0:0:0:0:
92,192,148895,1,0,0:0:0:0:
244,108,149082,1,2,0:0:0:0:
126,103,149270,1,4,0:0:0:0:
126,103,149363,1,0,0:0:0:0:
126,103,149457,1,0,0:0:0:0:
210,197,149645,1,6,0:0:0:0:
384,352,149926,5,0,0:0:0:0:
384,352,150020,2,2,P|404:296|368:188,1,152.999995330811,4|0,0:0|2:0,0:0:0:0:
364,220,150395,2,0,L|376:108,1,101.999996887207,4|2,2:0|0:0,0:0:0:0:
232,8,150770,2,0,P|266:49|322:74,1,101.999996887207,2|0,0:0|0:0,0:0:0:0:
144,76,151145,2,2,P|91:85|41:121,1,101.999996887207,4|0,2:0|0:0,0:0:0:0:
0,320,151520,2,2,P|92:276|96:182,1,203.999993774414,2|4,0:0|2:0,0:0:0:0:
268,224,152082,2,2,P|176:180|172:84,1,203.999993774414
340,84,152645,2,2,P|316:104|236:136,1,101.999996887207,4|2,2:0|0:0,0:0:0:0:
424,120,153020,6,2,P|460:204|456:252,1,101.999996887207,4|0,0:0|3:0,0:0:0:0:
344,328,153395,1,4,2:0:0:0:
236,204,153582,1,2,0:0:0:0:
198,48,153770,2,2,P|208:92|184:144,1,101.999996887207,2|0,0:0|0:0,0:0:0:0:
132,304,154145,2,2,P|122:260|143:205,1,101.999996887207,4|2,2:0|0:0,0:0:0:0:
299,46,154520,2,2,P|300:135|256:244,1,203.999993774414,2|4,0:0|2:0,0:0:0:0:
39,300,155082,2,0,P|38:211|80:104,1,203.999993774414,2|0,0:0|0:0,0:0:0:0:
168,172,155645,1,4,2:0:0:0:
384,304,155926,5,0,0:0:0:0:
384,304,156020,2,2,P|408:248|408:164,1,101.999996887207,4|2,0:0|3:2,0:0:0:0:
396,72,156395,1,2,1:0:0:0:
296,164,156582,2,2,P|248:156|200:132,1,101.999996887207,0|2,0:0|0:0,0:0:0:0:
142,24,156957,1,0,0:0:0:0:
120,208,157145,2,0,L|108:316,1,101.999996887207,4|0,2:0|0:0,0:0:0:0:
44,124,157520,2,2,P|100:168|228:136,1,203.999993774414,2|4,0:0|2:0,0:0:0:0:
388,260,158082,2,2,P|332:216|204:248,1,203.999993774414,2|0,0:0|0:0,0:0:0:0:
293,316,158645,5,4,1:2:0:0:
456,308,158832,1,0,1:1:0:0:
456,308,159020,5,6,0:0:0:0:
506,189,159207,1,2,3:1:0:0:
389,146,159395,2,0,L|288:158,1,101.999996887207,0|2,1:0|3:1,0:0:0:0:
177,49,159770,2,0,L|280:62,1,101.999996887207,2|0,0:0|3:0,0:0:0:0:
117,120,160145,1,2,0:0:0:0:
92,143,160238,1,0,0:0:0:0:
75,171,160332,1,0,0:0:0:0:
65,201,160426,1,0,0:0:0:0:
60,232,160520,6,2,B|96:216|136:220|164:240|164:240|180:280|216:308|264:312,1,237.999992736817,6|0,0:0|0:0,0:0:0:0:
460,188,161082,2,0,B|424:204|384:200|356:180|356:180|340:140|304:112|256:108,1,237.999992736817,6|0,0:0|0:0,3:0:0:0:
260,212,161645,1,6,0:0:0:0:
