osu file format v14

[General]
AudioFilename: audio.mp3
AudioLeadIn: 0
PreviewTime: 119917
Countdown: 0
SampleSet: None
StackLeniency: 0.7
Mode: 0
LetterboxInBreaks: 0
WidescreenStoryboard: 1

[Editor]
Bookmarks: 45086,67586,75086
DistanceSpacing: 1.4
BeatDivisor: 6
GridSize: 32
TimelineZoom: 1

[Metadata]
Title:Rockstar
TitleUnicode:Rockstar
Artist:Blue Stahli
ArtistUnicode:Blue Stahli
Creator:Fanteer
Version:AR 9
Source:
Tags:
BeatmapID:1948573
BeatmapSetID:932397

[Difficulty]
HPDrainRate:6
CircleSize:4
OverallDifficulty:9
ApproachRate:9
SliderMultiplier:2.6
SliderTickRate:1

[Events]
//Background and Video events
0,0,"EKX7PuX.png",0,0
//Break Periods
2,142774,149474
//Storyboard Layer 0 (Background)
//Storyboard Layer 1 (Fail)
//Storyboard Layer 2 (Pass)
//Storyboard Layer 3 (Foreground)
//Storyboard Sound Samples

[TimingPoints]
74,468.75,4,2,1,50,1,0
7574,-125,4,2,1,50,0,0
15074,-111.111111111111,4,2,1,50,0,0
29136,-125,4,2,1,50,0,0
30074,-100,4,2,1,50,0,0
35699,-83.3333333333333,4,2,1,50,0,0
44605,-125,4,2,1,50,0,0
45074,-166.666666666667,4,2,1,50,0,0
52574,-125,4,2,1,50,0,0
67574,-125,4,2,1,50,0,0
75074,-125,4,2,1,50,0,0
90074,-100,4,2,1,50,0,0
95699,-83.3333333333333,4,2,1,50,0,0
97574,-125,4,2,1,50,0,0
112574,-125,4,2,1,50,0,0
120074,-125,4,2,1,50,0,0
135074,-100,4,2,1,50,0,0
140699,-83.3333333333333,4,2,1,50,0,0
150074,-100,4,2,1,50,0,0
157105,-125,4,2,1,50,0,0
157574,-71.4285714285714,4,2,1,50,0,1
164605,-83.3333333333333,4,2,1,50,0,1
165074,-71.4285714285714,4,2,1,50,0,1
172574,-125,4,2,1,50,0,0
185699,-100,4,2,1,50,0,0
187574,-125,4,2,1,50,0,0
200230,-100,4,2,1,50,0,0
202574,-100,4,2,1,50,0,0
208199,-83.3333333333333,4,2,1,50,0,0
217574,-125,4,2,1,50,0,0
222261,-83.3333333333333,4,2,1,50,0,0

[HitObjects]
73,238,7574,6,0,P|141:214|177:328,1,208
401,371,8355,1,0,0:0:0:0:
372,292,8511,1,0,0:0:0:0:
317,355,8667,1,0,0:0:0:0:
288,276,8824,1,0,0:0:0:0:
344,213,8980,2,0,L|425:223,1,69.3333333333333
460,153,9292,5,0,0:0:0:0:
412,86,9448,1,0,0:0:0:0:
332,112,9604,1,0,0:0:0:0:
332,195,9760,1,0,0:0:0:0:
412,221,9917,2,0,P|448:213|490:208,1,69.3333333333333
416,375,10230,5,0,0:0:0:0:
335,359,10386,1,0,0:0:0:0:
352,277,10542,1,0,0:0:0:0:
433,294,10698,1,0,0:0:0:0:
335,359,10855,2,0,P|298:351|242:342,1,69.3333333333333
160,355,11167,2,0,P|179:350|208:344,1,34.6666666666667
298,229,11324,6,0,P|245:271|178:262,1,138.666666666667
223,191,11792,1,0,0:0:0:0:
223,191,12105,1,0,0:0:0:0:
181,119,12261,1,0,0:0:0:0:
221,45,12417,1,0,0:0:0:0:
267,118,12574,1,0,0:0:0:0:
223,191,12730,2,0,P|189:181|155:176,1,69.3333333333333
51,194,13042,2,0,P|70:199|99:205,1,34.6666666666667
21,119,13199,5,0,0:0:0:0:
40,199,13355,1,0,0:0:0:0:
5,274,13511,1,0,0:0:0:0:
46,346,13667,2,0,L|136:328,1,69.3333333333333
193,317,13980,1,0,0:0:0:0:
203,318,14058,1,0,0:0:0:0:
213,320,14136,5,0,0:0:0:0:
167,203,14292,1,0,0:0:0:0:
113,332,14449,1,0,0:0:0:0:
241,236,14605,1,0,0:0:0:0:
275,381,14761,1,0,0:0:0:0:
185,325,14917,2,0,L|193:285,1,34.6666666666667
199,86,15074,6,0,P|222:150|242:243,1,155.999995239258
345,15,15542,2,0,P|322:79|302:172,1,155.999995239258
378,261,16011,5,0,0:0:0:0:
398,185,16167,1,0,0:0:0:0:
363,270,16324,1,0,0:0:0:0:
476,216,16480,5,0,0:0:0:0:
449,129,16636,1,0,0:0:0:0:
494,216,16792,1,0,0:0:0:0:
345,280,16949,6,0,L|180:255,1,155.999995239258
31,287,17417,2,0,P|36:318|144:352,1,155.999995239258
220,176,17886,5,0,0:0:0:0:
190,256,18043,1,0,0:0:0:0:
135,190,18199,1,0,0:0:0:0:
286,121,18355,5,0,0:0:0:0:
220,176,18512,1,0,0:0:0:0:
206,91,18668,1,0,0:0:0:0:
358,69,18824,6,0,B|371:117|371:117|354:239,1,155.999995239258
218,329,19292,2,0,B|205:281|205:281|219:175,1,155.999995239258
358,69,19761,5,0,0:0:0:0:
277,96,19917,1,0,0:0:0:0:
196,65,20074,1,0,0:0:0:0:
358,69,20230,5,0,0:0:0:0:
301,132,20386,1,0,0:0:0:0:
215,146,20543,1,0,0:0:0:0:
375,248,20699,5,0,0:0:0:0:
423,19,20855,1,0,0:0:0:0:
277,243,21011,1,0,0:0:0:0:
195,64,21167,1,0,0:0:0:0:
197,48,21323,1,0,0:0:0:0:
200,33,21479,1,0,0:0:0:0:
117,90,21636,5,0,0:0:0:0:
114,75,21792,1,0,0:0:0:0:
112,60,21948,1,0,0:0:0:0:
20,134,22105,2,0,P|56:137|92:161,1,77.999997619629
114,257,22417,2,0,P|119:239|134:214,1,38.9999988098145
309,116,22574,6,0,P|235:118|161:161,1,155.999995239258
0,25,23042,2,0,P|67:63|144:66,1,155.999995239258
287,19,23511,5,0,0:0:0:0:
228,81,23667,1,0,0:0:0:0:
218,167,23824,1,0,0:0:0:0:
287,19,23980,5,0,0:0:0:0:
320,97,24137,1,0,0:0:0:0:
300,180,24293,1,0,0:0:0:0:
156,124,24449,5,0,0:0:0:0:
339,90,24605,1,0,0:0:0:0:
246,238,24761,1,0,0:0:0:0:
402,348,24917,2,0,P|394:271|363:198,1,155.999995239258
121,183,25386,5,0,0:0:0:0:
206,171,25542,1,0,0:0:0:0:
291,160,25698,1,0,0:0:0:0:
121,183,25855,5,0,0:0:0:0:
206,171,26011,1,0,0:0:0:0:
291,160,26167,1,0,0:0:0:0:
153,108,26324,5,0,0:0:0:0:
230,303,26480,1,0,0:0:0:0:
243,95,26636,1,0,0:0:0:0:
102,239,26792,2,0,B|145:213|180:225|180:225|220:237|269:213,1,155.999995239258
424,178,27261,5,0,0:0:0:0:
364,239,27418,1,0,0:0:0:0:
341,156,27574,1,0,0:0:0:0:
426,199,27730,5,0,0:0:0:0:
356,248,27887,1,0,0:0:0:0:
348,162,28043,1,0,0:0:0:0:
348,162,28120,1,0,0:0:0:0:
348,162,28199,5,0,0:0:0:0:
454,346,28355,1,0,0:0:0:0:
171,251,28511,1,0,0:0:0:0:
280,0,28667,1,0,0:0:0:0:
356,248,28824,1,0,0:0:0:0:
110,127,28980,1,0,0:0:0:0:
335,70,29136,6,0,L|403:78,1,69.3333333333333
506,297,29449,6,0,L|438:305,1,69.3333333333333
321,96,29761,6,0,L|399:106,1,69.3333333333333
355,353,30074,6,0,P|305:297|210:301,1,173.333333333333
33,147,30542,2,0,P|83:203|178:199,1,173.333333333333
302,87,31011,5,0,0:0:0:0:
212,299,31167,1,0,0:0:0:0:
130,122,31324,1,0,0:0:0:0:
325,229,31480,5,0,0:0:0:0:
81,226,31636,1,0,0:0:0:0:
262,163,31792,1,0,0:0:0:0:
28,315,31949,6,0,B|47:267|47:267|32:141,1,173.333333333333
170,23,32417,2,0,B|151:71|151:71|166:197,1,173.333333333333
274,355,32886,5,0,0:0:0:0:
262,163,33042,1,0,0:0:0:0:
137,286,33199,1,0,0:0:0:0:
364,141,33355,5,0,0:0:0:0:
160,92,33511,1,0,0:0:0:0:
329,215,33667,1,0,0:0:0:0:
137,286,33824,6,0,B|101:234|121:170|121:170|151:171|178:195,1,173.333333333333
308,310,34292,2,0,P|365:293|477:270,1,173.333333333333
317,207,34761,5,0,0:0:0:0:
448,66,34917,1,0,0:0:0:0:
477,271,35074,1,0,0:0:0:0:
246,247,35230,5,0,0:0:0:0:
460,143,35386,1,0,0:0:0:0:
490,349,35542,1,0,0:0:0:0:
237,225,35699,6,0,L|361:209,1,103.999996826172
477,271,36011,1,0,0:0:0:0:
133,162,36167,5,0,0:0:0:0:
477,68,36324,1,0,0:0:0:0:
297,327,36480,1,0,0:0:0:0:
253,19,36636,5,0,0:0:0:0:
47,180,36792,1,0,0:0:0:0:
386,126,36949,1,0,0:0:0:0:
54,63,37105,5,0,0:0:0:0:
7,348,37261,1,0,0:0:0:0:
60,28,37417,1,0,0:0:0:0:
180,379,37574,6,0,B|153:327|153:327|180:162,1,207.999993652344
308,85,38042,2,0,B|335:137|335:137|308:302,1,207.999993652344
183,157,38511,5,0,0:0:0:0:
413,264,38667,1,0,0:0:0:0:
180,379,38824,1,0,0:0:0:0:
308,85,38980,5,0,0:0:0:0:
370,346,39136,1,0,0:0:0:0:
483,117,39292,1,0,0:0:0:0:
232,239,39449,6,0,B|179:252|130:225|130:225|78:200|8:223,1,207.999993652344
110,11,39917,2,0,P|182:38|193:159,1,207.999993652344
50,305,40386,5,0,0:0:0:0:
117,105,40542,1,0,0:0:0:0:
40,333,40699,1,0,0:0:0:0:
50,62,40855,5,0,0:0:0:0:
134,338,41011,1,0,0:0:0:0:
40,34,41168,1,0,0:0:0:0:
254,147,41324,6,0,B|264:214|264:214|242:277|242:277|248:354,1,207.999993652344
31,250,41792,2,0,B|69:224|69:224|186:209|186:209|167:261,1,207.999993652344
114,65,42261,5,0,0:0:0:0:
325,92,42417,1,0,0:0:0:0:
50,138,42574,1,0,0:0:0:0:
390,29,42730,5,0,0:0:0:0:
276,311,42886,1,0,0:0:0:0:
237,122,43042,1,0,0:0:0:0:
401,357,43199,5,0,0:0:0:0:
437,137,43355,1,0,0:0:0:0:
210,209,43511,1,0,0:0:0:0:
422,241,43667,5,0,0:0:0:0:
239,13,43824,1,0,0:0:0:0:
198,295,43980,1,0,0:0:0:0:
447,96,44136,5,0,0:0:0:0:
64,192,44292,1,0,0:0:0:0:
447,288,44449,1,0,0:0:0:0:
149,357,44605,6,0,P|89:344|5:331,1,138.666666666667,0|0,0:0|0:0,0:0:0:0:
46,211,45074,6,0,P|52:237|58:270,2,51.999998413086
4,146,45542,2,0,P|8:120|14:95,2,51.999998413086
140,171,46011,6,0,P|134:197|128:230,2,51.999998413086
182,106,46479,2,0,P|177:80|171:55,2,51.999998413086
249,180,46949,5,0,0:0:0:0:
264,177,47105,1,0,0:0:0:0:
279,174,47261,1,0,0:0:0:0:
344,264,47417,2,0,P|316:257|286:252,1,51.999998413086
273,261,47730,1,0,0:0:0:0:
190,330,47886,5,0,0:0:0:0:
193,345,48042,1,0,0:0:0:0:
196,361,48198,1,0,0:0:0:0:
113,337,48355,2,0,P|120:309|125:279,1,51.999998413086
116,266,48668,1,0,0:0:0:0:
15,168,48824,5,0,0:0:0:0:
39,158,48980,1,0,0:0:0:0:
64,153,49136,1,0,0:0:0:0:
176,122,49292,1,0,0:0:0:0:
150,116,49448,1,0,0:0:0:0:
126,107,49604,1,0,0:0:0:0:
307,35,49761,5,0,0:0:0:0:
318,58,49917,1,0,0:0:0:0:
321,83,50073,1,0,0:0:0:0:
299,156,50229,1,0,0:0:0:0:
302,131,50385,1,0,0:0:0:0:
314,108,50542,1,0,0:0:0:0:
445,186,50699,5,0,0:0:0:0:
448,211,50855,1,0,0:0:0:0:
451,237,51011,1,0,0:0:0:0:
386,307,51167,1,0,0:0:0:0:
383,332,51323,1,0,0:0:0:0:
380,358,51479,1,0,0:0:0:0:
229,285,51636,5,0,0:0:0:0:
261,217,51792,1,0,0:0:0:0:
335,207,51948,1,0,0:0:0:0:
253,358,52105,1,0,0:0:0:0:
178,346,52261,1,0,0:0:0:0:
104,334,52417,1,0,0:0:0:0:
72,197,52574,6,0,B|43:226|43:226|24:353,1,138.666666666667
189,267,53042,2,0,L|165:123,1,138.666666666667
25,85,53511,2,0,P|53:102|112:115,1,69.3333333333333
249,118,53824,2,0,P|191:50|120:58,1,138.666666666667
212,194,54292,1,0,0:0:0:0:
212,194,54449,6,0,B|250:214|282:198|282:198|318:182|373:199,1,138.666666666667
428,310,54917,2,0,P|371:326|321:264,1,138.666666666667
408,139,55386,2,0,P|404:103|394:45,1,69.3333333333333
332,27,55699,1,0,0:0:0:0:
189,48,55855,2,0,P|224:57|261:62,1,69.3333333333333
340,19,56167,1,0,0:0:0:0:
480,105,56324,6,0,B|492:143|492:143|472:248,1,138.666666666667
338,258,56792,2,0,P|375:266|412:279,1,69.3333333333333
402,132,57105,2,0,P|350:174|279:173,1,138.666666666667
181,70,57574,2,0,L|319:87,1,138.666666666667
103,41,58042,1,0,0:0:0:0:
103,41,58199,6,0,B|90:79|105:113|105:113|122:149|117:199,1,138.666666666667
15,277,58667,2,0,P|29:245|60:220,1,69.3333333333333
231,265,58980,2,0,L|89:293,1,138.666666666667
200,190,59449,1,0,0:0:0:0:
244,270,59605,1,0,0:0:0:0:
299,110,59761,1,0,0:0:0:0:
283,199,59917,1,0,0:0:0:0:
137,81,60074,6,0,P|68:70|0:63,1,138.666666666667
68,249,60542,2,0,B|67:205|67:205|50:147|50:147|26:173,1,138.666666666667
1,294,61011,2,0,P|27:317|85:329,1,69.3333333333333
205,230,61324,2,0,L|64:249,1,138.666666666667
221,140,61792,1,0,0:0:0:0:
221,140,61949,6,0,P|280:174|290:289,1,138.666666666667
190,367,62417,2,0,L|208:197,1,138.666666666667
103,182,62886,2,0,P|108:216|112:250,1,69.3333333333333
61,314,63199,1,0,0:0:0:0:
0,255,63355,2,0,P|4:221|9:187,1,69.3333333333333
61,314,63667,1,0,0:0:0:0:
190,367,63824,6,0,B|216:341|258:352|258:352|303:359|336:335,1,138.666666666667
512,336,64292,2,0,P|448:293|357:307,1,138.666666666667
267,218,64761,2,0,P|287:246|329:273,1,69.3333333333333
474,214,65074,2,0,P|461:145|438:80,1,138.666666666667
322,141,65542,1,0,0:0:0:0:
322,141,65699,6,0,L|170:127,1,138.666666666667
27,90,66167,2,0,P|60:97|99:131,1,69.3333333333333
135,252,66480,2,0,P|143:183|183:127,1,138.666666666667
264,113,66949,1,0,0:0:0:0:
130,37,67105,5,0,0:0:0:0:
303,22,67261,1,0,0:0:0:0:
109,58,67417,1,0,0:0:0:0:
264,285,67574,5,0,0:0:0:0:
266,198,67730,1,0,0:0:0:0:
245,115,67886,1,0,0:0:0:0:
93,273,68042,5,0,0:0:0:0:
179,283,68198,1,0,0:0:0:0:
219,360,68354,1,0,0:0:0:0:
14,299,68511,5,0,0:0:0:0:
28,213,68667,1,0,0:0:0:0:
93,273,68824,1,0,0:0:0:0:
185,155,68980,2,0,P|169:88|139:16,1,138.666666666667
359,119,69449,5,0,0:0:0:0:
272,105,69605,1,0,0:0:0:0:
323,32,69761,1,0,0:0:0:0:
451,135,69917,5,0,0:0:0:0:
442,224,70073,1,0,0:0:0:0:
434,314,70229,1,0,0:0:0:0:
277,236,70386,5,0,0:0:0:0:
361,260,70542,1,0,0:0:0:0:
442,224,70698,1,0,0:0:0:0:
264,143,70855,2,0,P|213:168|183:249,1,138.666666666667
99,384,71324,5,0,0:0:0:0:
119,298,71480,1,0,0:0:0:0:
85,217,71636,1,0,0:0:0:0:
156,65,71792,5,0,0:0:0:0:
96,129,71948,1,0,0:0:0:0:
85,217,72104,1,0,0:0:0:0:
308,136,72261,5,0,0:0:0:0:
244,76,72417,1,0,0:0:0:0:
156,65,72573,1,0,0:0:0:0:
308,136,72730,5,0,0:0:0:0:
393,155,72886,1,0,0:0:0:0:
475,121,73042,1,0,0:0:0:0:
231,7,73199,6,0,L|247:98,1,69.3333333333333
307,136,73667,6,0,L|323:227,1,69.3333333333333
416,256,74136,5,0,0:0:0:0:
96,128,74292,1,0,0:0:0:0:
416,128,74449,1,0,0:0:0:0:
96,256,74605,5,0,0:0:0:0:
480,192,74761,1,0,0:0:0:0:
32,192,74917,1,0,0:0:0:0:
374,72,75074,6,0,P|408:105|426:158,1,104
356,310,75386,1,0,0:0:0:0:
261,158,75542,2,0,L|339:146,1,69.3333333333333
502,318,75855,1,0,0:0:0:0:
254,360,76011,2,0,B|218:340|179:346|179:346|138:352|106:333,1,138.666666666667
346,218,76480,2,0,P|412:239|448:298,1,138.666666666667
162,260,76949,6,0,P|168:222|180:182,1,69.3333333333333
295,24,77261,1,0,0:0:0:0:
71,111,77417,2,0,P|36:105|2:96,1,69.3333333333333
171,0,77730,1,0,0:0:0:0:
275,165,77886,2,0,P|285:222|297:318,1,138.666666666667
179,163,78355,2,0,P|206:96|292:71,1,138.666666666667
497,74,78824,5,0,0:0:0:0:
345,19,78980,2,0,P|379:26|415:31,1,69.3333333333333
501,160,79292,1,0,0:0:0:0:
501,160,79605,1,0,0:0:0:0:
392,294,79761,2,0,L|212:277,1,173.333333333333
179,163,80230,1,0,0:0:0:0:
51,308,80386,2,0,P|56:271|72:230,1,69.3333333333333
253,92,80699,6,0,L|347:80,1,69.3333333333333
399,227,81011,1,0,0:0:0:0:
231,353,81168,2,0,P|239:316|258:269,1,69.3333333333333
512,216,81480,1,0,0:0:0:0:
327,336,81636,2,0,P|254:320|163:304,1,138.666666666667
339,162,82105,2,0,P|411:149|482:134,1,138.666666666667
175,139,82574,6,0,P|180:174|191:226,1,69.3333333333333
213,24,82886,1,0,0:0:0:0:
73,175,83042,2,0,P|37:170|1:163,1,69.3333333333333
121,49,83355,1,0,0:0:0:0:
279,167,83511,2,0,B|288:218|288:218|272:317,1,138.666666666667
82,293,83980,2,0,P|119:231|187:210,1,138.666666666667
342,286,84449,6,0,P|309:300|272:310,1,69.3333333333333
312,140,84761,1,0,0:0:0:0:
440,281,84917,2,0,P|434:317|419:353,1,69.3333333333333
277,221,85230,1,0,0:0:0:0:
367,65,85386,2,0,P|439:78|511:87,1,138.666666666667
277,221,85855,2,0,P|251:154|187:124,1,138.666666666667
38,252,86324,5,0,0:0:0:0:
93,113,86480,2,0,P|101:148|106:184,1,69.3333333333333
5,345,86792,1,0,0:0:0:0:
5,345,87105,1,0,0:0:0:0:
106,184,87261,2,0,P|166:197|251:226,1,138.666666666667
75,328,87730,2,0,P|36:336|-1:346,1,69.3333333333333
203,103,88042,1,0,0:0:0:0:
59,99,89605,5,0,0:0:0:0:
59,99,90074,6,0,B|52:144|52:144|87:275,1,173.333333333333
250,314,90542,2,0,B|257:269|257:269|224:145,1,173.333333333333
6,320,91011,5,0,0:0:0:0:
173,269,91167,1,0,0:0:0:0:
19,197,91324,1,0,0:0:0:0:
170,355,91480,5,0,0:0:0:0:
116,189,91636,1,0,0:0:0:0:
19,356,91792,1,0,0:0:0:0:
249,243,91949,6,0,P|310:250|421:271,1,173.333333333333
280,357,92417,2,0,P|229:340|267:238,1,173.333333333333
421,185,92886,5,0,0:0:0:0:
372,356,93042,1,0,0:0:0:0:
325,139,93199,1,0,0:0:0:0:
498,244,93355,5,0,0:0:0:0:
248,242,93511,1,0,0:0:0:0:
408,102,93667,1,0,0:0:0:0:
202,151,93824,6,0,B|148:139|148:139|82:151|82:151|15:135,1,173.333333333333
181,57,94292,2,0,B|234:68|234:68|300:56|300:56|367:72,1,173.333333333333
485,192,94761,5,0,0:0:0:0:
298,146,94917,1,0,0:0:0:0:
479,32,95074,1,0,0:0:0:0:
344,255,95230,5,0,0:0:0:0:
481,112,95386,1,0,0:0:0:0:
299,26,95542,1,0,0:0:0:0:
452,203,95699,6,0,P|447:254|443:306,1,103.999996826172
481,112,96011,1,0,0:0:0:0:
258,353,96167,5,0,0:0:0:0:
31,191,96324,1,0,0:0:0:0:
350,194,96480,1,0,0:0:0:0:
31,353,96636,5,0,0:0:0:0:
31,62,96792,1,0,0:0:0:0:
258,353,96949,1,0,0:0:0:0:
364,52,97105,5,0,0:0:0:0:
364,52,97574,6,0,P|353:90|425:142,1,138.666666666667
254,295,98042,2,0,P|262:225|324:178,1,138.666666666667
403,292,98511,2,0,P|369:281|340:264,1,69.3333333333333
464,221,98824,2,0,B|490:258|490:258|504:369,1,138.666666666667
340,264,99292,1,0,0:0:0:0:
340,264,99449,6,0,P|283:254|200:245,1,138.666666666667
23,332,99917,2,0,P|80:348|130:286,1,138.666666666667
19,209,100386,2,0,P|53:212|87:218,1,69.3333333333333
129,294,100699,1,0,0:0:0:0:
271,236,100855,2,0,P|236:239|202:245,1,69.3333333333333
129,294,101167,1,0,0:0:0:0:
69,135,101324,6,0,P|75:88|148:26,1,138.666666666667
232,104,101792,2,0,P|199:115|166:123,1,69.3333333333333
262,22,102105,2,0,P|321:39|399:49,1,138.666666666667
492,90,102574,2,0,P|426:80|373:144,1,138.666666666667
472,286,103042,1,0,0:0:0:0:
472,286,103199,6,0,B|475:242|475:242|448:150,1,138.666666666667
309,141,103667,2,0,P|342:131|376:126,1,69.3333333333333
396,260,103980,2,0,P|322:248|259:233,1,138.666666666667
187,208,104370,2,0,P|167:212|133:228,3,34.6666666666667
227,123,104761,1,0,0:0:0:0:
194,286,104917,1,0,0:0:0:0:
75,171,105074,6,0,P|81:120|112:22,1,138.666666666667
260,233,105542,2,0,P|250:164|229:98,1,138.666666666667
8,213,106011,2,0,P|34:236|92:248,1,69.3333333333333
212,152,106324,2,0,L|71:171,1,138.666666666667
23,327,106792,1,0,0:0:0:0:
23,327,106949,6,0,L|160:345,1,138.666666666667
266,299,107417,2,0,P|206:290|159:357,1,138.666666666667
364,308,107886,2,0,P|359:273|345:241,1,69.3333333333333
266,211,108199,1,0,0:0:0:0:
359,156,108355,2,0,P|391:167|425:203,1,69.3333333333333
266,211,108667,1,0,0:0:0:0:
158,40,108824,6,0,B|200:26|200:26|299:40,1,138.666666666667
359,156,109292,2,0,B|317:170|317:170|218:156,1,138.666666666667
396,80,109761,2,0,P|423:100|443:128,1,69.3333333333333
323,289,110074,2,0,P|336:220|359:155,1,138.666666666667
477,37,110542,1,0,0:0:0:0:
477,37,110699,6,0,P|499:102|512:170,1,138.666666666667
297,98,111167,2,0,P|325:77|358:70,1,69.3333333333333
321,283,111480,2,0,P|333:214|356:149,1,138.666666666667
477,37,111949,1,0,0:0:0:0:
462,233,112105,5,0,0:0:0:0:
356,149,112261,1,0,0:0:0:0:
486,112,112417,1,0,0:0:0:0:
305,21,112574,5,0,0:0:0:0:
217,32,112730,1,0,0:0:0:0:
162,101,112886,1,0,0:0:0:0:
175,281,113042,5,0,0:0:0:0:
168,191,113198,1,0,0:0:0:0:
162,101,113354,1,0,0:0:0:0:
175,281,113511,5,0,0:0:0:0:
230,350,113667,1,0,0:0:0:0:
318,361,113823,1,0,0:0:0:0:
168,191,113980,2,0,P|113:215|87:291,1,138.666666666667
398,331,114449,5,0,0:0:0:0:
330,273,114605,1,0,0:0:0:0:
318,360,114761,1,0,0:0:0:0:
412,250,114917,5,0,0:0:0:0:
347,188,115074,1,0,0:0:0:0:
264,223,115230,1,0,0:0:0:0:
477,303,115386,5,0,0:0:0:0:
485,214,115542,1,0,0:0:0:0:
422,150,115699,1,0,0:0:0:0:
253,305,115855,2,0,P|177:296|94:279,1,138.666666666667
21,92,116324,5,0,0:0:0:0:
101,133,116480,1,0,0:0:0:0:
61,214,116636,1,0,0:0:0:0:
95,52,116792,5,0,0:0:0:0:
183,36,116949,1,0,0:0:0:0:
272,21,117104,1,0,0:0:0:0:
61,214,117261,5,0,0:0:0:0:
101,132,117417,1,0,0:0:0:0:
182,171,117573,1,0,0:0:0:0:
91,363,117730,5,0,0:0:0:0:
34,296,117886,1,0,0:0:0:0:
61,214,118042,1,0,0:0:0:0:
242,336,118199,6,0,L|173:348,1,69.3333333333333
380,280,118667,6,0,L|311:267,1,69.3333333333333
160,64,119136,5,0,0:0:0:0:
352,320,119292,1,0,0:0:0:0:
352,64,119449,1,0,0:0:0:0:
160,320,119605,5,0,0:0:0:0:
256,31,119761,1,0,0:0:0:0:
256,351,119917,1,0,0:0:0:0:
137,124,120074,6,0,P|175:132|226:149,1,69.3333333333333
361,299,120386,1,0,0:0:0:0:
148,215,120542,2,0,P|114:222|78:230,1,69.3333333333333
326,115,120855,1,0,0:0:0:0:
180,334,121011,2,0,B|146:314|106:326|106:326|69:337|22:312,1,138.666666666667
239,243,121480,2,0,P|310:252|364:305,1,138.666666666667
270,128,121949,6,0,P|276:88|289:47,1,69.3333333333333
454,155,122261,1,0,0:0:0:0:
239,243,122417,2,0,P|204:234|169:228,1,69.3333333333333
361,108,122730,1,0,0:0:0:0:
511,243,122886,2,0,P|501:302|489:401,1,138.666666666667
306,319,123355,2,0,P|340:261|407:267,1,138.666666666667
222,367,123824,5,0,0:0:0:0:
175,222,123980,2,0,P|168:258|163:293,1,69.3333333333333
331,164,124292,1,0,0:0:0:0:
331,164,124605,1,0,0:0:0:0:
173,223,124761,2,0,P|96:212|1:188,1,138.666666666667
96,317,125230,1,0,0:0:0:0:
261,208,125386,2,0,P|249:173|217:143,1,69.3333333333333
0,107,125699,6,0,L|99:94,1,69.3333333333333
192,11,126011,1,0,0:0:0:0:
179,216,126167,2,0,L|79:203,1,69.3333333333333
72,97,126480,1,0,0:0:0:0:
280,47,126636,2,0,B|321:46|351:66|351:66|379:85|422:84,1,138.666666666667
325,282,127105,2,0,P|305:207|295:130,1,138.666666666667
484,179,127574,6,0,P|479:216|467:271,1,69.3333333333333
441,371,127886,1,0,0:0:0:0:
251,269,128042,2,0,P|289:274|328:282,1,69.3333333333333
441,371,128355,1,0,0:0:0:0:
391,200,128511,2,0,P|398:122|419:41,1,138.666666666667
282,120,128980,2,0,P|203:108|131:91,1,138.666666666667
30,229,129449,6,0,P|64:214|100:204,1,69.3333333333333
284,274,129761,1,0,0:0:0:0:
86,367,129917,2,0,P|91:330|105:296,1,69.3333333333333
274,365,130230,1,0,0:0:0:0:
208,188,130386,2,0,P|194:112|184:35,1,138.666666666667
318,215,130855,2,0,P|284:278|216:303,1,138.666666666667
46,144,131324,5,0,0:0:0:0:
208,188,131480,2,0,P|171:194|135:202,1,69.3333333333333
28,355,131792,1,0,0:0:0:0:
28,355,132105,1,0,0:0:0:0:
189,284,132261,2,0,P|252:298|343:328,1,138.666666666667
508,250,132730,2,0,P|473:259|437:266,1,69.3333333333333
302,102,133042,1,0,0:0:0:0:
416,128,134605,5,0,0:0:0:0:
416,128,135074,6,0,B|399:175|399:175|422:297,1,173.333333333333
279,242,135542,2,0,P|337:301|421:295,1,173.333333333333
488,83,136011,5,0,0:0:0:0:
512,248,136167,1,0,0:0:0:0:
482,53,136324,1,0,0:0:0:0:
381,192,136480,5,0,0:0:0:0:
409,13,136636,1,0,0:0:0:0:
375,222,136793,1,0,0:0:0:0:
170,95,136949,6,0,B|218:76|218:76|338:90,1,173.333333333333
375,222,137417,2,0,B|327:241|327:241|206:226,1,173.333333333333
52,134,137886,5,0,0:0:0:0:
132,302,138042,1,0,0:0:0:0:
170,95,138199,1,0,0:0:0:0:
1,212,138355,5,0,0:0:0:0:
170,95,138511,1,0,0:0:0:0:
132,302,138667,1,0,0:0:0:0:
332,148,138824,6,0,P|260:154|224:239,1,173.333333333333
342,346,139292,2,0,P|399:329|511:306,1,173.333333333333
300,220,139761,5,0,0:0:0:0:
478,165,139917,1,0,0:0:0:0:
342,346,140074,1,0,0:0:0:0:
378,103,140230,5,0,0:0:0:0:
265,303,140386,1,0,0:0:0:0:
203,118,140542,1,0,0:0:0:0:
394,187,140699,6,0,L|270:203,1,103.999996826172
94,127,141011,1,0,0:0:0:0:
384,61,141167,5,0,0:0:0:0:
256,356,141324,1,0,0:0:0:0:
256,27,141480,1,0,0:0:0:0:
480,192,141636,5,0,0:0:0:0:
159,255,141792,1,0,0:0:0:0:
384,61,141949,1,0,0:0:0:0:
481,352,142105,5,0,0:0:0:0:
159,352,142261,1,0,0:0:0:0:
480,192,142417,1,0,0:0:0:0:
94,63,142574,5,0,0:0:0:0:
105,269,150074,5,0,0:0:0:0:
222,297,150230,1,0,0:0:0:0:
127,373,150386,1,0,0:0:0:0:
315,344,150542,6,0,P|358:347|400:356,1,86.6666666666667
244,146,150855,1,0,0:0:0:0:
311,246,151011,5,0,0:0:0:0:
336,127,151167,1,0,0:0:0:0:
417,217,151324,1,0,0:0:0:0:
218,271,151480,6,0,P|177:259|118:251,1,86.6666666666667
311,246,151792,1,0,0:0:0:0:
149,346,151949,5,0,0:0:0:0:
31,318,152105,1,0,0:0:0:0:
133,252,152261,1,0,0:0:0:0:
28,146,152417,2,0,P|15:187|8:234,1,86.6666666666667
115,99,152730,1,0,0:0:0:0:
21,22,152886,5,0,0:0:0:0:
123,85,153042,1,0,0:0:0:0:
215,5,153199,1,0,0:0:0:0:
335,73,153355,5,0,0:0:0:0:
214,86,153511,1,0,0:0:0:0:
301,189,153668,1,0,0:0:0:0:
449,60,153824,6,0,L|464:170,1,86.6666666666667
481,294,154136,1,0,0:0:0:0:
296,102,154292,6,0,L|301:212,1,86.6666666666667
307,337,154604,1,0,0:0:0:0:
174,104,154761,6,0,L|169:214,1,86.6666666666667
165,340,155073,1,0,0:0:0:0:
23,112,155230,6,0,L|9:222,1,86.6666666666667
0,342,155542,1,0,0:0:0:0:
300,188,155699,5,0,0:0:0:0:
96,63,155855,1,0,0:0:0:0:
96,320,156011,1,0,0:0:0:0:
352,320,156167,1,0,0:0:0:0:
103,199,156324,1,0,0:0:0:0:
103,199,156402,1,0,0:0:0:0:
103,199,156480,1,0,0:0:0:0:
358,105,156636,5,0,0:0:0:0:
377,243,156792,1,0,0:0:0:0:
240,262,156949,1,0,0:0:0:0:
221,124,157105,2,0,B|222:106|225:85|225:85|227:93|227:93|227:74|232:56|232:56|233:68|233:68|237:39|255:12,1,138.666666666667
461,99,157574,5,0,0:0:0:0:
318,323,157730,1,0,0:0:0:0:
358,105,157886,1,0,0:0:0:0:
151,272,158042,2,0,P|93:253|9:245,1,121.333329630534
211,356,158355,1,0,0:0:0:0:
109,90,158511,1,0,0:0:0:0:
151,272,158667,1,0,0:0:0:0:
275,26,158824,1,0,0:0:0:0:
415,173,158980,2,0,B|428:208|424:235|424:235|419:268|431:301,1,121.333329630534
461,99,159292,1,0,0:0:0:0:
148,153,159449,5,0,0:0:0:0:
335,216,159605,1,0,0:0:0:0:
158,28,159761,1,0,0:0:0:0:
29,192,159917,2,0,P|36:248|43:323,1,121.333329630534
250,352,160230,5,0,0:0:0:0:
72,108,160386,1,0,0:0:0:0:
320,32,160542,1,0,0:0:0:0:
128,225,160699,1,0,0:0:0:0:
386,129,160855,1,0,0:0:0:0:
125,28,161011,1,0,0:0:0:0:
225,260,161167,1,0,0:0:0:0:
422,43,161324,5,0,0:0:0:0:
472,289,161480,1,0,0:0:0:0:
386,129,161636,1,0,0:0:0:0:
225,260,161792,2,0,B|238:295|233:324|233:324|228:356|240:390,1,121.333329630534
320,197,162105,1,0,0:0:0:0:
81,297,162261,1,0,0:0:0:0:
332,339,162417,1,0,0:0:0:0:
136,205,162574,1,0,0:0:0:0:
367,89,162730,2,0,P|414:102|489:118,1,121.333329630534
320,197,163042,1,0,0:0:0:0:
153,32,163199,5,0,0:0:0:0:
191,353,163355,1,0,0:0:0:0:
482,222,163511,1,0,0:0:0:0:
32,159,163667,5,0,0:0:0:0:
288,352,163824,1,0,0:0:0:0:
320,32,163980,1,0,0:0:0:0:
30,257,164136,5,0,0:0:0:0:
481,127,164292,1,0,0:0:0:0:
33,63,164449,1,0,0:0:0:0:
288,352,164605,6,0,B|354:364|397:336|397:336|439:309|527:314,1,207.999993652344
436,79,165074,5,0,0:0:0:0:
322,260,165230,1,0,0:0:0:0:
260,32,165386,1,0,0:0:0:0:
124,175,165542,2,0,P|112:243|107:305,1,121.333329630534
302,179,165855,1,0,0:0:0:0:
132,43,166011,1,0,0:0:0:0:
368,21,166167,1,0,0:0:0:0:
124,175,166324,1,0,0:0:0:0:
322,260,166480,2,0,B|357:247|384:251|384:251|417:256|450:244,1,121.333329630534
302,179,166792,1,0,0:0:0:0:
470,358,166949,5,0,0:0:0:0:
393,105,167105,1,0,0:0:0:0:
363,334,167261,1,0,0:0:0:0:
499,166,167417,2,0,B|484:142|482:105|482:105|479:68|460:44,1,121.333329630534
441,246,167730,1,0,0:0:0:0:
254,35,167886,5,0,0:0:0:0:
322,260,168042,1,0,0:0:0:0:
145,67,168199,1,0,0:0:0:0:
227,281,168355,5,0,0:0:0:0:
420,104,168512,1,0,0:0:0:0:
195,172,168668,1,0,0:0:0:0:
463,354,168824,5,0,0:0:0:0:
371,181,168980,1,0,0:0:0:0:
319,316,169136,1,0,0:0:0:0:
490,97,169292,5,0,0:0:0:0:
276,75,169449,1,0,0:0:0:0:
451,259,169605,1,0,0:0:0:0:
125,99,169761,5,0,0:0:0:0:
222,256,169917,1,0,0:0:0:0:
352,31,170074,1,0,0:0:0:0:
63,225,170230,5,0,0:0:0:0:
352,192,170386,1,0,0:0:0:0:
129,19,170542,1,0,0:0:0:0:
256,354,170699,5,0,0:0:0:0:
479,94,170855,1,0,0:0:0:0:
34,191,171011,1,0,0:0:0:0:
482,288,171167,5,0,0:0:0:0:
160,30,171324,1,0,0:0:0:0:
160,353,171480,1,0,0:0:0:0:
160,353,171558,1,0,0:0:0:0:
160,353,171636,5,0,0:0:0:0:
383,157,171792,1,0,0:0:0:0:
32,93,171949,1,0,0:0:0:0:
317,349,172105,1,0,0:0:0:0:
222,30,172261,1,0,0:0:0:0:
32,285,172417,1,0,0:0:0:0:
296,172,172574,6,0,P|288:134|271:83,1,69.3333333333333
144,251,172886,1,0,0:0:0:0:
371,285,173042,2,0,P|405:278|441:270,1,69.3333333333333
342,53,173355,1,0,0:0:0:0:
215,207,173511,2,0,B|235:241|223:281|223:281|212:318|237:365,1,138.666666666667
114,138,173980,2,0,P|165:93|233:85,1,138.666666666667
446,158,174449,6,0,L|366:148,1,69.3333333333333
215,207,174761,1,0,0:0:0:0:
435,285,174917,2,0,L|515:275,1,69.3333333333333
425,66,175230,1,0,0:0:0:0:
215,207,175386,2,0,P|225:266|237:365,1,138.666666666667
52,81,175855,2,0,P|117:77|150:134,1,138.666666666667
15,358,176324,5,0,0:0:0:0:
80,222,176480,2,0,L|92:293,1,69.3333333333333
292,352,176792,1,0,0:0:0:0:
292,352,177105,1,0,0:0:0:0:
183,145,177261,2,0,B|166:185|166:185|184:285,1,138.666666666667
398,228,177730,1,0,0:0:0:0:
292,352,177886,2,0,P|257:358|221:370,1,69.3333333333333
402,140,178199,6,0,P|434:150|465:172,1,69.3333333333333
426,318,178511,1,0,0:0:0:0:
312,147,178667,2,0,P|317:111|338:71,1,69.3333333333333
512,94,178980,1,0,0:0:0:0:
312,236,179136,2,0,B|279:237|251:218|251:218|221:198|180:199,1,138.666666666667
283,10,179605,2,0,P|293:79|311:146,1,138.666666666667
426,318,180074,6,0,P|432:283|437:249,1,69.3333333333333
405,115,180386,1,0,0:0:0:0:
276,311,180542,2,0,P|280:345|287:379,1,69.3333333333333
512,328,180855,1,0,0:0:0:0:
346,198,181011,2,0,P|278:211|211:229,1,138.666666666667
377,296,181480,2,0,P|443:314|511:327,1,138.666666666667
284,122,181949,6,0,P|293:88|307:57,1,69.3333333333333
435,147,182261,1,0,0:0:0:0:
214,22,182417,2,0,P|178:29|143:41,1,69.3333333333333
403,68,182730,1,0,0:0:0:0:
187,152,182886,2,0,P|118:139|50:129,1,138.666666666667
181,304,183355,2,0,P|214:311|252:325,1,69.3333333333333
398,253,183667,1,0,0:0:0:0:
398,253,183745,1,0,0:0:0:0:
398,253,183824,6,0,P|391:221|387:176,1,69.3333333333333
453,50,184136,1,0,0:0:0:0:
502,259,184292,1,0,0:0:0:0:
502,259,184605,1,0,0:0:0:0:
303,212,184761,2,0,P|273:219|234:231,1,69.3333333333333
445,354,185074,1,0,0:0:0:0:
321,126,185230,1,0,0:0:0:0:
161,353,185386,1,0,0:0:0:0:
192,64,185542,1,0,0:0:0:0:
472,234,185699,6,0,B|424:211|381:218|381:218|342:225|289:207,1,173.333333333333
112,96,186167,2,0,P|154:84|193:62,1,86.6666666666667
33,27,186480,1,0,0:0:0:0:
216,200,186636,2,0,P|261:204|309:212,1,86.6666666666667
104,190,186949,1,0,0:0:0:0:
290,42,187105,5,0,0:0:0:0:
31,115,187261,1,0,0:0:0:0:
258,290,187417,1,0,0:0:0:0:
186,91,187574,6,0,P|152:97|118:107,1,69.3333333333333
161,277,187886,1,0,0:0:0:0:
332,150,188042,2,0,P|298:143|264:133,1,69.3333333333333
154,6,188355,1,0,0:0:0:0:
352,63,188511,2,0,B|386:43|426:55|426:55|463:66|510:41,1,138.666666666667
322,225,188980,2,0,P|270:179|202:172,1,138.666666666667
405,334,189449,6,0,L|485:320,1,69.3333333333333
234,260,189761,1,0,0:0:0:0:
398,153,189917,2,0,L|466:164,1,69.3333333333333
314,318,190230,1,0,0:0:0:0:
185,162,190386,2,0,P|193:93|204:24,1,138.666666666667
398,153,190855,2,0,P|332:149|300:206,1,138.666666666667
475,285,191324,5,0,0:0:0:0:
245,306,191480,2,0,L|313:317,1,69.3333333333333
478,188,191792,1,0,0:0:0:0:
478,188,192105,1,0,0:0:0:0:
300,206,192261,2,0,B|160:186,1,138.666666666667
334,27,192730,1,0,0:0:0:0:
386,207,192886,2,0,P|380:242|359:274,1,69.3333333333333
94,195,193199,6,0,L|175:184,1,69.3333333333333
300,206,193511,1,0,0:0:0:0:
124,102,193667,2,0,L|55:111,1,69.3333333333333
224,266,193980,1,0,0:0:0:0:
346,136,194136,2,0,B|347:103|328:75|328:75|308:45|309:4,1,138.666666666667
500,95,194605,2,0,P|490:164|472:231,1,138.666666666667
318,360,195074,6,0,P|312:327|307:290,1,69.3333333333333
346,136,195386,1,0,0:0:0:0:
472,230,195542,2,0,P|468:264|461:298,1,69.3333333333333
263,211,195855,1,0,0:0:0:0:
377,43,196011,2,0,P|445:56|512:74,1,138.666666666667
346,136,196480,2,0,B|301:143|269:122|269:122|235:102|182:113,1,138.666666666667
216,358,196949,6,0,P|230:326|239:292,1,69.3333333333333
129,148,197261,1,0,0:0:0:0:
48,311,197417,2,0,P|80:300|114:293,1,69.3333333333333
221,192,197730,1,0,0:0:0:0:
52,36,197886,2,0,P|39:105|29:173,1,138.666666666667
198,274,198355,2,0,P|190:236|149:136,1,138.666666666667
225,354,198824,5,0,0:0:0:0:
483,189,198980,1,0,0:0:0:0:
258,30,199136,1,0,0:0:0:0:
448,287,199292,5,0,0:0:0:0:
351,32,199449,1,0,0:0:0:0:
322,352,199605,1,0,0:0:0:0:
127,126,199761,5,0,0:0:0:0:
288,189,199917,1,0,0:0:0:0:
192,322,200074,1,0,0:0:0:0:
45,128,200230,6,0,P|55:83|85:53,1,86.6666666666667
292,95,200542,2,0,B|245:80|207:104|207:104|169:132|88:123,1,173.333333333333
142,153,202105,5,0,0:0:0:0:
386,193,202261,1,0,0:0:0:0:
115,149,202417,1,0,0:0:0:0:
338,255,202574,6,0,B|386:233|428:247|428:247|475:265|521:241,1,173.333333333333
338,352,203042,2,0,B|285:347|255:312|255:312|224:274|172:272,1,173.333333333333
10,348,203511,5,0,0:0:0:0:
127,182,203667,1,0,0:0:0:0:
180,358,203824,1,0,0:0:0:0:
119,150,203980,5,0,0:0:0:0:
335,265,204136,1,0,0:0:0:0:
112,313,204292,1,0,0:0:0:0:
292,193,204449,6,0,P|340:215|471:235,1,173.333333333333
287,361,204917,2,0,B|272:240|272:240|291:192,1,173.333333333333
408,46,205386,5,0,0:0:0:0:
458,235,205542,1,0,0:0:0:0:
324,86,205699,1,0,0:0:0:0:
424,319,205855,5,0,0:0:0:0:
399,133,206011,1,0,0:0:0:0:
512,305,206167,1,0,0:0:0:0:
274,245,206324,6,0,P|190:255|83:273,1,173.333333333333
220,126,206792,2,0,P|285:155|274:244,1,173.333333333333
34,203,207261,5,0,0:0:0:0:
172,56,207417,1,0,0:0:0:0:
102,269,207574,1,0,0:0:0:0:
7,75,207730,5,0,0:0:0:0:
172,214,207886,1,0,0:0:0:0:
173,23,208042,1,0,0:0:0:0:
34,203,208199,6,0,P|24:252|17:305,1,103.999996826172
286,358,208511,1,0,0:0:0:0:
384,29,208667,5,0,0:0:0:0:
95,127,208824,1,0,0:0:0:0:
384,287,208980,1,0,0:0:0:0:
480,29,209136,5,0,0:0:0:0:
160,29,209292,1,0,0:0:0:0:
433,127,209449,1,0,0:0:0:0:
160,319,209605,5,0,0:0:0:0:
160,29,209761,1,0,0:0:0:0:
384,319,209917,1,0,0:0:0:0:
90,191,210074,6,0,B|142:164|142:164|307:191,1,207.999993652344
384,319,210542,2,0,B|332:346|332:346|167:319,1,207.999993652344
347,85,211011,5,0,0:0:0:0:
461,271,211167,1,0,0:0:0:0:
490,31,211324,1,0,0:0:0:0:
289,188,211480,5,0,0:0:0:0:
512,112,211636,1,0,0:0:0:0:
291,10,211792,1,0,0:0:0:0:
177,156,211949,6,0,B|164:209|191:258|191:258|216:310|193:380,1,207.999993652344
32,169,212417,2,0,P|29:267|116:314,1,207.999993652344
280,193,212886,5,0,0:0:0:0:
64,75,213042,1,0,0:0:0:0:
361,115,213199,1,0,0:0:0:0:
127,15,213355,5,0,0:0:0:0:
287,276,213511,1,0,0:0:0:0:
309,43,213668,1,0,0:0:0:0:
119,145,213824,6,0,B|109:212|109:212|131:275|131:275|125:352,1,207.999993652344
323,184,214292,2,0,L|102:141,1,207.999993652344
363,97,214761,5,0,0:0:0:0:
211,249,214917,1,0,0:0:0:0:
328,8,215074,1,0,0:0:0:0:
386,284,215230,5,0,0:0:0:0:
273,78,215386,1,0,0:0:0:0:
482,220,215542,1,0,0:0:0:0:
124,257,215699,5,0,0:0:0:0:
448,127,215855,1,0,0:0:0:0:
127,30,216011,1,0,0:0:0:0:
481,34,216167,5,0,0:0:0:0:
64,192,216324,1,0,0:0:0:0:
417,352,216480,1,0,0:0:0:0:
31,96,216636,5,0,0:0:0:0:
449,158,216792,1,0,0:0:0:0:
449,158,216870,1,0,0:0:0:0:
449,158,216949,1,0,0:0:0:0:
32,320,217105,5,0,0:0:0:0:
351,31,217261,1,0,0:0:0:0:
162,353,217417,1,0,0:0:0:0:
32,30,217574,5,0,0:0:0:0:
32,30,217886,1,0,0:0:0:0:
91,101,218042,2,0,L|77:188,1,69.3333333333333
18,235,218355,1,0,0:0:0:0:
18,235,218511,1,0,0:0:0:0:
70,311,218667,1,0,0:0:0:0:
158,289,218824,1,0,0:0:0:0:
196,154,218980,2,0,L|217:236,1,69.3333333333333
130,373,219292,1,0,0:0:0:0:
309,264,219449,5,0,0:0:0:0:
244,357,219605,1,0,0:0:0:0:
213,221,219761,1,0,0:0:0:0:
332,348,219917,2,0,P|368:340|423:332,1,69.3333333333333
496,279,220230,1,0,0:0:0:0:
496,279,220308,1,0,0:0:0:0:
496,279,220386,5,0,0:0:0:0:
331,172,220542,1,0,0:0:0:0:
303,168,220620,1,0,0:0:0:0:
276,164,220699,1,0,0:0:0:0:
448,61,220855,1,0,0:0:0:0:
383,285,221011,1,0,0:0:0:0:
319,61,221167,1,0,0:0:0:0:
480,351,221324,5,0,0:0:0:0:
96,225,221480,1,0,0:0:0:0:
448,191,221636,1,0,0:0:0:0:
192,30,221792,1,0,0:0:0:0:
352,353,221949,1,0,0:0:0:0:
479,97,222105,1,0,0:0:0:0:
247,255,222261,6,0,B|194:256|163:240|163:240|123:219|74:227,1,155.999995239258
239,167,222574,2,0,P|319:200|329:284,1,155.999995239258
141,142,222886,2,0,P|180:86|263:70,1,155.999995239258
247,255,223199,5,0,0:0:0:0:
