osu file format v14

[General]
AudioFilename: audio.mp3
AudioLeadIn: 0
PreviewTime: 79476
Countdown: 0
SampleSet: Soft
StackLeniency: 0.7
Mode: 0
LetterboxInBreaks: 0
WidescreenStoryboard: 1

[Editor]
DistanceSpacing: 2.5
BeatDivisor: 4
GridSize: 16
TimelineZoom: 1.3

[Metadata]
Title:Swords from Driftwood
TitleUnicode:Swords from Driftwood
Artist:Blue Sky Black Death
ArtistUnicode:Blue Sky Black Death
Creator:DwarfSpykerr
Version:old and odd one
Source:
Tags:
BeatmapID:1135012
BeatmapSetID:535890

[Difficulty]
HPDrainRate:7
CircleSize:4
OverallDifficulty:7
ApproachRate:9
SliderMultiplier:0.5
SliderTickRate:1

[Events]
//Background and Video events
0,0,"paysage osu.jpg",0,0
//Break Periods
2,1456,4740
2,16535,19818
//Storyboard Layer 0 (Background)
//Storyboard Layer 1 (Fail)
//Storyboard Layer 2 (Pass)
//Storyboard Layer 3 (Foreground)
//Storyboard Sound Samples

[TimingPoints]
0,314.13612565445,4,2,0,100,1,0
314,-50,4,2,0,5,0,0
78926,-50,4,2,0,5,0,0
78965,-50,4,2,0,8,0,0
79005,-50,4,2,0,11,0,0
79044,-50,4,2,0,14,0,0
79083,-50,4,2,0,17,0,0
79123,-50,4,2,0,20,0,0
79162,-50,4,2,0,23,0,0
79201,-50,4,2,0,26,0,0
79240,-50,4,2,0,30,0,0
79633,-50,4,2,0,40,0,0
79790,-50,4,2,0,50,0,0
79947,-50,4,2,0,60,0,0
80104,-50,4,2,0,70,0,0

[Colours]
Combo1 : 0,128,0
Combo2 : 128,255,128
Combo3 : 0,255,64
Combo4 : 128,255,0

[HitObjects]
208,96,314,6,0,B|80:160|160:176|160:240|186:180|240:192|272:224,1,250
304,240,1178,2,0,L|320:272,1,25
96,200,5340,6,0,B|112:144|176:144|144:240|224:144|184:248|272:144|304:80|304:80|304:320,1,500
432,184,8167,6,0,L|232:240,1,200
160,112,9424,5,0,0:0:0:0:
377,65,10366,6,0,P|273:117|294:246,1,250
352,160,11308,2,0,P|409:253|345:338,1,225
256,192,12565,12,0,16335,0:0:0:0:
414,69,20418,6,2,P|358:71|341:116,1,100
185,228,21047,2,0,L|137:276,1,50
256,192,21361,2,2,L|208:144,1,50
304,240,21989,2,0,P|336:260|396:248,1,100
354,193,22460,1,0,0:0:0:0:
283,118,22617,1,0,0:0:0:0:
180,147,22774,2,0,P|144:166|137:179,1,50
400,336,23246,5,0,0:0:0:0:
336,256,23403,2,2,P|353:186|320:160,1,100
256,96,23874,1,0,0:0:0:0:
160,144,24031,1,0,0:0:0:0:
242,198,24188,2,0,P|229:226|208:227,1,50
142,162,24502,1,0,0:0:0:0:
208,80,24659,6,2,P|129:70|107:86,1,100
59,160,25130,1,0,0:0:0:0:
160,176,25287,1,0,0:0:0:0:
80,264,25445,6,2,L|193:283,1,100
244,156,25916,1,0,0:0:0:0:
304,264,26073,2,2,P|328:264|368:278,1,50
248,184,26387,1,0,0:0:0:0:
336,134,26544,6,2,B|393:127|369:69|369:69|438:61,1,150
152,100,27329,2,0,P|120:112|108:132,1,50
223,169,27643,2,0,L|161:169,1,50
106,199,27958,2,2,P|100:234|130:304,1,100
255,290,28429,1,2,0:0:0:0:
220,132,28743,2,0,L|268:96,1,50
280,36,29057,1,0,0:0:0:0:
348,64,29214,6,2,B|308:100|336:128|336:128|272:176,1,150
192,132,29842,5,0,0:0:0:0:
202,226,29999,1,0,0:0:0:0:
100,196,30157,2,2,L|60:242,1,50
144,296,30471,1,0,0:0:0:0:
264,132,30785,6,2,B|301:92|302:92|342:134,1,100
416,196,31256,1,0,0:0:0:0:
416,296,31413,1,2,0:0:0:0:
315,329,31570,2,2,P|263:339|170:299,1,150
240,96,32356,5,0,0:0:0:0:
181,157,32513,2,0,L|126:179,1,50
256,192,32827,1,2,0:0:0:0:
240,96,32984,2,2,P|256:53|316:74,1,100
355,123,33455,1,0,0:0:0:0:
98,145,33769,5,0,0:0:0:0:
126,242,33926,2,0,L|92:284,1,50
195,171,34240,1,2,0:0:0:0:
282,207,34397,2,0,L|336:241,1,50
224,272,34712,6,2,P|180:314|171:360,1,100
96,208,35183,1,2,0:0:0:0:
150,93,35340,1,0,0:0:0:0:
220,195,35497,1,2,0:0:0:0:
430,60,35811,6,2,P|355:86|328:111,1,100
260,160,36282,1,0,0:0:0:0:
224,64,36439,1,2,0:0:0:0:
148,132,36596,2,2,P|133:205|163:278,1,150
240,80,37382,5,2,0:0:0:0:
292,168,37539,2,0,P|320:204|336:208,1,50
369,147,37853,1,0,0:0:0:0:
396,216,38010,6,2,P|369:263|308:279,1,100
160,280,38481,2,2,P|117:245|112:184,1,100
109,112,38952,2,2,P|121:64|161:35,1,100
376,64,39424,5,2,0:0:0:0:
280,112,39581,1,0,0:0:0:0:
376,168,39738,2,2,L|376:232,1,50
288,264,40052,2,0,L|256:312,1,50
205,219,40366,1,0,0:0:0:0:
128,163,40523,1,0,0:0:0:0:
119,258,40680,1,0,0:0:0:0:
389,352,40837,5,4,0:0:0:0:
291,74,41151,5,0,0:0:0:0:
417,46,41308,1,0,0:0:0:0:
506,149,41465,2,2,L|464:191,1,50
399,288,41780,1,0,0:0:0:0:
280,232,41937,2,0,P|304:216|320:192,1,50
178,285,42251,1,0,0:0:0:0:
191,169,42408,6,0,P|159:167|141:154,1,50
235,46,42722,1,0,0:0:0:0:
319,68,42879,1,0,0:0:0:0:
257,130,43036,1,0,0:0:0:0:
235,46,43193,1,0,0:0:0:0:
471,222,43350,1,4,0:0:0:0:
97,126,43664,6,2,P|69:142|62:169,1,50
157,240,43979,2,0,P|182:231|197:191,1,50
238,95,44293,1,2,0:0:0:0:
350,157,44450,1,0,0:0:0:0:
310,277,44607,2,0,P|287:255|284:233,1,50
182,186,44921,6,0,P|148:184|131:176,1,50
234,112,45235,1,0,0:0:0:0:
333,106,45392,1,0,0:0:0:0:
288,195,45549,1,0,0:0:0:0:
234,111,45706,1,0,0:0:0:0:
175,337,45863,1,4,0:0:0:0:
13,126,46178,6,2,P|56:106|56:93,1,50
140,58,46492,1,0,0:0:0:0:
231,138,46649,1,0,0:0:0:0:
352,104,46806,2,2,P|325:64|332:53,1,50
494,118,47120,1,0,0:0:0:0:
444,222,47277,1,0,0:0:0:0:
328,232,47434,6,0,P|295:221|287:206,1,50
120,185,47748,1,0,0:0:0:0:
128,85,47905,1,0,0:0:0:0:
210,142,48062,1,0,0:0:0:0:
119,185,48219,1,0,0:0:0:0:
299,350,48376,1,4,0:0:0:0:
142,141,48691,6,0,P|108:166|100:182,1,50
130,300,49005,2,0,P|151:288|167:268,1,50
207,150,49319,1,0,0:0:0:0:
119,87,49476,1,0,0:0:0:0:
148,201,49633,6,0,P|176:232|197:241,1,50
256,143,49947,6,0,L|275:78,1,50
385,105,50261,1,0,0:0:0:0:
335,192,50418,1,0,0:0:0:0:
435,192,50575,1,0,0:0:0:0:
383,112,50732,1,0,0:0:0:0:
242,304,50890,5,4,0:0:0:0:
426,72,51204,2,0,P|398:89|391:108,1,50
364,193,51518,1,0,0:0:0:0:
256,160,51675,1,2,0:0:0:0:
167,268,51832,2,0,P|168:235|148:213,1,50
42,198,52146,1,0,0:0:0:0:
99,99,52303,1,2,0:0:0:0:
237,83,52460,6,0,P|267:72|290:73,1,50
202,169,52774,1,0,0:0:0:0:
302,157,52931,1,0,0:0:0:0:
263,249,53089,1,0,0:0:0:0:
202,169,53246,1,0,0:0:0:0:
475,34,53403,5,4,0:0:0:0:
98,57,53717,6,0,P|73:74|68:98,1,50
81,189,54031,1,0,0:0:0:0:
194,222,54188,2,2,L|212:277,1,50,2|0,0:0|0:0,0:0:0:0:
280,176,54502,2,2,L|298:231,1,50,2|0,0:0|0:0,0:0:0:0:
201,128,54816,5,0,0:0:0:0:
316,167,54973,2,0,P|342:154|366:155,1,50
234,200,55287,1,0,0:0:0:0:
320,250,55445,1,0,0:0:0:0:
234,300,55602,1,0,0:0:0:0:
234,200,55759,1,0,0:0:0:0:
119,74,55916,5,4,0:0:0:0:
284,80,56230,6,2,P|330:72|377:110,1,100
317,137,56701,1,2,0:0:0:0:
76,287,57015,6,2,P|115:315|164:307,1,100
131,250,57486,1,2,0:0:0:0:
138,88,57801,5,2,0:0:0:0:
261,68,57958,2,0,L|299:64,4,25
367,133,58429,1,8,0:0:0:0:
345,256,58586,2,2,P|319:286|296:291,1,50
146,238,59057,5,0,0:0:0:0:
119,156,59371,5,4,0:0:0:0:
119,156,59450,1,0,0:0:0:0:
119,156,59528,1,4,0:0:0:0:
128,64,59685,5,4,0:0:0:0:
128,64,59764,1,0,0:0:0:0:
128,64,59842,1,4,0:0:0:0:
204,125,59999,2,4,P|221:97|292:85,1,100
315,258,60628,5,0,0:0:0:0:
144,80,60942,6,10,L|189:124,1,50
290,73,61256,1,0,0:0:0:0:
224,192,61413,1,2,0:0:0:0:
352,144,61570,1,0,0:0:0:0:
400,304,61727,1,2,0:0:0:0:
262,310,61884,1,0,0:0:0:0:
160,256,62041,6,2,L|112:304,1,50
64,176,62356,1,0,0:0:0:0:
144,80,62513,2,0,P|176:64|192:64,1,50
288,160,62827,1,0,0:0:0:0:
288,60,62984,1,0,0:0:0:0:
374,110,63141,1,0,0:0:0:0:
288,160,63298,1,0,0:0:0:0:
128,336,63455,5,4,0:0:0:0:
129,54,63769,6,2,B|107:77|107:77|128:128|128:128|99:147,1,100
94,258,64240,1,2,0:0:0:0:
202,196,64397,1,0,0:0:0:0:
222,319,64554,1,2,0:0:0:0:
136,210,64712,1,0,0:0:0:0:
62,176,64869,1,0,0:0:0:0:
133,135,65026,6,2,L|162:79,1,50
258,70,65340,1,0,0:0:0:0:
349,110,65497,1,0,0:0:0:0:
268,169,65654,1,0,0:0:0:0:
258,70,65811,1,0,0:0:0:0:
425,269,65968,5,4,0:0:0:0:
120,210,66282,2,0,P|96:235|92:258,1,50
177,307,66596,1,0,0:0:0:0:
258,217,66753,1,0,0:0:0:0:
241,105,66910,1,0,0:0:0:0:
368,64,67068,6,2,L|320:96,1,50
424,172,67382,1,0,0:0:0:0:
337,264,67539,2,0,L|294:302,1,50
253,206,67853,1,0,0:0:0:0:
270,107,68010,1,0,0:0:0:0:
346,171,68167,1,0,0:0:0:0:
252,205,68324,1,0,0:0:0:0:
82,66,68481,5,4,0:0:0:0:
275,270,68795,1,0,0:0:0:0:
144,304,69109,2,2,L|192:256,1,50
241,152,69424,1,0,0:0:0:0:
356,105,69581,6,2,L|339:148,4,25
400,208,70052,2,0,P|384:240|368:256,1,50
285,216,70366,1,0,0:0:0:0:
284,316,70523,1,0,0:0:0:0:
198,265,70680,1,0,0:0:0:0:
285,216,70837,1,0,0:0:0:0:
127,76,70994,1,4,0:0:0:0:
409,74,71308,6,0,B|369:96|369:96|388:128|388:128|361:144,1,100
257,93,71780,1,0,0:0:0:0:
158,41,71937,5,2,0:0:0:0:
94,128,72094,2,0,P|90:158|110:174,1,50,2|0,0:0|0:0,0:0:0:0:
111,274,72408,1,0,0:0:0:0:
231,296,72565,6,0,P|263:307|285:306,1,50
198,200,72879,1,0,0:0:0:0:
277,138,73036,1,0,0:0:0:0:
291,237,73193,1,0,0:0:0:0:
198,200,73350,1,0,0:0:0:0:
67,46,73507,1,4,0:0:0:0:
326,185,73821,6,0,P|297:201|272:205,1,50
334,92,74136,2,0,P|377:85|391:75,1,50
233,116,74450,2,0,P|212:135|204:160,1,50
97,138,74764,1,2,0:0:0:0:
14,284,74921,1,0,0:0:0:0:
114,231,75078,6,0,P|130:255|146:267,1,50
201,174,75392,1,0,0:0:0:0:
298,153,75549,1,0,0:0:0:0:
268,248,75706,1,0,0:0:0:0:
201,174,75863,1,0,0:0:0:0:
379,48,76020,1,4,0:0:0:0:
431,288,76335,2,0,P|406:310|403:333,1,50
271,187,76649,6,2,P|227:186|238:233,1,100
368,68,77277,5,2,0:0:0:0:
250,111,77434,1,0,0:0:0:0:
339,212,77591,2,0,P|321:239|303:252,1,50
227,242,77905,1,0,0:0:0:0:
227,142,78062,1,0,0:0:0:0:
313,192,78219,1,0,0:0:0:0:
227,242,78376,1,0,0:0:0:0:
61,51,78534,2,8,B|98:55|98:55|114:116,1,100,4|8,0:0|0:0,0:0:0:0:
125,131,78926,2,2,L|133:139,9,12.5
145,170,79319,6,0,P|128:197|123:224,1,50
205,300,79633,1,0,0:0:0:0:
335,273,79790,1,0,0:0:0:0:
414,173,79947,1,0,0:0:0:0:
363,61,80104,1,0,0:0:0:0:
236,90,80732,5,2,0:0:0:0:
122,144,80890,1,0,0:0:0:0:
153,264,81047,2,8,P|201:269|215:281,1,50
313,323,81361,1,0,0:0:0:0:
387,222,81518,1,2,0:0:0:0:
266,178,81675,6,2,P|244:103|211:101,1,100
112,112,82146,1,0,0:0:0:0:
165,254,82303,1,2,0:0:0:0:
48,160,82460,1,0,0:0:0:0:
208,192,82617,1,2,0:0:0:0:
160,80,82774,6,2,L|126:144,1,50
111,236,83089,1,2,0:0:0:0:
127,255,83167,1,0,0:0:0:0:
154,273,83246,1,2,0:0:0:0:
234,177,83403,1,2,0:0:0:0:
291,288,83560,6,8,L|337:247,1,50
288,164,83874,1,0,0:0:0:0:
172,68,84188,6,2,B|144:90|144:90|166:119|139:168,1,100
235,239,84659,1,0,0:0:0:0:
110,248,84816,1,2,0:0:0:0:
146,128,84973,1,0,0:0:0:0:
262,83,85130,1,2,0:0:0:0:
210,196,85287,1,0,0:0:0:0:
101,272,85445,2,2,P|92:221|130:194,1,100
391,66,86073,6,8,P|357:84|361:103,1,50
379,213,86387,1,0,0:0:0:0:
272,96,86544,1,2,0:0:0:0:
448,112,86701,1,0,0:0:0:0:
294,175,86858,1,2,0:0:0:0:
294,175,86937,1,0,0:0:0:0:
294,175,87015,2,2,L|203:240,1,100
110,127,87486,5,2,0:0:0:0:
125,251,87643,1,0,0:0:0:0:
16,192,87801,2,0,L|32:240,1,50
128,96,88115,1,2,0:0:0:0:
254,165,88272,6,8,B|202:209|202:209|234:246,1,100
346,218,88743,1,0,0:0:0:0:
294,104,88900,1,2,0:0:0:0:
404,162,89057,1,0,0:0:0:0:
277,177,89214,6,2,P|241:178|222:195,1,50
146,92,89528,1,0,0:0:0:0:
80,192,89685,1,2,0:0:0:0:
144,288,89842,1,0,0:0:0:0:
176,128,89999,1,2,0:0:0:0:
112,192,90157,1,0,0:0:0:0:
176,256,90314,1,2,0:0:0:0:
309,252,90471,2,2,P|348:232|344:171,1,100
166,73,91099,6,8,P|137:87|139:113,1,50
143,226,91413,1,0,0:0:0:0:
220,323,91570,1,2,0:0:0:0:
326,258,91727,6,2,P|361:240|365:217,1,50
329,115,92041,2,2,P|321:85|298:78,1,50
179,82,92356,2,2,P|149:95|147:126,1,50
132,232,92670,2,2,P|129:264|201:297,1,100
212,182,93141,1,0,0:0:0:0:
336,173,93298,2,8,P|338:124|283:92,1,100
231,212,93769,5,2,0:0:0:0:
157,114,93926,2,2,L|131:147,2,25
304,128,94240,2,2,L|281:162,2,25
215,283,94554,6,2,P|243:304|276:292,1,50
368,246,94869,1,0,0:0:0:0:
252,198,95026,1,2,0:0:0:0:
360,147,95183,5,2,0:0:0:0:
249,88,95340,2,2,P|226:65|193:66,1,50
95,112,95654,1,0,0:0:0:0:
102,242,95811,2,2,P|119:264|148:279,1,50
205,170,96125,1,8,0:0:0:0:
261,270,96439,5,2,0:0:0:0:
155,61,96753,5,2,0:0:0:0:
65,148,96910,1,0,0:0:0:0:
100,268,97068,1,2,0:0:0:0:
348,294,97382,5,2,0:0:0:0:
405,182,97539,1,0,0:0:0:0:
426,58,97696,1,2,0:0:0:0:
186,81,98010,6,2,L|153:126,1,50
125,242,98324,1,0,0:0:0:0:
217,158,98481,2,8,L|183:212,1,50
300,259,98795,1,0,0:0:0:0:
182,302,98952,2,2,L|128:257,1,50
267,246,99267,1,0,0:0:0:0:
158,83,99581,5,2,0:0:0:0:
368,125,99895,5,2,0:0:0:0:
354,144,99973,1,0,0:0:0:0:
341,157,100052,1,2,0:0:0:0:
328,173,100130,1,0,0:0:0:0:
313,185,100209,1,2,0:0:0:0:
148,85,100523,6,2,P|108:114|112:125,1,50
196,192,100837,1,0,0:0:0:0:
104,276,100994,1,2,0:0:0:0:
228,264,101151,1,8,0:0:0:0:
165,155,101308,2,2,B|127:184|126:184|145:210,1,50
336,320,101780,5,2,0:0:0:0:
398,60,102094,5,2,0:0:0:0:
316,114,102251,1,0,0:0:0:0:
405,152,102408,1,2,0:0:0:0:
334,238,102565,1,2,0:0:0:0:
342,245,102643,1,0,0:0:0:0:
342,245,102722,1,2,0:0:0:0:
258,307,102879,6,2,P|233:321|208:313,1,50
311,239,103193,1,0,0:0:0:0:
186,225,103350,1,2,0:0:0:0:
212,102,103507,2,8,L|162:60,1,50
383,137,103979,5,2,0:0:0:0:
175,276,104293,6,2,P|149:298|129:288,1,50
239,224,104607,2,2,P|212:245|192:235,1,50
128,138,104921,5,2,0:0:0:0:
208,48,105078,1,2,0:0:0:0:
313,186,105235,1,0,0:0:0:0:
176,128,105392,1,2,0:0:0:0:
208,256,105549,1,0,0:0:0:0:
240,128,105706,1,2,0:0:0:0:
80,208,105863,1,0,0:0:0:0:
381,78,106178,6,8,B|337:90|337:90|326:156,1,100
112,48,106806,6,2,L|72:98,1,50
304,176,107277,5,2,0:0:0:0:
400,80,107434,1,0,0:0:0:0:
304,176,107591,1,2,0:0:0:0:
400,80,107748,1,0,0:0:0:0:
304,80,107905,1,2,0:0:0:0:
400,176,108062,1,0,0:0:0:0:
301,85,108219,1,2,0:0:0:0:
400,176,108376,1,0,0:0:0:0:
272,256,108534,6,8,L|216:293,1,50
171,73,109005,5,2,0:0:0:0:
106,222,109319,6,2,L|126:275,1,50
240,313,109633,1,0,0:0:0:0:
343,243,109790,1,2,0:0:0:0:
366,120,109947,1,0,0:0:0:0:
275,206,110104,1,2,0:0:0:0:
160,176,110261,1,0,0:0:0:0:
128,80,110418,2,2,L|169:49,1,50
240,96,110732,2,2,L|256:144,1,50
336,112,111047,2,8,L|352:48,1,50
161,118,111518,6,2,P|138:146|169:204,1,100
295,98,112146,5,2,0:0:0:0:
295,98,112303,1,0,0:0:0:0:
320,256,112460,1,2,0:0:0:0:
368,112,112617,1,0,0:0:0:0:
288,192,112774,1,2,0:0:0:0:
208,272,112931,1,0,0:0:0:0:
130,162,113089,2,2,L|198:75,1,100
343,214,113717,5,8,0:0:0:0:
154,73,114031,6,2,P|131:100|141:117,1,50
202,214,114345,1,0,0:0:0:0:
268,108,114502,1,2,0:0:0:0:
154,73,114659,2,2,P|131:100|141:117,1,50
134,222,114973,1,2,0:0:0:0:
240,256,115130,6,2,L|176:288,1,50
256,176,115445,2,2,L|192:208,1,50
281,100,115759,1,2,0:0:0:0:
156,105,115916,1,0,0:0:0:0:
256,27,116073,1,2,0:0:0:0:
112,144,116230,1,8,0:0:0:0:
335,103,116544,6,2,L|257:182,1,100
126,109,117172,6,2,P|96:128|129:175,1,100
382,224,117801,6,2,P|407:234|371:284,1,100
255,46,118429,6,8,L|256:147,1,100
256,192,118900,12,0,120628,0:0:0:0:
167,68,120942,5,2,0:0:0:0:
97,172,121099,1,0,0:0:0:0:
288,160,121256,2,0,P|304:128|304:112,1,50
160,176,121570,1,2,0:0:0:0:
227,276,121727,1,0,0:0:0:0:
278,182,121884,6,2,B|309:163|309:163|343:217,1,100
208,272,122356,1,0,0:0:0:0:
352,320,122513,1,2,0:0:0:0:
128,320,122670,2,0,P|96:320|80:304,1,50
256,352,122984,1,0,0:0:0:0:
144,192,123141,6,2,B|169:203|169:203|245:180,1,100
330,71,123612,1,0,0:0:0:0:
320,208,123769,1,8,0:0:0:0:
400,160,123926,2,0,P|432:176|448:192,1,50
240,160,124240,1,2,0:0:0:0:
114,152,124397,5,2,0:0:0:0:
114,152,124476,1,0,0:0:0:0:
114,152,124554,1,2,0:0:0:0:
154,277,124712,2,2,P|183:288|206:281,1,50
220,276,124947,1,0,0:0:0:0:
241,263,125026,1,2,0:0:0:0:
115,134,125183,5,2,0:0:0:0:
128,149,125261,1,0,0:0:0:0:
145,165,125340,1,2,0:0:0:0:
166,174,125418,1,0,0:0:0:0:
188,179,125497,2,2,L|233:170,2,25
272,272,125811,1,0,0:0:0:0:
350,116,125968,6,8,B|324:125|300:141|300:141|325:166|316:185,1,100
192,160,126439,1,0,0:0:0:0:
223,275,126596,1,2,0:0:0:0:
98,278,126753,1,0,0:0:0:0:
223,275,126910,6,2,P|250:254|250:236,1,50
139,197,127225,1,0,0:0:0:0:
254,149,127382,1,2,0:0:0:0:
374,118,127539,1,0,0:0:0:0:
288,256,127696,1,2,0:0:0:0:
144,240,127853,1,0,0:0:0:0:
126,85,128167,6,2,B|109:114|109:114|140:131,1,50
371,187,128638,6,8,B|356:221|356:221|331:207,1,50
275,110,128952,1,0,0:0:0:0:
323,225,129109,1,2,0:0:0:0:
120,249,129424,6,2,B|138:272|138:272|171:249,1,50
366,74,129895,6,2,B|389:99|389:99|369:117,1,50
255,81,130209,1,0,0:0:0:0:
333,192,130366,1,2,0:0:0:0:
316,211,130445,1,0,0:0:0:0:
297,226,130523,1,2,0:0:0:0:
281,235,130602,1,0,0:0:0:0:
260,242,130680,1,2,0:0:0:0:
87,301,130837,6,2,L|94:241,1,50
84,227,131073,1,0,0:0:0:0:
84,227,131151,1,2,0:0:0:0:
180,159,131308,1,8,0:0:0:0:
160,304,131465,1,0,0:0:0:0:
331,231,131623,1,0,0:0:0:0:
144,128,131937,5,2,0:0:0:0:
263,150,132094,1,0,0:0:0:0:
332,254,132251,1,2,0:0:0:0:
291,131,132408,2,2,P|259:134|258:156,1,50
378,168,132722,1,0,0:0:0:0:
272,64,132879,1,2,0:0:0:0:
320,240,133036,1,2,0:0:0:0:
251,174,133193,2,2,P|224:196|219:265,1,100
320,177,133664,5,2,0:0:0:0:
256,288,133821,1,8,0:0:0:0:
272,128,133979,1,2,0:0:0:0:
128,208,134136,1,0,0:0:0:0:
160,304,134293,1,2,0:0:0:0:
192,144,134450,1,0,0:0:0:0:
376,115,134764,5,2,0:0:0:0:
350,102,134842,1,0,0:0:0:0:
316,101,134921,1,2,0:0:0:0:
281,118,134999,1,0,0:0:0:0:
250,142,135078,1,2,0:0:0:0:
132,99,135235,1,0,0:0:0:0:
192,240,135392,1,2,0:0:0:0:
448,208,135706,1,2,0:0:0:0:
402,73,136020,6,2,P|364:93|363:108,1,50
243,133,136335,2,8,P|218:144|196:125,1,50
336,256,136649,2,2,L|299:303,1,50
285,127,136963,1,2,0:0:0:0:
160,240,137120,1,0,0:0:0:0:
352,208,137277,1,2,0:0:0:0:
258,160,137434,6,2,L|241:210,1,50
121,240,137748,1,0,0:0:0:0:
241,272,137905,1,2,0:0:0:0:
115,56,138219,5,2,0:0:0:0:
198,149,138376,1,0,0:0:0:0:
171,271,138534,1,2,0:0:0:0:
344,91,138848,6,8,P|365:113|373:138,1,50
356,252,139162,1,2,0:0:0:0:
159,77,139476,6,2,P|135:98|133:117,1,50
144,209,139790,1,2,0:0:0:0:
161,233,139869,1,0,0:0:0:0:
180,244,139947,1,2,0:0:0:0:
207,256,140026,1,0,0:0:0:0:
228,261,140104,1,2,0:0:0:0:
341,207,140261,1,2,0:0:0:0:
304,96,140418,1,0,0:0:0:0:
66,321,140732,5,2,0:0:0:0:
204,117,141047,5,2,0:0:0:0:
125,214,141204,1,0,0:0:0:0:
247,240,141361,1,2,0:0:0:0:
383,37,141675,6,2,P|365:69|383:136,1,100
197,112,142303,5,2,0:0:0:0:
110,187,142460,1,0,0:0:0:0:
192,267,142617,1,2,0:0:0:0:
288,187,142774,1,0,0:0:0:0:
190,109,142931,1,2,0:0:0:0:
315,106,143089,2,2,L|310:167,4,50
201,74,143874,1,2,0:0:0:0:
167,214,144188,6,2,P|181:244|208:266,1,50
286,177,144502,1,2,0:0:0:0:
283,292,144659,1,0,0:0:0:0:
348,185,144816,1,2,0:0:0:0:
118,284,145130,5,2,0:0:0:0:
188,199,145287,1,0,0:0:0:0:
164,104,145445,1,2,0:0:0:0:
320,304,145759,5,2,0:0:0:0:
222,257,145916,2,2,L|171:295,2,50
317,310,146387,1,0,0:0:0:0:
198,94,146701,5,2,0:0:0:0:
443,140,147015,6,2,P|437:190|403:232,1,100
333,127,147486,1,0,0:0:0:0:
363,248,147643,1,2,0:0:0:0:
252,307,147801,1,0,0:0:0:0:
183,202,147958,1,2,0:0:0:0:
304,171,148115,2,2,L|275:237,4,50
377,272,148900,1,2,0:0:0:0:
146,83,149214,5,2,0:0:0:0:
265,244,149528,6,2,B|239:267|245:293|245:293|200:325,1,100
352,80,150157,5,2,0:0:0:0:
352,208,150314,1,0,0:0:0:0:
256,144,150471,1,2,0:0:0:0:
352,80,150628,1,0,0:0:0:0:
352,208,150785,1,2,0:0:0:0:
256,144,150942,1,0,0:0:0:0:
160,112,151099,2,0,L|128:160,1,50
208,240,151413,1,2,0:0:0:0:
341,86,151727,6,2,B|319:111|319:111|345:140|345:140|328:167,1,100
122,121,152356,5,2,0:0:0:0:
151,242,152513,1,0,0:0:0:0:
222,139,152670,1,2,0:0:0:0:
243,262,152827,1,0,0:0:0:0:
135,197,152984,1,2,0:0:0:0:
98,316,153141,2,2,L|156:342,3,50
239,78,153926,5,2,0:0:0:0:
384,157,154240,5,2,0:0:0:0:
298,280,154554,5,0,0:0:0:0:
222,298,154712,1,2,0:0:0:0:
135,104,156125,5,0,0:0:0:0:
444,315,156596,5,0,0:0:0:0:
208,224,157068,6,0,B|231:201|231:201|263:246|263:246|301:203|301:203|233:115|233:115|192:154,1,300
256,192,158246,12,0,162643,0:0:0:0:
