osu file format v14

[General]
AudioFilename: audio.mp3
AudioLeadIn: 0
PreviewTime: 280
Countdown: 1
SampleSet: Soft
StackLeniency: 0.7
Mode: 0
LetterboxInBreaks: 0
WidescreenStoryboard: 0

[Editor]
DistanceSpacing: 2
BeatDivisor: 8
GridSize: 4
TimelineZoom: 1.8

[Metadata]
Title:More Cowbell!
TitleUnicode:More Cowbell!
Artist:Blue Oyster Cult
ArtistUnicode:Blue Öyster Cult
Creator:TheDustOfTimes
Version:Infinite Cowbell
Source:Saturday Night Live
Tags:SNL Christoper Walken Jimmy Fallon William Ferrell Chris Kattan Chris Parnell Horatio Sanz Techno Bass Remix
BeatmapID:1838901
BeatmapSetID:879317

[Difficulty]
HPDrainRate:3.5
CircleSize:4.3
OverallDifficulty:10
ApproachRate:10
SliderMultiplier:2.1
SliderTickRate:1

[Events]
//Background and Video events
0,0,"cowbelle.jpg",0,0
//Break Periods
//Storyboard Layer 0 (Background)
//Storyboard Layer 1 (Fail)
//Storyboard Layer 2 (Pass)
//Storyboard Layer 3 (Foreground)
//Storyboard Sound Samples

[TimingPoints]
376,468.75,4,2,0,100,1,0
376,-25,4,2,0,60,0,0
1665,468.75,4,2,0,60,1,0
5883,-333.333333333333,4,2,0,60,0,0
6352,-32.1543408360129,4,2,0,60,0,0
7290,-32.1543408360129,4,2,0,60,0,1
14145,-133.333333333333,4,2,0,60,0,0
14790,-100,4,2,0,60,0,1
20415,-333.333333333333,4,2,0,60,0,0
21821,-30.9597523219814,4,2,0,60,0,0

[HitObjects]
214,87,376,6,0,P|267:298|273:80,1,630
273,80,786,2,0,P|267:297|213:86,1,630
488,68,1196,5,2,0:0:0:0:
383,199,1430,1,2,0:0:0:0:
278,68,1665,1,2,0:3:0:0:
173,199,1899,1,2,0:0:0:0:
68,68,2134,1,2,0:0:0:0:
255,22,2368,5,2,0:0:0:0:
207,215,2602,1,2,0:3:0:0:
385,68,2836,1,2,0:0:0:0:
113,100,3071,1,2,0:0:0:0:
381,243,3305,1,2,0:0:0:0:
385,68,3540,5,2,0:3:0:0:
406,104,3657,1,0,0:0:0:0:
403,145,3774,1,0,0:0:0:0:
376,177,3891,1,0,0:0:0:0:
338,195,4008,5,2,0:3:0:0:
317,231,4125,1,0,0:0:0:0:
320,272,4242,1,0,0:0:0:0:
347,304,4359,1,0,0:0:0:0:
315,331,4477,5,2,0:3:0:0:
269,358,4594,1,0,0:0:0:0:
216,354,4711,1,2,0:3:0:0:
176,319,4828,1,0,0:0:0:0:
120,228,4946,5,2,0:3:0:0:
221,201,5063,1,0,0:0:0:0:
279,114,5180,1,2,0:3:0:0:
379,84,5297,1,0,0:0:0:0:
388,227,5415,5,2,0:3:0:0:
214,124,5532,1,2,0:3:0:0:
366,113,5649,1,2,0:3:0:0:
249,266,5766,1,2,0:3:0:0:
326,59,5883,6,2,P|346:73|381:79,1,55.1249983177186,0|0,0:1|0:1,0:1:0:0:
366,46,6352,6,2,L|156:327,1,326.549981563798,0|0,0:1|0:1,0:1:0:0:
471,128,6821,1,0,0:0:0:0:
119,44,7290,5,8,0:0:0:0:
119,44,7348,1,0,0:0:0:0:
119,44,7407,1,0,0:0:0:0:
250,356,7528,1,0,0:0:0:0:
419,40,7645,1,0,0:0:0:0:
119,334,7758,5,8,0:0:0:0:
119,334,7816,1,0,0:0:0:0:
119,334,7875,1,0,0:0:0:0:
250,22,7996,1,0,0:0:0:0:
419,336,8113,1,0,0:0:0:0:
45,134,8231,1,8,0:0:0:0:
350,143,8461,5,0,0:0:0:0:
320,212,8696,1,8,0:0:0:0:
167,149,8930,5,0,0:0:0:0:
435,220,9047,1,0,0:0:0:0:
203,77,9165,1,8,0:0:0:0:
71,110,9399,5,0,0:0:0:0:
175,15,9633,1,8,0:0:0:0:
120,315,9868,5,0,0:0:0:0:
283,91,9985,1,0,0:0:0:0:
410,329,10102,1,8,0:0:0:0:
436,63,10336,5,0,0:0:0:0:
332,175,10571,1,8,0:0:0:0:
99,240,10805,5,0,0:0:0:0:
121,159,10922,1,0,0:0:0:0:
308,294,11040,1,8,0:0:0:0:
318,104,11274,5,0,0:0:0:0:
160,339,11508,1,8,0:0:0:0:
413,228,11743,5,0,0:0:0:0:
239,37,11860,1,0,0:0:0:0:
313,17,11977,1,8,0:0:0:0:
261,289,12211,5,0,0:0:0:0:
506,167,12446,1,8,0:0:0:0:
297,99,12680,5,0,0:0:0:0:
205,273,12797,1,0,0:0:0:0:
412,247,12915,1,8,0:0:0:0:
225,116,13149,5,0,0:0:0:0:
225,116,13383,1,8,0:0:0:0:
249,194,13618,5,0,0:0:0:0:
52,198,13735,1,0,0:0:0:0:
249,194,13852,2,2,P|249:106|309:224,1,326.549981563798,0|0,0:0|0:0,0:1:0:0:
354,198,14145,6,0,P|375:204|400:201,1,39.3750015020371
110,261,14321,5,4,0:0:0:0:
179,22,14790,5,8,0:0:0:0:
179,22,14848,1,0,0:0:0:0:
179,22,14907,2,0,L|181:72,1,26.25
239,354,15024,1,0,0:0:0:0:
478,45,15141,5,0,0:0:0:0:
478,45,15200,1,0,0:0:0:0:
478,45,15258,2,0,L|427:47,1,26.25,8|0,0:0|0:0,0:0:0:0:
146,105,15375,1,0,0:0:0:0:
250,362,15493,5,0,0:0:0:0:
419,48,15610,1,0,0:0:0:0:
45,250,15728,1,8,0:0:0:0:
350,241,15958,5,0,0:0:0:0:
320,172,16193,1,8,0:0:0:0:
167,235,16427,5,0,0:0:0:0:
435,164,16544,1,0,0:0:0:0:
203,307,16662,1,8,0:0:0:0:
71,274,16896,5,0,0:0:0:0:
175,369,17130,1,8,0:0:0:0:
162,60,17365,5,0,0:0:0:0:
284,271,17482,1,0,0:0:0:0:
370,60,17599,1,8,0:0:0:0:
436,321,17833,5,0,0:0:0:0:
332,209,18068,1,8,0:0:0:0:
99,144,18302,5,0,0:0:0:0:
121,225,18419,1,0,0:0:0:0:
308,90,18537,1,8,0:0:0:0:
318,280,18771,5,0,0:0:0:0:
137,15,19005,1,8,0:0:0:0:
413,156,19240,5,0,0:0:0:0:
239,347,19357,1,0,0:0:0:0:
313,367,19474,1,8,0:0:0:0:
261,95,19708,5,0,0:0:0:0:
491,63,19943,5,8,0:0:0:0:
26,313,20177,1,0,0:0:0:0:
127,134,20415,2,0,L|152:196,2,62.9999980773926,8|0|0,0:0|0:0|0:0,0:0:0:0:
171,245,21821,6,2,P|170:176|250:254,1,254.362494129589,0|0,0:0|0:0,0:1:0:0:
257,246,22407,1,0,0:0:0:0:
