osu file format v14

[General]
AudioFilename: audio.mp3
AudioLeadIn: 0
PreviewTime: 44072
Countdown: 0
SampleSet: Soft
StackLeniency: 0.7
Mode: 0
LetterboxInBreaks: 0
WidescreenStoryboard: 0

[Editor]
DistanceSpacing: 0.1
BeatDivisor: 4
GridSize: 4
TimelineZoom: 1

[Metadata]
Title:Parhelia (Cut Ver.)
TitleUnicode:Parhelia (Cut Ver.)
Artist:Blue Marble
ArtistUnicode:Blue Marble
Creator:Sajinn
Version:Insane
Source:
Tags:featured artist instrumental electronic mbc monthly beatmapping contest fa doion kalibe -nenu- 4 xahlt dnb dolon gweon sua kuon-
BeatmapID:4067850
BeatmapSetID:1962695

[Difficulty]
HPDrainRate:5.5
CircleSize:4
OverallDifficulty:8
ApproachRate:8.8
SliderMultiplier:1.7
SliderTickRate:1

[Events]
//Background and Video events
0,0,"dsa.jpg",0,0
//Break Periods
//Storyboard Layer 0 (Background)
//Storyboard Layer 1 (Fail)
//Storyboard Layer 2 (Pass)
//Storyboard Layer 3 (Foreground)
//Storyboard Layer 4 (Overlay)
//Storyboard Sound Samples

[TimingPoints]
21,344.827586206897,4,2,1,45,1,0
22089,-125,4,2,1,30,0,0
23727,-125,4,2,1,5,0,0
23814,-125,4,2,1,30,0,0
25538,-111.111111111111,4,2,1,30,0,0
26831,-125,4,2,1,30,0,0
27262,-125,4,2,1,40,0,0
29245,-125,4,2,1,5,0,0
29331,-125,4,2,1,35,0,0
30365,-111.111111111111,4,2,1,35,0,0
31745,-125,4,2,1,40,0,0
32003,-125,4,2,1,5,0,0
32089,-125,4,2,1,40,0,0
33124,-111.111111111111,4,2,1,45,0,0
33814,-125,4,2,1,45,0,0
38469,-125,4,2,1,50,0,0
40021,-125,4,2,1,55,0,0
42434,-100,4,2,1,55,0,0
43900,-100,4,2,1,5,0,0
43986,-71.4285714285714,4,2,1,55,0,0
44072,-71.4285714285714,4,2,1,5,0,0
44158,-71.4285714285714,4,2,1,70,0,0
44848,-90.9090909090909,4,2,1,70,0,0
46572,-100,4,2,1,70,0,0
49676,-90.9090909090909,4,2,1,70,0,0
50365,-100,4,2,1,70,0,0
64848,-100,4,2,1,75,0,0
65883,-100,4,2,1,80,0,0
66141,-100,4,2,1,5,0,0
66227,-71.4285714285714,4,2,1,70,0,0
66745,-100,4,2,1,70,0,0
85538,-200,4,2,1,70,0,0
87262,-100,4,2,1,70,0,0
87952,-71.4285714285714,4,2,1,70,0,0
88296,-71.4285714285714,4,2,1,75,0,0
88814,-100,4,2,1,75,0,0
89331,-83.3333333333333,4,2,1,75,0,0
90710,-100,4,2,1,75,0,0
93469,-83.3333333333333,4,2,1,75,0,0
94158,-100,4,2,1,75,0,0
96314,-83.3333333333333,4,2,1,75,0,0
96572,-100,4,2,1,75,0,0
103124,-83.3333333333333,4,2,1,75,0,0
103641,-100,4,2,1,75,0,0
106227,-83.3333333333333,4,2,1,75,0,0
106917,-100,4,2,1,75,0,0
107262,-83.3333333333333,4,2,1,75,0,0
107607,-83.3333333333333,4,2,1,55,0,0
108469,-83.3333333333333,4,2,1,45,0,0
109158,-83.3333333333333,4,2,1,35,0,0
109848,-83.3333333333333,4,2,1,25,0,0
110193,-100,4,2,1,25,0,0
110365,-100,4,2,1,50,0,0

[Colours]
Combo1 : 32,223,181
Combo2 : 112,112,222

[HitObjects]
175,325,22089,6,0,L|38:350,1,136,4|0,1:2|1:0,0:0:0:0:
83,145,22693,1,0,1:0:0:0:
83,145,22779,2,0,P|128:185|127:209,1,68,0|0,1:0|0:0,0:0:0:0:
86,262,23124,2,0,P|115:211|202:220,1,136,0|0,1:0|1:0,0:0:0:0:
353,311,23814,5,0,1:0:0:0:
421,360,24158,2,0,L|436:209,1,136,0|0,1:0|1:0,0:0:0:0:
423,204,24762,5,0,1:0:0:0:
423,204,24848,2,0,P|369:214|355:251,1,68,2|0,1:3|0:0,0:0:0:0:
242,125,25193,2,0,L|320:142,1,68,0|0,1:0|0:0,0:0:0:0:
471,75,25538,2,0,B|388:66|403:112|312:105,1,152.999995330811,0|0,1:0|1:0,0:0:0:0:
154,56,26055,5,2,0:2:0:0:
104,4,26227,2,0,P|64:4|31:116,1,152.999995330811,0|0,1:0|1:0,0:0:0:0:
117,300,26831,5,0,1:0:0:0:
117,300,26917,2,0,L|153:292,2,34,0|0|0,1:0|1:0|0:0,0:0:0:0:
50,250,27262,2,0,L|200:276,2,136,0|2|0,1:0|1:3|1:0,0:0:0:0:
284,354,28210,5,0,1:0:0:0:
284,354,28296,2,0,P|324:321|355:321,1,68,0|0,1:0|0:2,0:0:0:0:
454,283,28641,2,0,P|421:273|399:248,1,68,0|0,1:0|0:0,0:0:0:0:
379,244,28986,6,0,B|378:174|411:191|408:101,1,136,0|0,1:0|1:0,0:0:0:0:
413,92,29676,2,0,P|420:139|430:173,1,68,0|0,1:0|0:0,0:0:0:0:
275,231,30021,2,0,P|283:197|287:164,1,68,0|0,1:0|1:0,0:0:0:0:
270,86,30279,5,0,1:0:0:0:
277,72,30365,2,0,P|218:66|205:159,1,152.999995330811,2|0,1:3|1:0,0:0:0:0:
93,173,30883,1,0,0:0:0:0:
202,173,31055,2,0,P|166:122|91:155,1,152.999995330811,0|0,1:0|1:0,0:0:0:0:
144,336,31572,1,0,0:0:0:0:
106,274,31745,6,0,P|75:261|29:258,1,68,0|0,1:0|0:0,0:0:0:0:
131,364,32089,2,0,P|193:332|267:331,1,136
334,356,32607,2,0,L|343:310,2,34,2|0|0,0:2|0:0|0:0,0:0:0:0:
394,30,33038,5,0,1:0:0:0:
394,30,33124,2,0,B|478:54|478:54|449:133,1,152.999995330811,2|0,1:3|1:0,0:0:0:0:
472,218,33641,1,2,0:0:0:0:
472,218,33814,2,0,P|423:205|395:201,1,68,0|2,1:0|0:1,0:0:0:0:
312,84,34158,2,0,P|274:91|193:113,1,102
199,93,34503,6,0,P|253:127|243:207,1,136,0|0,1:0|1:0,0:0:0:0:
118,301,35021,1,8,0:3:0:0:
118,301,35107,2,0,L|128:254,2,34,8|0|8,0:3|1:0|0:3,0:0:0:0:
46,240,35538,2,0,L|187:260,1,136,0|2,1:0|1:3,0:0:0:0:
197,248,36055,5,0,0:0:0:0:
234,313,36227,1,2,1:0:0:0:
313,282,36400,1,4,0:3:0:0:
313,282,36486,1,4,0:3:0:0:
313,282,36572,1,0,1:0:0:0:
392,321,36745,1,0,0:0:0:0:
461,290,36917,1,0,1:0:0:0:
461,290,37089,6,0,P|446:228|441:141,1,136,2|0,0:0|0:0,0:0:0:0:
393,39,37607,2,0,L|320:54,1,68,0|0,1:0|1:0,0:0:0:0:
256,70,37865,1,8,0:3:0:0:
246,73,37952,1,0,0:0:0:0:
329,156,38124,1,2,0:1:0:0:
240,217,38296,2,0,P|179:241|171:321,1,136,0|0,1:0|1:0,0:0:0:0:
181,308,38814,5,0,1:0:0:0:
117,263,38986,1,0,1:0:0:0:
81,192,39158,1,0,1:0:0:0:
89,118,39331,1,0,1:0:0:0:
59,191,39503,5,0,1:0:0:0:
165,97,39676,1,0,1:0:0:0:
23,70,39848,1,0,1:0:0:0:
207,206,40021,5,0,1:0:0:0:
289,152,40193,1,0,1:0:0:0:
202,178,40365,1,0,1:0:0:0:
327,242,40538,1,0,1:0:0:0:
205,303,40710,5,0,1:0:0:0:
379,163,40883,1,0,1:0:0:0:
97,27,41055,5,0,1:0:0:0:
270,110,41227,1,0,1:0:0:0:
72,259,41400,6,0,L|63:307,3,34,0|0|0|0,1:0|1:0|1:0|1:0,0:0:0:0:
35,368,41745,5,0,1:0:0:0:
58,331,41831,1,0,1:0:0:0:
104,311,41917,1,0,1:0:0:0:
147,330,42003,1,0,1:0:0:0:
161,351,42089,1,0,1:0:0:0:
210,378,42176,1,0,1:0:0:0:
265,362,42262,1,0,1:0:0:0:
287,306,42348,1,0,1:0:0:0:
264,315,42434,6,0,L|251:264,1,42.5,0|0,1:0|1:0,0:0:0:0:
122,139,42607,2,0,L|135:88,1,42.5,0|0,1:0|1:0,1:0:0:0:
202,64,42779,5,4,3:0:0:0:
202,55,42865,5,4,3:0:0:0:
210,51,42952,5,4,3:0:0:0:
202,47,43038,5,4,3:0:0:0:
208,43,43124,5,2,1:0:0:0:
124,10,43239,5,2,0:0:0:0:
114,0,43354,2,0,P|72:8|45:43,1,56.6666666666667,2|2,0:0|1:0,0:0:0:0:
249,178,43584,5,2,0:0:0:0:
266,167,43699,2,0,P|241:152|213:151,1,56.6666666666667,2|2,0:0|1:0,0:0:0:0:
204,173,43986,6,0,B|226:165|226:165|240:151|240:151|276:137,1,59.4999981842042,2|0,1:0|0:0,1:0:0:0:
459,136,44158,2,0,B|362:109|362:109|401:37,1,178.499994552612,6|0,1:0|0:0,0:0:0:0:
388,27,44503,1,8,1:0:0:0:
491,24,44676,1,0,0:0:0:0:
491,24,44762,1,0,0:0:0:0:
491,24,44848,2,0,P|508:47|513:80,1,46.7500014266968
372,205,45021,6,0,L|357:260,1,46.7500014266968,0|0,3:0|0:0,0:0:0:0:
456,253,45193,2,0,B|363:230|387:312|248:287,1,187.000005706787,8|2,1:2|1:0,0:0:0:0:
270,270,45710,1,0,0:0:0:0:
61,357,45883,6,0,L|85:202,1,140.25000428009,8|0,1:0|0:0,0:0:0:0:
63,222,46227,1,0,0:0:0:0:
219,122,46400,1,0,0:0:0:0:
156,27,46572,5,8,1:0:0:0:
156,27,46658,2,0,L|87:50,1,42.5,0|0,1:0|0:0,0:0:0:0:
55,88,46831,1,8,1:0:0:0:
55,88,46917,2,0,P|132:71|111:141,1,170,0|8,1:0|1:0,0:0:0:0:
314,287,47434,6,0,L|322:239,2,42.5,2|0|0,0:2|0:0|0:0,0:0:0:0:
226,323,47779,5,0,3:0:0:0:
410,201,47952,2,0,B|321:177|345:259|213:236,1,170,8|0,1:0|3:0,0:0:0:0:
243,222,48469,5,0,0:0:0:0:
278,150,48641,1,8,1:0:0:0:
126,265,48814,5,2,0:1:0:0:
126,265,48900,1,0,0:0:0:0:
126,265,48986,1,0,0:0:0:0:
146,338,49158,1,0,0:0:0:0:
50,206,49331,6,0,P|62:182|67:155,1,42.5,8|0,1:0|0:0,0:0:0:0:
64,18,49503,2,0,P|69:38|79:57,1,42.5
19,102,49676,6,0,L|192:73,1,140.25000428009,4|0,0:1|0:0,0:0:0:0:
154,63,50021,1,8,0:0:0:0:
408,257,50279,1,0,0:0:0:0:
408,257,50365,2,0,P|371:281|370:331,1,85,0|0,0:0|3:0,0:0:0:0:
436,362,50710,1,8,1:0:0:0:
491,198,50883,5,0,0:0:0:0:
491,198,50969,1,0,0:0:0:0:
491,198,51055,2,0,B|402:174|426:256|294:233,1,170,2|8,0:1|0:0,0:0:0:0:
292,176,51572,1,2,2:0:0:0:
192,283,51745,1,0,0:0:0:0:
89,198,51917,2,0,L|78:151,2,42.5,2|0|8,3:1|0:0|1:0,0:0:0:0:
29,257,52262,1,2,0:0:0:0:
143,103,52434,6,0,B|232:119|232:119|250:28,1,170,0|8,3:0|1:0,0:0:0:0:
143,103,52952,1,2,0:2:0:0:
239,26,53124,2,0,P|297:31|329:71,1,85
317,225,53469,1,8,1:0:0:0:
485,103,53727,5,8,0:0:0:0:
485,103,53814,2,0,L|345:128,1,127.5,2|0,3:0|0:0,0:0:0:0:
340,117,54158,1,8,1:0:0:0:
411,202,54331,2,0,L|400:245,2,42.5,2|0|0,0:1|0:0|0:0,0:0:0:0:
300,303,54676,1,0,0:0:0:0:
363,369,54848,1,8,1:0:0:0:
487,308,55021,5,0,0:0:0:0:
487,308,55107,1,0,0:0:0:0:
487,308,55193,2,0,B|398:284|422:366|290:343,2,170,0|8|2,3:0|1:0|0:0,0:0:0:0:
295,207,56055,1,2,3:1:0:0:
194,317,56227,2,0,L|102:336,1,85,8|0,0:0|0:0,0:0:0:0:
19,162,56572,6,0,L|150:182,1,127.5,0|0,3:0|0:0,0:0:0:0:
151,196,56917,1,8,1:0:0:0:
276,206,57089,2,0,L|268:155,2,42.5
155,0,57434,2,0,L|148:47,1,42.5,0|0,3:0|0:0,0:0:0:0:
106,100,57607,2,0,B|124:62|124:62|101:8,1,85,8|2,1:0|0:0,0:0:0:0:
197,118,57952,5,2,3:0:0:0:
291,40,58124,1,0,0:2:0:0:
291,40,58210,1,0,0:0:0:0:
291,40,58296,2,0,P|364:35|372:116,1,170,10|0,0:0|0:0,0:0:0:0:
276,206,58814,1,2,3:1:0:0:
392,133,58986,2,0,P|319:128|267:205,1,170,8|0,1:0|3:0,0:0:0:0:
439,369,59589,5,0,1:0:0:0:
439,369,59676,2,0,L|446:314,1,42.5,8|0,1:0|0:0,0:0:0:0:
512,293,59848,2,0,B|418:272|445:337|338:330,1,170
290,286,60365,1,8,1:0:0:0:
125,363,60538,5,2,0:0:0:0:
125,363,60624,1,0,0:0:0:0:
125,363,60710,2,2,L|114:218,1,127.5,2|0,0:1|0:0,0:0:0:0:
120,221,61055,1,8,0:0:0:0:
191,250,61227,1,0,0:0:0:0:
268,163,61400,1,0,0:0:0:0:
202,130,61572,1,0,3:0:0:0:
202,130,61658,1,0,3:0:0:0:
202,130,61745,1,8,0:2:0:0:
305,297,61917,5,0,0:0:0:0:
344,360,62089,2,0,B|420:333|420:333|378:227,1,170,2|8,0:2|0:0,0:0:0:0:
460,128,62607,2,0,L|472:75,2,42.5,2|0|0,0:0|0:0|0:0,0:0:0:0:
499,213,62952,1,0,3:0:0:0:
446,107,63124,2,0,L|353:118,1,85,8|2,1:0|0:0,0:0:0:0:
284,128,63383,1,0,3:0:0:0:
269,130,63469,1,0,3:2:0:0:
58,21,63727,5,0,1:0:0:0:
58,21,63814,2,0,L|185:39,1,127.5,8|8,1:0|1:0,0:0:0:0:
186,31,64158,1,0,0:0:0:0:
74,142,64331,1,0,3:0:0:0:
166,232,64503,1,8,1:0:0:0:
46,343,64676,6,0,P|56:316|54:283,1,42.5,2|2,0:0|0:3,0:0:0:0:
41,297,64848,2,0,P|58:247|167:253,1,170,2|8,0:1|0:0,0:0:0:0:
225,370,65365,5,2,0:1:0:0:
157,331,65538,1,0,0:0:0:0:
136,357,65710,5,0,0:0:0:0:
262,284,65883,1,10,0:0:0:0:
472,84,66227,6,0,B|398:127|303:53|380:-8|400:52,1,178.499994552612,4|0,1:0|0:0,0:0:0:0:
472,84,66572,1,8,1:0:0:0:
332,201,66745,2,0,L|324:141,2,42.5
415,230,67089,1,2,1:0:0:0:
321,141,67262,6,0,B|229:118|264:191|148:180,1,170,8|0,1:0|0:0,0:0:0:0:
150,163,67865,1,0,0:0:0:0:
150,163,67952,2,0,L|214:172,1,42.5,8|0,0:0|0:0,0:0:0:0:
340,288,68124,2,0,L|203:307,1,127.5,2|0,0:0|0:0,0:0:0:0:
225,324,68469,5,0,3:0:0:0:
326,264,68641,1,8,1:0:0:0:
426,147,68814,5,2,0:0:0:0:
321,114,68986,2,0,P|309:54|405:38,1,170,2|8,1:0|1:0,0:0:0:0:
321,114,69503,1,2,0:0:0:0:
213,34,69676,2,0,L|121:20,1,85
51,190,70021,1,8,1:0:0:0:
51,190,70107,2,0,L|105:180,1,42.5,0|0,1:0|0:0,0:0:0:0:
180,206,70279,5,8,1:0:0:0:
180,206,70365,2,0,B|96:182|96:182|125:99,1,170,0|8,3:0|1:0,0:0:0:0:
7,1,70883,2,0,L|22:98,1,85,0|0,1:0|0:0,0:0:0:0:
166,330,71227,6,0,P|175:307|177:280,1,42.5
93,295,71400,2,0,L|-3:314,1,85,8|2,1:0|1:2,0:0:0:0:
181,344,71745,6,0,B|280:320|249:394|355:379,1,170,0|10,3:0|0:0,0:0:0:0:
439,271,72262,2,0,L|448:215,2,42.5
498,360,72607,1,2,3:1:0:0:
343,267,72779,2,0,B|328:230|328:230|350:169,1,85,8|0,1:0|0:0,0:0:0:0:
483,45,73124,6,0,L|332:69,1,127.5,0|0,3:0|0:0,0:0:0:0:
356,45,73469,5,8,1:0:0:0:
429,133,73641,1,2,0:2:0:0:
464,34,73814,5,0,0:0:0:0:
324,161,73986,1,2,0:3:0:0:
324,161,74072,1,0,0:0:0:0:
324,161,74158,1,8,1:0:0:0:
169,90,74331,2,0,L|119:103,1,42.5,2|0,0:0|0:0,0:0:0:0:
124,70,74503,6,0,B|223:94|223:94|220:10,2,170,0|8|0,3:0|1:0|0:0,0:0:0:0:
74,0,75365,1,0,3:0:0:0:
74,0,75452,1,0,0:0:0:0:
74,0,75538,1,8,1:0:0:0:
69,251,75796,5,2,1:2:0:0:
69,251,75883,2,0,P|133:252|133:360,1,170,2|8,3:2|1:0,0:0:0:0:
34,360,76400,1,2,0:0:0:0:
140,339,76572,2,0,P|175:290|209:294,1,85
255,356,76917,5,8,1:0:0:0:
358,249,77089,1,0,0:0:0:0:
430,371,77262,6,0,L|444:196,1,170,2|8,3:1|1:0,0:0:0:0:
469,209,77865,1,0,0:0:0:0:
469,209,77952,2,0,L|456:152,1,42.5
275,5,78124,6,0,L|265:62,1,42.5,0|0,3:0|0:0,0:0:0:0:
198,65,78296,2,0,B|289:49|261:121|383:103,1,170,8|2,1:0|0:1,0:0:0:0:
351,119,78814,1,0,0:0:0:0:
492,93,78986,2,0,P|492:56|382:29,1,170,8|0,1:0|0:0,0:0:0:0:
492,93,79503,1,0,3:0:0:0:
341,225,79676,2,0,L|243:242,1,85,8|2,1:0|1:3,0:0:0:0:
147,104,80021,6,0,B|45:80|45:80|59:160,1,170,2|8,3:1|1:0,0:0:0:0:
134,252,80538,1,2,0:0:0:0:
212,150,80710,2,0,P|225:117|227:97,1,42.5
75,8,80883,6,0,L|84:60,1,42.5,0|0,3:0|0:0,0:0:0:0:
147,104,81055,2,0,P|188:77|322:67,1,170,8|0,1:0|3:0,0:0:0:0:
399,48,81572,2,0,L|392:93,2,42.5,0|0|8,0:0|0:0|1:0,0:0:0:0:
315,185,81917,5,2,0:3:0:0:
440,301,82089,1,0,0:0:0:0:
428,190,82262,5,0,3:0:0:0:
334,309,82434,2,0,P|275:322|246:345,1,85,8|0,1:0|0:0,0:0:0:0:
24,217,82779,6,0,B|119:196|88:268|209:248,1,170,2|10,3:2|0:0,0:0:0:0:
24,217,83296,1,0,0:0:0:0:
155,51,83469,2,0,B|134:89|134:89|148:151,1,85,0|2,0:0|3:1,0:0:0:0:
370,70,83814,2,0,L|229:97,1,127.5,8|0,1:0|0:0,0:0:0:0:
236,83,84158,5,2,3:2:0:0:
362,109,84331,1,0,0:0:0:0:
465,207,84503,5,8,1:0:0:0:
354,250,84676,1,0,0:0:0:0:
354,250,84762,1,0,0:0:0:0:
354,250,84848,1,0,0:0:0:0:
258,357,85021,5,2,3:1:0:0:
446,374,85193,2,0,B|455:333|455:333|434:295,1,85,8|0,1:0|0:0,0:0:0:0:
353,353,85538,6,0,L|263:369,1,85,2|0,1:2|1:0,0:0:0:0:
170,360,86055,2,0,L|175:326,2,21.25,0|0|2,0:0|0:0|0:0,0:0:0:0:
156,353,86400,5,0,0:0:0:0:
207,270,86572,1,0,1:0:0:0:
140,199,86745,1,0,0:0:0:0:
128,224,86917,5,0,0:0:0:0:
277,180,87089,5,0,0:0:0:0:
321,49,87262,5,2,1:3:0:0:
303,63,87377,2,0,P|274:70|232:93,1,56.6666666666667,2|0,0:0|0:0,0:0:0:0:
49,76,87607,5,2,0:3:0:0:
67,90,87722,2,0,P|96:97|138:120,1,56.6666666666667,2|0,0:0|0:0,0:0:0:0:
210,283,87952,6,0,B|219:252|219:252|211:211,1,59.4999981842042,2|0,0:0|0:0,0:0:0:0:
41,213,88124,2,0,B|32:244|32:244|40:285,1,59.4999981842042,2|0,1:2|0:0,0:0:0:0:
111,384,88296,6,0,L|129:192,1,178.499994552612,6|0,0:1|0:0,0:0:0:0:
119,200,88641,1,8,0:0:0:0:
273,343,88814,2,0,L|325:356,2,42.5,0|0|2,0:0|0:0|0:0,0:0:0:0:
370,180,89158,1,0,3:0:0:0:
462,252,89331,2,0,B|417:277|346:273|346:273|395:301|396:336,1,203.999993774414,8|0,1:0|0:0,0:0:0:0:
205,131,89848,5,0,0:0:0:0:
205,131,89934,1,0,0:0:0:0:
205,131,90021,2,0,P|225:76|312:78,1,152.999995330811,8|0,0:0|0:0,0:0:0:0:
321,62,90365,2,0,L|311:123,1,50.9999984436036,0|2,0:0|0:0,0:0:0:0:
257,356,90538,6,0,L|248:305,1,50.9999984436036,0|0,3:0|0:0,0:0:0:0:
323,268,90710,2,0,B|227:253|264:327|132:312,1,170,8|2,1:0|0:1,0:0:0:0:
95,221,91227,1,0,0:0:0:0:
32,167,91400,2,0,B|12:207|12:207|20:263,1,85,8|0,0:0|0:2,0:0:0:0:
161,278,91745,2,0,B|181:238|181:238|173:182,1,85,0|0,0:0|3:0,0:0:0:0:
244,22,92089,2,0,L|109:47,1,127.5,8|0,1:0|0:0,0:0:0:0:
102,36,92434,5,2,0:2:0:0:
227,104,92607,1,0,0:0:0:0:
307,240,92779,5,8,0:0:0:0:
401,207,92952,1,2,1:2:0:0:
401,207,93038,1,8,1:0:0:0:
401,207,93124,1,2,1:3:0:0:
306,152,93296,5,0,3:0:0:0:
372,300,93469,2,0,P|440:295|451:390,1,152.999995330811,8|0,1:0|0:0,0:0:0:0:
445,382,93814,6,0,P|437:356|446:319,1,50.9999984436036,2|0,1:0|0:0,0:0:0:0:
300,255,93986,2,0,L|220:271,1,50.9999984436036,2|0,0:0|0:0,0:0:0:0:
132,320,94158,6,0,B|224:296|191:379|323:364,1,170,8|2,0:0|0:0,0:0:0:0:
132,320,94676,1,0,3:0:0:0:
120,45,94848,2,0,B|141:84|141:84|127:147,1,85,8|0,0:0|0:0,0:0:0:0:
54,180,95107,5,0,0:0:0:0:
44,194,95193,2,0,L|156:210,1,85,2|0,0:1|0:0,0:0:0:0:
376,48,95538,2,0,L|240:68,1,127.5,8|0,0:0|1:0,0:0:0:0:
270,77,95883,5,2,0:0:0:0:
233,144,96055,1,0,3:0:0:0:
337,323,96227,5,8,1:0:0:0:
337,323,96314,2,0,P|363:270|411:275,1,101.999996887207,8|0,0:0|0:0,0:0:0:0:
400,269,96572,6,0,B|378:291|320:289|320:289|282:339|332:389,1,170,2|8,0:1|0:0,0:0:0:0:
493,328,97089,1,0,0:0:0:0:
493,328,97176,1,2,0:0:0:0:
493,328,97262,2,0,B|509:285|509:285|490:217,1,85,2|0,1:3|3:0,0:0:0:0:
355,192,97607,5,8,1:0:0:0:
453,87,97779,1,2,0:0:0:0:
462,168,97952,5,0,3:0:0:0:
300,108,98124,2,0,L|258:119,2,42.5,0|0|8,0:0|0:0|1:0,0:0:0:0:
62,47,98469,6,0,B|163:67|163:67|159:-15,1,170,0|0,0:0|3:0,0:0:0:0:
62,47,98986,1,8,1:0:0:0:
79,329,99245,5,2,0:0:0:0:
79,329,99331,2,0,B|152:370|247:296|170:235|150:295,1,170,2|8,0:1|0:0,0:0:0:0:
75,181,99848,2,0,L|67:227,2,42.5,2|0|0,0:0|0:0|0:0,0:0:0:0:
199,343,100193,1,0,3:0:0:0:
269,252,100365,2,0,L|367:265,1,85,8|0,1:0|0:0,0:0:0:0:
429,279,100624,5,0,0:0:0:0:
442,280,100710,2,0,B|461:242|461:242|446:190,1,85,2|0,0:0|0:0,0:0:0:0:
454,30,101055,2,0,P|374:23|392:97,1,170,8|2,1:0|0:1,0:0:0:0:
503,133,101572,1,0,3:0:0:0:
396,112,101745,2,0,P|334:67|253:91,1,127.5,8|0,1:0|0:0,0:0:0:0:
275,81,102089,5,2,0:1:0:0:
341,178,102262,1,0,0:0:0:0:
341,178,102348,1,0,0:0:0:0:
341,178,102434,1,8,0:0:0:0:
373,99,102607,5,0,0:0:0:0:
238,180,102779,2,0,P|191:186|146:204,1,85,2|0,0:0|3:0,0:0:0:0:
0,25,103124,6,0,P|66:30|146:76,1,152.999995330811,8|0,1:0|0:0,0:0:0:0:
153,61,103469,1,2,0:0:0:0:
40,126,103641,2,0,L|49:168,2,42.5,0|0|8,0:0|0:0|0:0,0:0:0:0:
160,326,103986,5,2,1:2:0:0:
210,384,104158,2,0,B|274:352|274:352|239:240,1,170,0|8,0:0|1:0,0:0:0:0:
251,246,104762,5,0,0:0:0:0:
251,246,104848,2,0,P|239:279|243:303,1,42.5,2|0,0:0|0:0,0:0:0:0:
61,361,105021,6,0,L|58:317,1,42.5
0,256,105193,2,0,B|84:233|73:307|166:293,1,170,8|2,0:0|0:2,0:0:0:0:
313,166,105710,1,0,0:0:0:0:
233,71,105883,2,0,B|211:111|211:111|222:160,1,85,8|0,0:0|0:2,0:0:0:0:
462,252,106227,6,0,B|417:277|346:273|346:273|395:301|396:336,1,203.999993774414,0|8,0:1|0:0,0:0:0:0:
462,252,106745,1,0,0:0:0:0:
312,343,106917,1,2,0:0:0:0:
410,164,107089,1,0,3:0:0:0:
410,164,107176,1,0,3:0:0:0:
410,164,107262,2,0,B|514:120|466:-3|372:27|423:79,1,203.999993774414,8|2,1:0|0:0,0:0:0:0:
412,64,107952,5,0,1:0:0:0:
320,111,108124,1,0,0:0:0:0:
252,82,108296,1,2,0:0:0:0:
231,95,108469,5,2,0:3:0:0:
151,159,108641,1,0,1:0:0:0:
223,192,108814,1,0,0:0:0:0:
146,320,108986,5,2,0:0:0:0:
206,381,109158,1,2,0:3:0:0:
215,296,109331,5,0,1:0:0:0:
129,356,109503,1,0,0:0:0:0:
30,301,109676,5,2,0:0:0:0:
89,258,109848,5,2,0:3:0:0:
193,221,110021,5,0,1:0:0:0:
360,266,110193,5,0,1:0:0:0:
360,266,110279,1,0,1:0:0:0:
360,266,110365,1,4,3:0:0:0:
