osu file format v14

[General]
AudioFilename: audio.mp3
AudioLeadIn: 0
PreviewTime: 96924
Countdown: 0
SampleSet: None
StackLeniency: 0.4
Mode: 0
LetterboxInBreaks: 0
WidescreenStoryboard: 1

[Editor]
DistanceSpacing: 0.7
BeatDivisor: 4
GridSize: 8
TimelineZoom: 1.9

[Metadata]
Title:Toxic
TitleUnicode:Toxic
Artist:Blowsight
ArtistUnicode:Blowsight
Creator:-Ploy-
Version:Pleasure (2020)
Source:
Tags:Blowsight Toxic Remastered deathstream stream Metal
BeatmapID:2346993
BeatmapSetID:624627

[Difficulty]
HPDrainRate:5
CircleSize:4.2
OverallDifficulty:8.6
ApproachRate:9.4
SliderMultiplier:1.4
SliderTickRate:1

[Events]
//Background and Video events
0,0,"ERIcrnpXkAE2AGe.jpg",0,0
//Break Periods
2,154758,156064
//Storyboard Layer 0 (Background)
//Storyboard Layer 1 (Fail)
//Storyboard Layer 2 (Pass)
//Storyboard Layer 3 (Foreground)
//Storyboard Layer 4 (Overlay)
//Storyboard Sound Samples

[TimingPoints]
7265,340.909090909091,4,2,0,40,1,0
14765,-76.9230769230769,4,2,0,40,0,0
15446,-71.4285714285714,4,2,0,60,0,0
15617,-71.4285714285714,4,2,0,5,0,0
15787,-71.4285714285714,4,2,0,60,0,0
15958,-71.4285714285714,4,2,0,5,0,0
16128,-66.6666666666667,4,2,0,60,0,0
16299,-66.6666666666667,4,2,0,5,0,0
16469,-66.6666666666667,4,2,0,60,0,0
16640,-66.6666666666667,4,2,0,5,0,0
16810,-62.5,4,2,0,60,0,0
17492,-55.5555555555556,4,2,0,60,0,0
18344,-62.5,4,2,0,5,0,0
18515,-62.5,4,2,0,60,0,0
22435,-62.5,4,2,0,5,0,0
22605,-62.5,4,2,0,60,0,0
23799,-62.5,4,2,0,5,0,0
23970,-62.5,4,2,0,60,0,0
25162,-62.5,4,2,0,5,0,0
25333,-62.5,4,2,0,60,0,0
26355,-133.333333333333,4,2,0,60,0,0
27634,-62.5,4,2,0,60,0,0
29083,-62.5,4,2,0,60,0,0
29594,-62.5,4,2,0,5,0,0
29765,-62.5,4,2,0,60,0,0
29935,-62.5,4,2,0,5,0,0
30106,-62.5,4,2,0,60,0,0
30958,-62.5,4,2,0,5,0,0
31129,-62.5,4,2,0,60,0,0
31299,-62.5,4,2,0,5,0,0
31470,-62.5,4,2,0,60,0,0
32321,-62.5,4,2,0,5,0,0
32492,-62.5,4,2,0,60,0,0
32662,-62.5,4,2,0,5,0,0
32833,-62.5,4,2,0,60,0,0
34026,-62.5,4,2,0,5,0,0
34197,-62.5,4,2,0,60,0,0
34537,-76.9230769230769,4,2,0,60,0,0
36071,-76.9230769230769,4,2,0,5,0,0
36242,-76.9230769230769,4,2,0,60,0,0
36412,-76.9230769230769,4,2,0,5,0,0
36583,-76.9230769230769,4,2,0,60,0,0
36753,-76.9230769230769,4,2,0,5,0,0
36924,-76.9230769230769,4,2,0,60,0,0
37350,-76.9230769230769,4,2,0,30,0,0
39310,-62.5,4,2,0,40,0,0
39566,-62.5,4,2,0,5,0,0
39651,-62.5,4,2,0,50,0,0
39992,-52.6315789473684,4,2,0,75,0,1
41270,-52.6315789473684,4,2,0,5,0,1
41355,-52.6315789473684,4,2,0,75,0,1
42975,-52.6315789473684,4,2,0,5,0,1
43060,-52.6315789473684,4,2,0,75,0,1
43316,-52.6315789473684,4,2,0,5,0,1
43401,-52.6315789473684,4,2,0,75,0,1
43657,-52.6315789473684,4,2,0,5,0,1
43742,-52.6315789473684,4,2,0,75,0,1
43997,-52.6315789473684,4,2,0,5,0,1
44082,-52.6315789473684,4,2,0,75,0,1
44765,-83.3333333333333,4,2,0,75,0,1
45020,-52.6315789473684,4,2,0,5,0,1
45105,-52.6315789473684,4,2,0,75,0,1
45361,-52.6315789473684,4,2,0,5,0,1
45446,-52.6315789473684,4,2,0,75,0,1
46128,-52.6315789473684,4,2,0,75,0,1
46469,-83.3333333333333,4,2,0,75,0,1
46725,-52.6315789473684,4,2,0,5,0,1
46810,-52.6315789473684,4,2,0,75,0,1
48429,-52.6315789473684,4,2,0,5,0,1
48514,-52.6315789473684,4,2,0,75,0,1
49111,-52.6315789473684,4,2,0,5,0,1
49196,-52.6315789473684,4,2,0,75,0,1
50560,-66.6666666666667,4,2,0,75,0,1
50816,-52.6315789473684,4,2,0,5,0,1
50901,-52.6315789473684,4,2,0,75,0,1
51157,-52.6315789473684,4,2,0,5,0,1
51242,-52.6315789473684,4,2,0,75,0,1
52179,-52.6315789473684,4,2,0,5,0,1
52264,-52.6315789473684,4,2,0,75,0,1
53628,-83.3333333333333,4,2,0,75,0,1
53884,-52.6315789473684,4,2,0,5,0,1
53969,-52.6315789473684,4,2,0,75,0,1
54225,-52.6315789473684,4,2,0,5,0,1
54310,-52.6315789473684,4,2,0,75,0,1
54566,-52.6315789473684,4,2,0,5,0,1
54651,-52.6315789473684,4,2,0,75,0,1
54907,-52.6315789473684,4,2,0,5,0,1
54992,-52.6315789473684,4,2,0,75,0,1
55674,-83.3333333333333,4,2,0,75,0,1
55930,-52.6315789473684,4,2,0,5,0,1
56015,-52.6315789473684,4,2,0,75,0,1
56270,-52.6315789473684,4,2,0,5,0,1
56355,-52.6315789473684,4,2,0,75,0,1
56611,-52.6315789473684,4,2,0,5,0,1
56696,-52.6315789473684,4,2,0,75,0,1
57634,-52.6315789473684,4,2,0,5,0,1
57719,-52.6315789473684,4,2,0,75,0,1
59338,-52.6315789473684,4,2,0,5,0,1
59423,-52.6315789473684,4,2,0,75,0,1
60020,-52.6315789473684,4,2,0,5,0,1
60105,-52.6315789473684,4,2,0,75,0,1
61469,-66.6666666666667,4,2,0,75,0,1
61725,-52.6315789473684,4,2,0,5,0,1
61810,-52.6315789473684,4,2,0,75,0,1
63855,-52.6315789473684,4,2,0,60,0,0
64537,-62.5,4,2,0,60,0,0
75446,-62.5,4,2,0,50,0,0
86355,-62.5,4,2,0,60,0,0
86866,-62.5,4,2,0,5,0,0
87037,-62.5,4,2,0,60,0,0
88571,-62.5,4,2,0,5,0,0
88742,-62.5,4,2,0,60,0,0
89593,-62.5,4,2,0,5,0,0
89764,-62.5,4,2,0,60,0,0
91298,-62.5,4,2,0,5,0,0
91469,-62.5,4,2,0,60,0,0
91809,-76.9230769230769,4,2,0,60,0,0
93343,-76.9230769230769,4,2,0,5,0,0
93514,-76.9230769230769,4,2,0,60,0,0
93684,-76.9230769230769,4,2,0,5,0,0
93855,-76.9230769230769,4,2,0,60,0,0
94025,-76.9230769230769,4,2,0,5,0,0
94196,-76.9230769230769,4,2,0,60,0,0
94878,-62.5,4,2,0,30,0,0
96583,-62.5,4,2,0,40,0,0
96839,-62.5,4,2,0,5,0,0
96924,-62.5,4,2,0,50,0,0
97265,-52.6315789473684,4,2,0,75,0,1
98543,-52.6315789473684,4,2,0,5,0,1
98628,-52.6315789473684,4,2,0,75,0,1
100248,-52.6315789473684,4,2,0,5,0,1
100333,-52.6315789473684,4,2,0,75,0,1
100589,-52.6315789473684,4,2,0,5,0,1
100674,-52.6315789473684,4,2,0,75,0,1
100930,-52.6315789473684,4,2,0,5,0,1
101015,-52.6315789473684,4,2,0,75,0,1
101270,-52.6315789473684,4,2,0,5,0,1
101355,-52.6315789473684,4,2,0,75,0,1
102037,-83.3333333333333,4,2,0,75,0,1
102293,-52.6315789473684,4,2,0,5,0,1
102378,-52.6315789473684,4,2,0,75,0,1
102634,-52.6315789473684,4,2,0,5,0,1
102719,-52.6315789473684,4,2,0,75,0,1
103401,-52.6315789473684,4,2,0,75,0,1
103742,-83.3333333333333,4,2,0,75,0,1
103998,-52.6315789473684,4,2,0,5,0,1
104083,-52.6315789473684,4,2,0,75,0,1
105702,-52.6315789473684,4,2,0,5,0,1
105787,-52.6315789473684,4,2,0,75,0,1
106384,-52.6315789473684,4,2,0,5,0,1
106469,-52.6315789473684,4,2,0,75,0,1
107833,-66.6666666666667,4,2,0,75,0,1
108089,-52.6315789473684,4,2,0,5,0,1
108174,-52.6315789473684,4,2,0,75,0,1
109452,-52.6315789473684,4,2,0,5,0,1
109537,-52.6315789473684,4,2,0,75,0,1
110901,-83.3333333333333,4,2,0,75,0,1
111157,-52.6315789473684,4,2,0,5,0,1
111242,-52.6315789473684,4,2,0,75,0,1
111498,-52.6315789473684,4,2,0,5,0,1
111583,-52.6315789473684,4,2,0,75,0,1
111839,-52.6315789473684,4,2,0,5,0,1
111924,-52.6315789473684,4,2,0,75,0,1
112180,-52.6315789473684,4,2,0,5,0,1
112265,-52.6315789473684,4,2,0,75,0,1
112946,-83.3333333333333,4,2,0,75,0,1
113203,-52.6315789473684,4,2,0,5,0,1
113287,-52.6315789473684,4,2,0,75,0,1
113543,-52.6315789473684,4,2,0,5,0,1
113628,-52.6315789473684,4,2,0,75,0,1
113884,-52.6315789473684,4,2,0,5,0,1
113969,-52.6315789473684,4,2,0,75,0,1
114907,-52.6315789473684,4,2,0,5,0,1
114992,-52.6315789473684,4,2,0,75,0,1
116611,-52.6315789473684,4,2,0,5,0,1
116696,-52.6315789473684,4,2,0,75,0,1
117293,-52.6315789473684,4,2,0,5,0,1
117378,-52.6315789473684,4,2,0,75,0,1
118742,-66.6666666666667,4,2,0,75,0,1
118998,-52.6315789473684,4,2,0,5,0,1
119083,-52.6315789473684,4,2,0,75,0,1
121128,-52.6315789473684,4,2,0,5,0,0
121810,-100,4,2,0,40,0,0
131355,-66.6666666666667,4,2,0,60,0,0
132208,-55.5555555555556,4,2,0,60,0,0
132378,-47.6190476190476,4,2,0,60,0,0
132549,-41.6666666666667,4,2,0,60,0,0
132719,-52.6315789473684,4,2,0,60,0,0
143649,340.909090909091,4,2,0,40,1,0
143649,-62.5,4,2,0,60,0,0
144160,-62.5,4,2,0,5,0,0
144331,-62.5,4,2,0,60,0,0
144501,-62.5,4,2,0,5,0,0
144672,-62.5,4,2,0,60,0,0
145524,-62.5,4,2,0,5,0,0
145695,-62.5,4,2,0,60,0,0
145865,-62.5,4,2,0,5,0,0
146036,-62.5,4,2,0,60,0,0
146887,-62.5,4,2,0,5,0,0
147058,-62.5,4,2,0,60,0,0
147228,-62.5,4,2,0,5,0,0
147399,-62.5,4,2,0,60,0,0
148592,-62.5,4,2,0,5,0,0
148763,-62.5,4,2,0,60,0,0
149103,-76.9230769230769,4,2,0,60,0,0
150637,-76.9230769230769,4,2,0,5,0,0
150808,-76.9230769230769,4,2,0,60,0,0
150978,-76.9230769230769,4,2,0,5,0,0
151149,-76.9230769230769,4,2,0,60,0,0
151319,-76.9230769230769,4,2,0,5,0,0
151490,-76.9230769230769,4,2,0,60,0,0
151916,-76.9230769230769,4,2,0,30,0,0
153194,-76.9230769230769,4,2,0,45,0,0
153876,-76.9230769230769,4,2,0,60,0,0
156604,-333.333333333333,4,2,0,60,0,0
157200,-333.333333333333,4,2,0,5,0,0
157286,-66.6666666666667,4,2,0,60,0,0
157541,-52.6315789473684,4,2,0,5,0,1
157626,-52.6315789473684,4,2,0,75,0,1
157882,-52.6315789473684,4,2,0,5,0,1
157967,-52.6315789473684,4,2,0,75,0,1
158223,-52.6315789473684,4,2,0,5,0,1
158308,-52.6315789473684,4,2,0,75,0,1
158563,-52.6315789473684,4,2,0,5,0,1
158648,-52.6315789473684,4,2,0,75,0,1
159331,-83.3333333333333,4,2,0,75,0,1
159586,-52.6315789473684,4,2,0,5,0,1
159671,-52.6315789473684,4,2,0,75,0,1
159927,-52.6315789473684,4,2,0,5,0,1
160012,-52.6315789473684,4,2,0,75,0,1
160694,-52.6315789473684,4,2,0,75,0,1
161035,-83.3333333333333,4,2,0,75,0,1
161291,-52.6315789473684,4,2,0,5,0,1
161376,-52.6315789473684,4,2,0,75,0,1
162995,-52.6315789473684,4,2,0,5,0,1
163080,-52.6315789473684,4,2,0,75,0,1
163677,-52.6315789473684,4,2,0,5,0,1
163762,-52.6315789473684,4,2,0,75,0,1
165126,-66.6666666666667,4,2,0,75,0,1
165382,-52.6315789473684,4,2,0,5,0,1
165467,-52.6315789473684,4,2,0,75,0,1
165723,-52.6315789473684,4,2,0,5,0,1
165808,-52.6315789473684,4,2,0,75,0,1
166745,-52.6315789473684,4,2,0,5,0,1
166830,-52.6315789473684,4,2,0,75,0,1
168195,-83.3333333333333,4,2,0,75,0,1
168450,-52.6315789473684,4,2,0,5,0,1
168536,-52.6315789473684,4,2,0,75,0,1
168791,-52.6315789473684,4,2,0,5,0,1
168876,-52.6315789473684,4,2,0,75,0,1
169132,-52.6315789473684,4,2,0,5,0,1
169217,-52.6315789473684,4,2,0,75,0,1
169473,-52.6315789473684,4,2,0,5,0,1
169558,-52.6315789473684,4,2,0,75,0,1
170240,-83.3333333333333,4,2,0,75,0,1
170496,-52.6315789473684,4,2,0,5,0,1
170581,-52.6315789473684,4,2,0,75,0,1
170836,-52.6315789473684,4,2,0,5,0,1
170921,-52.6315789473684,4,2,0,75,0,1
171177,-52.6315789473684,4,2,0,5,0,1
171262,-52.6315789473684,4,2,0,75,0,1
172200,-52.6315789473684,4,2,0,5,0,1
172285,-52.6315789473684,4,2,0,75,0,1
173904,-52.6315789473684,4,2,0,5,0,1
173989,-52.6315789473684,4,2,0,75,0,1
174586,-52.6315789473684,4,2,0,5,0,1
174671,-52.6315789473684,4,2,0,75,0,1
176376,-66.6666666666667,4,2,0,75,0,0
178422,-333.333333333333,4,2,0,60,0,0
179018,-333.333333333333,4,2,0,5,0,0
179104,-66.6666666666667,4,2,0,60,0,0

[Colours]
Combo1 : 223,0,112
Combo2 : 192,192,192
Combo3 : 0,128,192
Combo4 : 128,0,255

[HitObjects]
103,148,7265,6,0,B|167:180|167:180|228:149,1,140,4|0,0:0|0:0,0:0:0:0:
395,118,7776,1,0,0:0:0:0:
395,118,7946,2,0,L|388:187,1,70,8|0,0:0|0:0,0:0:0:0:
248,358,8287,1,0,0:0:0:0:
282,276,8458,1,0,0:0:0:0:
480,348,8628,6,0,L|410:341,1,70,8|0,0:0|0:0,0:0:0:0:
319,193,8969,2,0,L|388:186,1,70
186,285,9310,2,0,P|166:247|159:201,1,70,8|0,0:0|0:0,0:0:0:0:
214,82,9651,2,0,L|221:19,2,46.6666666666667,2|2|2,0:0|0:0|0:0,0:0:0:0:
116,158,9992,6,0,B|186:124|192:175|253:146,1,140,4|0,0:0|0:0,0:0:0:0:
412,92,10503,1,0,0:0:0:0:
412,92,10674,2,0,P|402:133|403:181,1,70,8|0,0:0|0:0,0:0:0:0:
451,313,11015,1,0,0:0:0:0:
377,240,11185,1,0,0:0:0:0:
158,266,11355,6,0,P|177:317|273:328,1,140,8|0,0:0|0:0,0:0:0:0:
145,179,11867,1,0,0:0:0:0:
145,179,12037,2,0,B|74:185,1,70,8|0,0:0|0:0,0:0:0:0:
231,269,12378,2,0,B|302:275,2,46.6666666666667,2|2|2,0:0|0:0|0:0,0:0:0:0:
157,315,12719,6,0,B|123:245|174:239|145:178,1,140,4|0,0:0|0:0,0:0:0:0:
225,81,13230,1,0,0:0:0:0:
225,81,13401,2,0,P|259:92|298:92,1,70,8|0,0:0|0:0,0:0:0:0:
512,140,13742,1,0,0:0:0:0:
428,61,13912,1,0,0:0:0:0:
390,184,14083,2,0,P|407:255|409:330,1,140,8|0,0:0|0:0,0:0:0:0:
171,317,14594,1,0,0:0:0:0:
171,317,14765,6,0,B|215:303|215:303|257:316,1,90.9999958343508,8|0,0:0|0:0,0:0:0:0:
168,176,15105,2,0,B|124:190|124:190|82:177,1,90.9999958343508
235,108,15446,6,0,P|261:154|241:238,1,130.666662679037,4|0,0:0|0:0,0:0:0:0:
311,322,15787,2,0,L|441:326,1,130.666662679037,2|0,0:0|0:0,0:0:0:0:
388,223,16128,6,0,L|248:227,1,140.000005340576,12|0,0:0|0:0,0:0:0:0:
171,317,16469,2,0,L|310:321,1,140.000005340576,2|0,0:0|0:0,0:0:0:0:
443,296,16810,5,12,0:0:0:0:
445,313,16895,1,0,0:0:0:0:
447,330,16980,1,0,0:0:0:0:
449,347,17066,1,0,0:0:0:0:
473,360,17151,5,0,0:0:0:0:
486,317,17236,1,0,0:0:0:0:
471,274,17321,1,0,0:0:0:0:
434,247,17407,1,0,0:0:0:0:
383,243,17492,1,8,0:0:0:0:
341,272,17577,1,0,0:0:0:0:
290,274,17662,1,0,0:0:0:0:
250,243,17747,1,0,0:0:0:0:
245,192,17833,6,0,L|253:122,1,62.9999980773926,2|0,0:0|0:0,0:0:0:0:
426,184,18003,2,0,L|434:254,1,62.9999980773926,2|0,0:0|0:0,0:0:0:0:
181,115,18174,6,0,P|230:60|320:102,1,167.999994873047,4|0,0:0|0:0,0:0:0:0:
364,135,18515,2,0,L|225:128,1,112
56,114,18855,1,8,0:0:0:0:
153,20,19026,1,2,0:0:0:0:
163,223,19196,1,0,0:0:0:0:
159,3,19367,1,2,0:0:0:0:
39,231,19537,6,0,L|150:236,1,112,8|0,0:0|0:0,0:0:0:0:
222,280,19793,1,0,0:0:0:0:
222,280,19878,1,2,0:0:0:0:
363,158,20049,1,0,0:0:0:0:
241,356,20219,6,0,P|186:349|150:309,1,112,8|0,0:0|0:0,0:0:0:0:
154,54,20560,1,2,0:0:0:0:
241,172,20730,1,0,0:0:0:0:
248,187,20816,1,0,0:0:0:0:
250,204,20901,5,12,0:0:0:0:
34,178,21071,1,2,0:0:0:0:
288,99,21242,1,2,0:0:0:0:
150,309,21412,1,0,0:0:0:0:
32,65,21583,2,0,L|143:70,1,112,8|2,0:0|0:0,0:0:0:0:
342,182,21924,2,0,L|231:187,1,112,0|2,0:0|0:0,0:0:0:0:
420,77,22265,6,0,B|382:146|440:157|407:221,1,149.333333333333,8|0,0:0|0:0,0:0:0:0:
368,292,22605,2,0,L|479:297,1,112,2|0,0:0|0:0,0:0:0:0:
257,112,22946,1,8,0:0:0:0:
217,343,23117,1,2,0:0:0:0:
254,95,23287,1,0,0:0:0:0:
368,292,23458,1,2,0:0:0:0:
31,129,23628,6,0,P|21:174|124:231,1,168,12|0,0:0|0:0,0:0:0:0:
205,160,23969,2,0,L|93:165,1,112,2|0,0:0|0:0,0:0:0:0:
285,82,24310,1,8,0:0:0:0:
185,294,24480,1,2,0:0:0:0:
93,164,24651,1,0,0:0:0:0:
326,172,24821,1,2,0:0:0:0:
337,178,24907,1,0,0:0:0:0:
348,183,24992,6,0,B|378:146|378:146|375:258,1,149.333333333333,8|0,0:0|0:0,0:0:0:0:
296,289,25333,2,0,L|184:294,1,112,2|2,0:0|0:0,0:0:0:0:
378,146,25674,1,8,0:0:0:0:
471,317,25844,1,0,0:0:0:0:
489,97,26015,1,2,0:0:0:0:
296,289,26185,1,0,0:0:0:0:
193,99,26355,6,0,L|188:168,1,52.5000020027161,12|0,0:0|0:0,0:0:0:0:
42,62,26696,2,0,L|47:131,1,52.5000020027161
274,62,27037,2,0,L|269:131,1,52.5000020027161
22,51,27378,2,0,L|27:120,1,52.5000020027161
112,280,27719,5,8,0:0:0:0:
148,253,27804,1,0,0:0:0:0:
193,248,27890,1,0,0:0:0:0:
235,263,27975,1,0,0:0:0:0:
262,298,28060,1,2,0:0:0:0:
301,318,28145,1,0,0:0:0:0:
345,314,28230,1,0,0:0:0:0:
379,284,28316,1,0,0:0:0:0:
399,244,28401,6,0,L|454:254,1,56,8|0,0:0|0:0,0:0:0:0:
326,104,28571,2,0,L|381:94,1,56,2|0,0:0|0:0,0:0:0:0:
235,263,28742,2,0,L|290:273,1,56,2|0,0:0|0:0,0:0:0:0:
163,83,28912,2,0,L|218:73,1,56,2|0,0:0|0:0,0:0:0:0:
157,237,29083,6,0,P|187:330|223:345,1,112,4|0,0:0|0:0,0:0:0:0:
398,258,29424,2,0,B|332:253|332:253|304:268|304:268|235:263,1,168,2|0,0:0|0:0,0:0:0:0:
157,237,29765,2,0,B|179:189|216:182|236:184|236:184|270:197|306:187,1,168,8|0,0:0|0:0,0:0:0:0:
274,115,30105,1,2,0:0:0:0:
455,333,30276,1,0,0:0:0:0:
416,168,30446,5,0,0:0:0:0:
243,354,30617,1,2,0:0:0:0:
7,191,30787,2,0,B|45:165|48:123|48:123|84:172|149:148,1,168,2|0,0:0|0:0,0:0:0:0:
214,130,31128,2,0,P|142:171|60:162,1,168,8|0,0:0|0:0,0:0:0:0:
38,93,31469,1,2,0:0:0:0:
296,207,31640,1,2,0:0:0:0:
48,283,31810,1,8,0:0:0:0:
239,359,31980,1,2,0:0:0:0:
382,127,32151,6,0,P|402:186|380:296,1,168,2|0,0:0|0:0,0:0:0:0:
309,322,32492,2,0,L|137:335,1,168,8|0,0:0|0:0,0:0:0:0:
48,283,32833,1,0,0:0:0:0:
78,163,33003,2,0,L|71:278,2,112
205,79,33515,2,0,P|271:96|340:89,1,112,2|0,0:0|0:0,0:0:0:0:
465,264,33855,2,0,P|399:248|293:281,1,168,8|0,0:0|0:0,0:0:0:0:
233,236,34196,1,2,0:0:0:0:
88,340,34367,1,2,0:0:0:0:
6,169,34537,6,0,B|79:176|79:176|112:162|112:162|207:173,1,181.999991668702,4|2,0:0|0:0,0:0:0:0:
184,170,35219,1,8,0:0:0:0:
323,63,35390,1,2,0:0:0:0:
391,304,35560,1,2,0:0:0:0:
391,304,35901,6,0,L|403:168,1,136.499993751526,8|0,0:0|0:0,0:0:0:0:
317,248,36242,2,0,L|329:112,1,136.499993751526,2|0,0:0|0:0,0:0:0:0:
243,192,36583,2,0,L|255:56,1,136.499993751526,8|0,0:0|0:0,0:0:0:0:
328,112,36924,2,0,P|377:122|423:115,1,90.9999958343508
490,206,37179,1,0,0:0:0:0:
490,206,37265,2,0,P|441:196|395:203,1,90.9999958343508,4|0,0:0|0:0,0:0:0:0:
220,290,37605,5,0,0:0:0:0:
220,290,37776,1,0,0:0:0:0:
325,190,37946,5,0,0:0:0:0:
370,313,38117,1,0,0:0:0:0:
318,176,38287,1,0,0:0:0:0:
378,329,38458,1,0,0:0:0:0:
136,104,38628,5,2,0:0:0:0:
78,303,38799,1,0,0:0:0:0:
141,90,38969,1,2,0:0:0:0:
71,321,39140,1,0,0:0:0:0:
414,213,39310,6,2,P|429:192|352:198,1,168,0|0,0:0|0:0,0:0:0:0:
395,288,39651,2,2,B|450:291,1,56,0|0,0:0|0:0,0:0:0:0:
273,147,39821,2,2,B|218:150,1,56,0|0,0:0|0:0,0:0:0:0:
71,321,39992,6,0,P|104:283|104:195,1,132.999996448517,4|0,0:0|0:0,0:0:0:0:
154,51,40333,1,10,0:0:0:0:
37,161,40503,1,0,0:0:0:0:
212,257,40674,1,0,0:0:0:0:
361,157,40844,1,0,0:0:0:0:
480,324,41015,2,0,L|280:310,1,199.499994672775,8|0,0:0|0:0,0:0:0:0:
212,257,41355,5,2,0:0:0:0:
99,132,41526,1,2,0:0:0:0:
18,286,41696,2,0,B|82:310|82:310|143:287,1,132.999996448517,8|0,0:0|0:0,0:0:0:0:
361,157,42037,2,0,B|390:140|390:140|364:198|393:246,1,132.999996448517
326,341,42378,1,8,0:0:0:0:
450,191,42549,1,0,0:0:0:0:
459,190,42634,1,0,0:0:0:0:
468,191,42719,6,0,P|477:107|365:52,1,199.499994672775,2|0,0:0|0:0,0:0:0:0:
338,0,43060,2,0,B|312:27|311:60|331:90|331:90|351:117|351:158|327:186,1,199.499994672775,8|0,0:0|0:0,0:0:0:0:
140,158,43401,2,0,B|189:188|224:152|259:152|259:152|244:198|275:240,1,199.499994672775,2|0,0:0|0:0,0:0:0:0:
355,286,43742,2,0,P|343:242|299:320,1,199.499994672775,8|0,0:0|0:0,0:0:0:0:
433,326,44083,6,0,L|439:256,1,66.4999982242585,2|0,0:0|0:0,0:0:0:0:
140,158,44253,2,0,L|145:224,1,66.4999982242585
198,348,44424,1,8,0:0:0:0:
354,101,44594,1,2,0:0:0:0:
65,152,44765,2,0,P|81:205|142:234,1,125.999996154785
228,195,45105,2,0,L|429:213,1,199.499994672775,12|0,0:0|0:0,0:0:0:0:
477,315,45446,6,2,L|341:303,1,132.999996448517,2|0,0:0|0:0,0:0:0:0:
140,158,45787,1,8,0:0:0:0:
8,319,45958,1,2,0:0:0:0:
21,92,46128,1,10,0:0:0:0:
153,355,46299,1,2,0:0:0:0:
291,54,46469,2,2,L|303:190,1,125.999996154785,8|0,0:0|0:0,0:0:0:0:
355,241,46810,5,2,0:0:0:0:
437,127,46980,1,0,0:0:0:0:
428,350,47151,1,8,0:0:0:0:
194,137,47321,1,2,0:0:0:0:
270,315,47492,1,0,0:0:0:0:
291,54,47662,1,0,0:0:0:0:
185,271,47833,2,0,L|116:265,1,66.4999982242585,8|0,0:0|0:0,0:0:0:0:
26,61,48003,2,0,L|95:55,1,66.4999982242585
226,168,48174,6,0,P|172:178|225:106,1,199.499994672775,4|0,0:0|0:0,0:0:0:0:
317,132,48515,2,0,L|455:146,1,132.999996448517,8|2,0:0|0:0,0:0:0:0:
77,50,48855,2,0,P|56:116|105:264,1,199.499994672775
100,315,49196,1,8,0:0:0:0:
226,168,49367,1,2,0:0:0:0:
361,324,49537,6,0,L|436:328,1,66.4999982242585
512,141,49708,2,0,L|445:144,1,66.4999982242585
285,281,49878,1,8,0:0:0:0:
388,90,50049,1,2,0:0:0:0:
427,327,50219,1,8,0:0:0:0:
269,66,50390,1,2,0:0:0:0:
55,322,50560,6,0,B|97:317|124:285|124:285|141:320|183:338,1,157.500006008148,8|0,0:0|0:0,0:0:0:0:
229,219,50901,2,0,P|144:233|182:310,1,199.499994672775,4|0,0:0|0:0,0:0:0:0:
258,348,51242,1,8,0:0:0:0:
393,98,51412,1,0,0:0:0:0:
485,276,51583,2,0,L|350:281,1,132.999996448517,2|0,0:0|0:0,0:0:0:0:
119,113,51924,2,0,L|322:127,1,199.499994672775,8|0,0:0|0:0,0:0:0:0:
393,98,52265,6,0,P|388:167|336:205,1,132.999996448517,2|0,0:0|0:0,0:0:0:0:
235,307,52605,1,8,0:0:0:0:
119,113,52776,1,0,0:0:0:0:
318,126,52946,1,2,0:0:0:0:
108,346,53117,1,2,0:0:0:0:
225,64,53287,1,8,0:0:0:0:
370,360,53458,1,0,0:0:0:0:
378,345,53543,1,0,0:0:0:0:
387,332,53628,6,2,L|394:199,1,125.999996154785,2|0,0:0|0:0,0:0:0:0:
318,126,53969,2,0,P|295:193|397:203,1,199.499994672775,8|0,0:0|0:0,0:0:0:0:
393,106,54310,2,0,P|300:104|269:192,1,199.499994672775,2|0,0:0|0:0,0:0:0:0:
147,161,54651,2,0,B|180:176|191:218|191:218|173:151|207:74,1,199.499994672775,8|0,0:0|0:0,0:0:0:0:
119,34,54992,6,0,P|85:27|51:29,1,66.4999982242585,2|0,0:0|0:0,0:0:0:0:
50,237,55162,2,0,P|83:237|115:231,1,66.4999982242585
281,67,55333,1,8,0:0:0:0:
397,315,55503,1,2,0:0:0:0:
501,176,55674,2,2,L|369:184,1,125.999996154785,0|0,0:0|0:0,0:0:0:0:
270,281,56015,2,0,L|469:268,1,199.499994672775,12|0,0:0|0:0,0:0:0:0:
375,183,56355,6,4,P|302:150|311:39,1,199.499994672775,0|0,0:0|0:0,0:0:0:0:
501,91,56696,2,0,L|369:99,1,132.999996448517,8|2,0:0|0:0,0:0:0:0:
159,50,57037,1,8,0:0:0:0:
387,12,57208,1,2,0:0:0:0:
234,299,57378,2,0,P|190:244|200:116,1,199.499994672775,8|0,0:0|0:0,0:0:0:0:
159,50,57719,5,2,0:0:0:0:
55,243,57890,1,0,0:0:0:0:
280,198,58060,1,8,0:0:0:0:
15,123,58230,1,2,0:0:0:0:
181,349,58401,1,8,0:0:0:0:
331,125,58571,1,2,0:0:0:0:
153,55,58742,2,0,L|148:129,1,66.4999982242585,8|0,0:0|0:0,0:0:0:0:
293,282,58912,2,0,L|288:215,1,66.4999982242585
87,180,59083,6,0,B|175:234|188:157|287:201,1,199.499994672775,4|0,0:0|0:0,0:0:0:0:
352,247,59424,2,0,P|296:282|232:272,1,132.999996448517,8|0,0:0|0:0,0:0:0:0:
455,102,59765,2,0,L|468:306,1,199.499994672775,2|0,0:0|0:0,0:0:0:0:
424,369,60105,1,8,0:0:0:0:
216,149,60276,1,2,0:0:0:0:
37,262,60446,6,0,L|172:271,1,132.999996448517,2|0,0:0|0:0,0:0:0:0:
409,99,60787,2,0,L|276:107,1,132.999996448517,8|0,0:0|0:0,0:0:0:0:
216,149,61043,1,0,0:0:0:0:
216,149,61128,1,0,0:0:0:0:
364,287,61299,1,0,0:0:0:0:
484,58,61469,2,0,P|491:123|421:186,1,157.500006008148,8|0,0:0|0:0,0:0:0:0:
352,158,61810,5,2,0:0:0:0:
267,355,61980,1,0,0:0:0:0:
281,84,62151,1,0,0:0:0:0:
394,327,62321,1,0,0:0:0:0:
126,197,62492,1,8,0:0:0:0:
352,158,62662,1,0,0:0:0:0:
140,330,62833,1,2,0:0:0:0:
142,60,63003,1,8,0:0:0:0:
267,355,63174,5,2,0:0:0:0:
398,57,63344,1,0,0:0:0:0:
44,119,63515,1,2,0:0:0:0:
441,316,63685,1,0,0:0:0:0:
240,19,63855,1,4,0:0:0:0:
240,19,64537,6,0,B|214:78|238:122|238:122|230:131|230:131|257:186|231:232,1,224,4|0,0:0|0:0,0:0:0:0:
304,74,65049,1,0,0:0:0:0:
168,184,65219,2,0,P|138:218|132:123,1,224,8|0,0:0|0:0,0:0:0:0:
171,306,65730,1,2,0:0:0:0:
353,268,65901,2,0,L|240:272,1,112,8|0,0:0|0:0,0:0:0:0:
424,305,66242,2,0,P|428:237|333:190,1,168,0|2,0:0|0:0,0:0:0:0:
273,197,66583,2,0,L|160:201,1,112,8|0,0:0|0:0,0:0:0:0:
428,42,66924,1,0,0:0:0:0:
426,58,67009,1,0,0:0:0:0:
424,74,67094,1,0,0:0:0:0:
422,90,67179,1,0,0:0:0:0:
420,109,67265,6,0,B|415:179|415:179|433:223|433:223|421:337,1,224,8|2,0:0|0:0,0:0:0:0:
500,166,67776,1,0,0:0:0:0:
267,274,67946,1,8,0:0:0:0:
421,328,68117,2,0,P|375:355|300:349,2,112,0|0|2,0:0|0:0|0:0,0:0:0:0:
150,172,68628,6,0,L|142:299,1,112,8|0,0:0|0:0,0:0:0:0:
281,76,68969,2,0,L|273:203,1,112,2|0,0:0|0:0,0:0:0:0:
383,328,69310,1,8,0:0:0:0:
493,280,69480,1,2,0:0:0:0:
384,140,69651,1,0,0:0:0:0:
274,188,69821,1,2,0:0:0:0:
168,370,69992,6,0,B|143:325|143:325|169:207|169:207|151:147,1,224,8|0,0:0|0:0,0:0:0:0:
226,312,70503,1,0,0:0:0:0:
79,128,70674,2,0,P|32:155|134:187,1,224,8|0,0:0|0:0,0:0:0:0:
239,111,71185,1,2,0:0:0:0:
415,151,71355,2,0,L|299:156,1,112,8|0,0:0|0:0,0:0:0:0:
461,86,71696,2,0,P|463:216|423:231,1,168
371,235,72037,2,0,L|255:240,1,112,8|0,0:0|0:0,0:0:0:0:
54,55,72378,1,2,0:0:0:0:
52,71,72463,1,0,0:0:0:0:
50,87,72548,1,0,0:0:0:0:
48,103,72633,1,0,0:0:0:0:
46,122,72719,6,0,P|96:117|50:214,1,224,8|0,0:0|0:0,0:0:0:0:
260,138,73230,1,2,0:0:0:0:
150,288,73401,2,0,P|98:303|28:299,1,112,8|0,0:0|0:0,0:0:0:0:
281,231,73742,2,0,P|336:229|390:244,1,112,2|0,0:0|0:0,0:0:0:0:
502,159,74083,5,8,0:0:0:0:
416,47,74253,1,0,0:0:0:0:
304,132,74424,1,2,0:0:0:0:
390,244,74594,1,0,0:0:0:0:
512,64,74765,5,8,0:0:0:0:
322,38,74935,1,2,0:0:0:0:
297,228,75105,1,2,0:0:0:0:
485,263,75276,1,2,0:0:0:0:
422,10,75446,6,0,P|353:54|352:137,1,168,12|0,0:0|0:0,0:0:0:0:
468,206,75787,2,0,B|384:165|383:233|300:192,1,168,2|0,0:0|0:0,0:0:0:0:
240,155,76128,1,8,0:0:0:0:
214,275,76299,2,0,P|219:205|220:144,2,112,0|0|2,0:0|0:0|0:0,0:0:0:0:
26,344,76810,6,0,P|76:317|136:319,1,112
334,269,77151,1,2,0:0:0:0:
334,269,77321,1,2,0:0:0:0:
435,346,77492,1,8,0:0:0:0:
497,157,77662,1,0,0:0:0:0:
333,269,77833,2,0,P|281:253|249:208,1,112,2|0,0:0|0:0,0:0:0:0:
184,155,78088,1,0,0:0:0:0:
184,155,78174,6,0,L|73:166,1,112,12|0,0:0|0:0,0:0:0:0:
327,191,78515,2,2,L|438:202,1,112,2|0,0:0|0:0,0:0:0:0:
153,239,78855,2,0,L|93:245,1,56,8|0,0:0|0:0,0:0:0:0:
11,286,79026,2,0,L|178:269,1,168,2|0,0:0|0:0,0:0:0:0:
258,253,79367,2,0,P|252:307|203:348,1,112,2|0,0:0|0:0,0:0:0:0:
99,146,79708,1,0,0:0:0:0:
99,146,79878,5,2,0:0:0:0:
180,41,80049,1,2,0:0:0:0:
258,253,80219,2,0,B|312:259|312:259|366:238|366:238|424:266|424:266|484:261,1,224,8|0,0:0|0:0,0:0:0:0:
226,167,80730,1,2,0:0:0:0:
203,174,80816,1,0,0:0:0:0:
189,188,80901,6,0,P|165:236|179:305,1,112,12|0,0:0|0:0,0:0:0:0:
446,332,81242,2,2,P|469:283|455:214,1,112,0|0,0:0|0:0,0:0:0:0:
348,83,81583,1,8,0:0:0:0:
189,188,81753,2,0,L|75:182,1,112,2|2,0:0|0:0,0:0:0:0:
359,70,82094,2,0,L|470:75,1,112
380,324,82435,5,0,0:0:0:0:
280,178,82605,1,2,0:0:0:0:
451,250,82776,1,2,0:0:0:0:
247,349,82946,2,0,P|220:293|229:238,1,112,8|0,0:0|0:0,0:0:0:0:
340,114,83287,1,0,0:0:0:0:
306,282,83458,1,0,0:0:0:0:
66,96,83628,6,0,L|47:296,1,168,8|0,0:0|0:0,0:0:0:0:
76,337,83969,1,2,0:0:0:0:
221,172,84140,1,0,0:0:0:0:
223,188,84225,1,0,0:0:0:0:
224,204,84310,1,8,0:0:0:0:
292,329,84480,1,2,0:0:0:0:
367,95,84651,1,0,0:0:0:0:
135,153,84821,1,2,0:0:0:0:
468,216,84992,5,8,0:0:0:0:
227,118,85162,1,2,0:0:0:0:
224,145,85247,1,0,0:0:0:0:
221,172,85332,1,2,0:0:0:0:
400,49,85503,1,2,0:0:0:0:
403,90,85588,1,0,0:0:0:0:
409,132,85673,1,8,0:0:0:0:
299,309,85844,1,0,0:0:0:0:
217,99,86015,1,12,0:0:0:0:
109,345,86185,1,0,0:0:0:0:
219,77,86355,6,0,L|330:86,1,112,12|0,0:0|0:0,0:0:0:0:
466,295,86696,2,0,L|289:309,1,168,2|0,0:0|0:0,0:0:0:0:
230,272,87037,1,8,0:0:0:0:
293,119,87208,1,2,0:0:0:0:
358,281,87378,1,0,0:0:0:0:
263,198,87549,1,2,0:0:0:0:
496,144,87719,6,0,P|491:197|442:235,1,112,8|0,0:0|0:0,0:0:0:0:
374,207,87975,1,0,0:0:0:0:
374,207,88060,2,0,L|263:198,1,112,2|2,0:0|0:0,0:0:0:0:
92,218,88401,2,0,B|145:233|156:195|184:204|184:204|189:243|221:263,1,168,8|0,0:0|0:0,0:0:0:0:
295,253,88742,1,2,0:0:0:0:
186,89,88912,1,2,0:0:0:0:
151,306,89083,5,8,0:0:0:0:
280,44,89253,1,2,0:0:0:0:
371,267,89424,2,0,P|342:314|235:301,1,168,2|0,0:0|0:0,0:0:0:0:
163,321,89765,2,0,L|45:327,1,112,8|2,0:0|0:0,0:0:0:0:
193,114,90105,2,0,L|304:119,1,112,0|2,0:0|0:0,0:0:0:0:
453,258,90446,5,8,0:0:0:0:
463,249,90532,1,0,0:0:0:0:
470,238,90617,1,2,0:0:0:0:
314,103,90787,1,2,0:0:0:0:
215,316,90958,1,2,0:0:0:0:
61,57,91128,2,0,B|62:117|62:117|48:152|48:152|49:224,1,168,8|0,0:0|0:0,0:0:0:0:
85,289,91469,1,0,0:0:0:0:
381,48,91640,1,2,0:0:0:0:
408,342,91810,6,0,P|441:285|444:156,1,181.999991668702,12|2,0:0|0:0,0:0:0:0:
448,171,92492,2,0,L|357:165,1,90.9999958343508,8|0,0:0|0:0,0:0:0:0:
252,299,92833,2,0,L|161:305,1,90.9999958343508,2|0,0:0|0:0,0:0:0:0:
58,95,93174,6,0,P|120:113|88:172,1,136.499993751526,8|0,0:0|0:0,0:0:0:0:
31,221,93515,2,0,P|81:208|163:233,1,136.499993751526,2|0,0:0|0:0,0:0:0:0:
222,288,93855,2,0,P|158:311|92:298,1,136.499993751526,8|0,0:0|0:0,0:0:0:0:
31,221,94196,2,0,L|42:122,1,90.9999958343508
138,80,94452,1,0,0:0:0:0:
138,80,94537,2,0,L|148:170,1,90.9999958343508,12|0,0:0|0:0,0:0:0:0:
222,288,94878,5,0,0:0:0:0:
222,288,95049,1,0,0:0:0:0:
371,114,95219,5,0,0:0:0:0:
432,282,95390,1,0,0:0:0:0:
441,86,95560,1,0,0:0:0:0:
361,314,95730,1,0,0:0:0:0:
183,73,95901,5,0,0:0:0:0:
103,292,96071,1,0,0:0:0:0:
107,44,96242,1,2,0:0:0:0:
180,337,96412,1,2,0:0:0:0:
405,172,96583,6,2,P|351:159|370:237,1,168,0|0,0:0|0:0,0:0:0:0:
457,274,96924,2,0,L|512:266,1,56,8|0,0:0|0:0,0:0:0:0:
414,78,97094,2,0,L|359:70,1,56
228,220,97265,6,0,P|157:235|81:222,1,132.999996448517,4|0,0:0|0:0,0:0:0:0:
270,92,97605,1,8,0:0:0:0:
331,307,97776,1,2,0:0:0:0:
426,180,97946,1,0,0:0:0:0:
154,144,98117,1,0,0:0:0:0:
250,341,98287,2,0,P|335:344|366:230,1,199.499994672775,8|0,0:0|0:0,0:0:0:0:
426,180,98628,5,2,0:0:0:0:
426,180,98799,1,2,0:0:0:0:
175,290,98969,2,0,L|37:278,1,132.999996448517,8|2,0:0|0:0,0:0:0:0:
231,54,99310,1,0,0:0:0:0:
276,193,99480,1,0,0:0:0:0:
102,120,99651,1,8,0:0:0:0:
406,78,99821,1,0,0:0:0:0:
417,90,99907,1,0,0:0:0:0:
424,104,99992,6,0,P|463:118|436:32,1,199.499994672775,2|0,0:0|0:0,0:0:0:0:
344,119,100333,2,0,P|414:186|512:183,1,199.499994672775,8|0,0:0|0:0,0:0:0:0:
459,73,100674,2,0,B|452:163|452:163|457:168|457:168|449:278,1,199.499994672775,2|0,0:0|0:0,0:0:0:0:
392,334,101015,2,0,P|308:291|184:318,1,199.499994672775,8|0,0:0|0:0,0:0:0:0:
104,274,101355,2,0,L|99:208,1,66.4999982242585,2|0,0:0|0:0,0:0:0:0:
299,65,101526,2,0,L|294:131,1,66.4999982242585
392,334,101696,1,8,0:0:0:0:
392,334,101867,1,2,0:0:0:0:
480,207,102037,6,0,P|421:176|350:185,1,125.999996154785
298,240,102378,2,0,L|91:225,1,199.499994672775,12|0,0:0|0:0,0:0:0:0:
61,128,102719,6,0,L|193:137,1,132.999996448517,2|0,0:0|0:0,0:0:0:0:
397,83,103060,1,8,0:0:0:0:
397,83,103230,1,2,0:0:0:0:
264,302,103401,1,8,0:0:0:0:
171,31,103571,1,2,0:0:0:0:
72,313,103742,2,0,P|113:336|194:341,1,125.999996154785,8|0,0:0|0:0,0:0:0:0:
264,302,104083,5,2,0:0:0:0:
375,102,104253,1,0,0:0:0:0:
439,264,104424,1,8,0:0:0:0:
186,115,104594,1,2,0:0:0:0:
454,41,104765,1,0,0:0:0:0:
352,356,104935,1,0,0:0:0:0:
264,155,105105,2,0,L|268:89,1,66.4999982242585,8|0,0:0|0:0,0:0:0:0:
467,31,105276,2,0,L|471:97,1,66.4999982242585
374,228,105446,2,0,P|341:199|430:188,1,199.499994672775,2|0,0:0|0:0,0:0:0:0:
438,287,105787,6,0,P|361:304|308:284,1,132.999996448517,12|0,0:0|0:0,0:0:0:0:
93,100,106128,2,0,P|62:193|94:286,1,199.499994672775,2|0,0:0|0:0,0:0:0:0:
162,347,106469,1,8,0:0:0:0:
162,347,106640,1,2,0:0:0:0:
156,156,106810,6,0,P|150:188|157:223,1,66.4999982242585,2|0,0:0|0:0,0:0:0:0:
306,330,106980,2,0,P|339:322|366:305,1,66.4999982242585
374,107,107151,2,0,P|350:82|322:66,1,66.4999982242585,8|0,0:0|0:0,0:0:0:0:
160,126,107321,1,0,0:0:0:0:
158,142,107407,1,0,0:0:0:0:
156,156,107492,1,2,0:0:0:0:
202,159,107577,1,0,0:0:0:0:
248,162,107662,1,0,0:0:0:0:
294,165,107747,1,0,0:0:0:0:
331,167,107833,2,0,P|371:129|296:100,1,157.500006008148,8|0,0:0|0:0,0:0:0:0:
238,50,108174,6,0,B|219:90|226:121|248:145|248:145|276:197|245:246,1,199.499994672775,6|0,0:0|0:0,0:0:0:0:
199,296,108515,1,8,0:0:0:0:
56,135,108685,1,0,0:0:0:0:
30,352,108855,1,2,0:0:0:0:
184,109,109026,1,2,0:0:0:0:
290,334,109196,2,0,P|389:347|437:251,1,199.499994672775,8|0,0:0|0:0,0:0:0:0:
421,203,109537,5,2,0:0:0:0:
421,203,109708,1,0,0:0:0:0:
228,50,109878,2,0,P|217:119|213:182,1,132.999996448517,8|0,0:0|0:0,0:0:0:0:
65,356,110219,1,2,0:0:0:0:
19,131,110390,1,2,0:0:0:0:
304,128,110560,1,8,0:0:0:0:
94,272,110730,1,0,0:0:0:0:
78,272,110816,1,0,0:0:0:0:
65,270,110901,6,0,B|43:210|43:210|21:268,1,125.999996154785,2|0,0:0|0:0,0:0:0:0:
65,356,111242,2,0,P|143:304|128:211,1,199.499994672775,8|0,0:0|0:0,0:0:0:0:
81,145,111583,2,0,B|46:175|46:175|208:171,1,199.499994672775,2|0,0:0|0:0,0:0:0:0:
345,89,111924,2,0,L|135:94,1,199.499994672775,8|0,0:0|0:0,0:0:0:0:
81,145,112265,6,0,P|81:177|85:211,1,66.4999982242585,2|0,0:0|0:0,0:0:0:0:
349,314,112435,2,0,P|352:281|353:247,1,66.4999982242585
270,53,112605,1,8,0:0:0:0:
147,344,112776,1,2,0:0:0:0:
118,206,112946,2,2,L|258:212,1,125.999996154785,0|0,0:0|0:0,0:0:0:0:
286,134,113287,2,0,L|86:125,1,199.499994672775,12|0,0:0|0:0,0:0:0:0:
16,88,113628,6,0,B|-16:179|75:176|39:292,1,199.499994672775,2|0,0:0|0:0,0:0:0:0:
127,337,113969,2,0,P|176:309|256:311,1,132.999996448517,8|0,0:0|0:0,0:0:0:0:
412,355,114310,1,8,0:0:0:0:
230,187,114480,1,2,0:0:0:0:
462,92,114651,2,0,B|457:187|457:187|463:192|463:192|458:293,1,199.499994672775,8|0,0:0|0:0,0:0:0:0:
412,355,114992,5,2,0:0:0:0:
311,130,115162,1,0,0:0:0:0:
229,319,115333,1,8,0:0:0:0:
462,92,115503,1,2,0:0:0:0:
140,103,115674,1,8,0:0:0:0:
316,363,115844,1,2,0:0:0:0:
456,192,116015,2,0,P|456:154|449:121,1,66.4999982242585,8|0,0:0|0:0,0:0:0:0:
245,37,116185,2,0,P|239:69|239:102,1,66.4999982242585
381,168,116355,6,0,B|291:141|271:206|186:166,1,199.499994672775,6|0,0:0|0:0,0:0:0:0:
106,147,116696,2,0,P|53:173|39:252,1,132.999996448517,8|0,0:0|0:0,0:0:0:0:
236,347,117037,2,0,L|447:329,1,199.499994672775,2|0,0:0|0:0,0:0:0:0:
490,281,117378,1,8,0:0:0:0:
342,71,117549,1,2,0:0:0:0:
168,251,117719,6,0,L|30:239,1,132.999996448517,2|0,0:0|0:0,0:0:0:0:
270,43,118060,2,0,L|407:31,1,132.999996448517,8|0,0:0|0:0,0:0:0:0:
474,68,118316,1,0,0:0:0:0:
474,68,118401,1,0,0:0:0:0:
318,313,118571,1,0,0:0:0:0:
96,88,118742,2,0,P|112:161|119:255,1,157.500006008148,8|0,0:0|0:0,0:0:0:0:
181,292,119083,5,2,0:0:0:0:
218,93,119253,1,0,0:0:0:0:
354,243,119424,1,2,0:0:0:0:
115,184,119594,1,0,0:0:0:0:
345,114,119765,1,8,0:0:0:0:
291,352,119935,1,0,0:0:0:0:
115,87,120105,1,2,0:0:0:0:
433,175,120276,1,8,0:0:0:0:
74,279,120446,1,4,0:0:0:0:
256,192,120532,12,0,121726,0:0:0:0:
107,104,121810,6,0,L|115:252,1,140,4|0,0:0|0:0,0:0:0:0:
266,315,122321,1,0,0:0:0:0:
128,125,122492,2,0,L|131:194,1,70,2|0,0:0|0:0,0:0:0:0:
281,299,122833,2,0,L|284:229,1,70
417,82,123174,5,2,0:0:0:0:
417,82,123344,1,0,0:0:0:0:
284,229,123515,2,0,L|214:232,1,70
347,78,123855,2,0,L|416:81,1,70,2|0,0:0|0:0,0:0:0:0:
70,145,124196,1,0,0:0:0:0:
68,120,124310,1,0,0:0:0:0:
67,96,124424,1,0,0:0:0:0:
139,64,124537,6,0,B|147:210,1,140,4|0,0:0|0:0,0:0:0:0:
272,275,125049,1,0,0:0:0:0:
118,90,125219,2,0,B|121:159,1,70,2|0,0:0|0:0,0:0:0:0:
286,261,125560,2,0,B|289:191,1,70
107,321,125901,5,2,0:0:0:0:
107,321,126071,1,0,0:0:0:0:
286,261,126242,2,0,B|355:264,1,70
121,159,126583,2,0,B|51:162,1,70,2|0,0:0|0:0,0:0:0:0:
312,80,126924,1,0,0:0:0:0:
314,105,127038,1,0,0:0:0:0:
315,129,127152,1,0,0:0:0:0:
390,161,127265,6,0,B|382:21,1,140,4|0,0:0|0:0,0:0:0:0:
241,190,127776,1,0,0:0:0:0:
409,94,127946,2,0,B|405:24,1,70,2|0,0:0|0:0,0:0:0:0:
229,204,128287,2,0,B|232:273,1,70
398,314,128628,5,2,0:0:0:0:
398,314,128799,1,0,0:0:0:0:
229,204,128969,2,0,B|159:207,1,70
409,94,129310,2,0,B|478:97,1,70,2|0,0:0|0:0,0:0:0:0:
229,204,129651,1,0,0:0:0:0:
227,179,129765,1,0,0:0:0:0:
226,155,129879,1,0,0:0:0:0:
151,123,129992,6,0,B|158:262,1,140,4|2,0:0|0:0,0:0:0:0:
327,337,130503,1,0,0:0:0:0:
132,154,130674,2,0,B|135:223,1,70,2|0,0:0|0:0,0:0:0:0:
343,346,131015,2,0,B|346:276,1,70,2|0,0:0|0:0,0:0:0:0:
67,201,131355,5,8,0:0:0:0:
112,176,131441,1,0,0:0:0:0:
169,173,131526,1,0,0:0:0:0:
216,185,131611,1,0,0:0:0:0:
276,225,131696,1,2,0:0:0:0:
351,239,131782,1,0,0:0:0:0:
413,202,131867,1,0,0:0:0:0:
423,128,131952,1,0,0:0:0:0:
375,67,132037,6,0,P|354:70|374:73,1,52.5000020027161,8|0,0:0|0:0,0:0:0:0:
276,225,132208,2,0,P|300:218|279:215,1,62.9999980773926,2|0,0:0|0:0,0:0:0:0:
174,39,132378,2,0,P|145:44|167:51,1,73.4999977569581,8|0,0:0|0:0,0:0:0:0:
74,289,132549,2,0,P|105:282|83:275,1,83.9999974365235,2|0,0:0|0:0,0:0:0:0:
25,163,132719,6,0,P|116:136|236:140,1,199.499994672775,12|0,0:0|0:0,0:0:0:0:
365,254,133060,2,0,P|252:256|171:224,1,199.499994672775,2|0,0:0|0:0,0:0:0:0:
114,136,133401,2,0,P|107:105|106:69,1,66.4999982242585,8|0,0:0|0:0,0:0:0:0:
236,252,133571,2,0,P|235:285|227:317,1,66.4999982242585
287,88,133742,2,0,P|315:73|349:62,1,66.4999982242585,2|0,0:0|0:0,0:0:0:0:
431,258,133912,1,2,0:0:0:0:
431,258,133997,1,0,0:0:0:0:
431,258,134083,6,0,L|358:253,1,66.4999982242585,12|0,0:0|0:0,0:0:0:0:
114,136,134253,2,0,L|187:131,1,66.4999982242585
137,341,134424,1,2,0:0:0:0:
134,321,134509,1,0,0:0:0:0:
132,301,134594,1,0,0:0:0:0:
130,281,134679,1,0,0:0:0:0:
128,260,134765,2,0,B|56:266,1,66.4999982242585,8|0,0:0|0:0,0:0:0:0:
257,71,134935,1,0,0:0:0:0:
293,41,135020,1,0,0:0:0:0:
338,32,135105,1,2,0:0:0:0:
382,47,135191,1,0,0:0:0:0:
418,75,135276,1,0,0:0:0:0:
435,118,135361,1,0,0:0:0:0:
440,163,135446,6,0,B|506:168,1,66.4999982242585,8|0,0:0|0:0,0:0:0:0:
341,285,135617,2,0,B|407:279,1,66.4999982242585
221,135,135787,2,0,B|287:140,1,66.4999982242585,2|0,0:0|0:0,0:0:0:0:
162,326,135958,2,0,B|228:320,1,66.4999982242585
46,77,136128,1,8,0:0:0:0:
42,123,136213,1,0,0:0:0:0:
38,169,136299,1,0,0:0:0:0:
35,215,136384,1,0,0:0:0:0:
82,277,136469,1,2,0:0:0:0:
119,250,136554,1,0,0:0:0:0:
165,247,136640,1,0,0:0:0:0:
209,259,136725,1,0,0:0:0:0:
249,282,136810,6,0,P|284:281|315:275,1,66.4999982242585,8|0,0:0|0:0,0:0:0:0:
457,218,136980,2,0,P|456:183|450:152,1,66.4999982242585
368,40,137151,2,0,P|333:41|302:47,1,66.4999982242585,2|0,0:0|0:0,0:0:0:0:
208,91,137321,1,0,0:0:0:0:
208,91,137407,1,0,0:0:0:0:
208,91,137492,1,8,0:0:0:0:
124,286,137662,1,2,0:0:0:0:
73,65,137833,1,2,0:0:0:0:
297,220,138003,1,2,0:0:0:0:
297,220,138088,1,0,0:0:0:0:
297,220,138174,6,0,P|330:218|369:198,1,66.4999982242585,4|0,0:0|0:0,0:0:0:0:
162,162,138344,2,0,P|131:149|87:150,1,66.4999982242585
314,137,138515,1,2,0:0:0:0:
333,121,138600,1,0,0:0:0:0:
346,103,138685,2,0,P|353:70|350:37,1,66.4999982242585
113,225,138855,1,8,0:0:0:0:
100,252,138941,1,0,0:0:0:0:
98,277,139026,2,0,P|102:309|124:347,1,66.4999982242585
189,88,139196,2,0,P|167:63|127:44,1,66.4999982242585,2|0,0:0|0:0,0:0:0:0:
292,289,139367,1,0,0:0:0:0:
360,312,139452,1,0,0:0:0:0:
432,303,139537,6,0,L|498:291,1,66.4999982242585,8|0,0:0|0:0,0:0:0:0:
178,236,139708,2,0,L|112:224,1,66.4999982242585
447,171,139878,2,0,L|513:159,1,66.4999982242585,2|0,0:0|0:0,0:0:0:0:
189,88,140049,2,0,L|123:76,1,66.4999982242585
365,0,140219,1,8,0:0:0:0:
428,37,140304,1,0,0:0:0:0:
457,101,140390,1,0,0:0:0:0:
447,171,140475,1,0,0:0:0:0:
390,221,140560,1,2,0:0:0:0:
389,234,140645,1,0,0:0:0:0:
389,247,140730,1,0,0:0:0:0:
388,260,140816,1,0,0:0:0:0:
435,321,140901,6,2,P|477:283|386:264,1,199.499994672775,8|0,0:0|0:0,0:0:0:0:
459,323,141242,2,2,P|476:242|385:243,1,199.499994672775,0|0,0:0|0:0,0:0:0:0:
257,248,141583,6,2,P|215:210|306:191,1,199.499994672775,2|0,0:0|0:0,0:0:0:0:
233,250,141924,2,2,P|216:169|307:170,1,199.499994672775,0|0,0:0|0:0,0:0:0:0:
303,320,142265,2,0,P|269:330|233:328,1,66.4999982242585,12|0,0:0|0:0,0:0:0:0:
50,259,142435,2,2,B|20:188|129:149|170:239|73:359,1,265.999992897034,0|0,0:0|0:0,0:0:0:0:
216,74,142946,2,0,P|289:71|347:97,1,132.999996448517,2|0,0:0|0:0,0:0:0:0:
177,238,143287,2,0,P|115:262|49:258,1,132.999996448517,2|0,0:0|0:0,0:0:0:0:
343,94,143649,6,0,P|334:150|336:205,1,112,8|0,0:0|0:0,0:0:0:0:
446,322,143990,2,0,B|409:298|408:252|408:252|382:293|331:290,1,168,2|0,0:0|0:0,0:0:0:0:
339,187,144331,2,0,P|383:201|315:251,1,168,8|0,0:0|0:0,0:0:0:0:
247,246,144672,2,0,P|190:246|126:253,1,112,2|2,0:0|0:0,0:0:0:0:
0,150,145013,5,0,0:0:0:0:
143,38,145183,1,0,0:0:0:0:
247,246,145354,2,0,L|418:254,1,168,2|0,0:0|0:0,0:0:0:0:
467,173,145695,2,0,L|299:164,1,168,8|0,0:0|0:0,0:0:0:0:
228,127,146036,1,2,0:0:0:0:
302,336,146206,1,2,0:0:0:0:
382,138,146376,5,8,0:0:0:0:
161,251,146547,1,2,0:0:0:0:
456,334,146717,2,0,P|480:254|464:167,1,168,2|0,0:0|0:0,0:0:0:0:
337,128,147058,2,0,B|383:140|392:184|392:184|385:139|424:110,1,168,8|0,0:0|0:0,0:0:0:0:
503,105,147399,1,2,0:0:0:0:
503,105,147570,1,2,0:0:0:0:
378,296,147740,5,8,0:0:0:0:
220,107,147911,1,0,0:0:0:0:
113,261,148081,2,0,P|35:280|-25:281,1,112,2|0,0:0|0:0,0:0:0:0:
220,107,148422,2,0,P|292:125|388:100,1,168,8|0,0:0|0:0,0:0:0:0:
449,67,148763,1,2,0:0:0:0:
369,328,148933,1,2,0:0:0:0:
210,233,149104,6,0,P|120:228|46:278,1,181.999991668702,12|2,0:0|0:0,0:0:0:0:
46,278,149786,1,8,0:0:0:0:
319,93,149956,1,2,0:0:0:0:
405,332,150126,1,2,0:0:0:0:
405,332,150467,6,0,P|411:247|427:198,1,136.499993751526,2|0,0:0|0:0,0:0:0:0:
386,120,150808,2,0,P|336:163|272:149,1,136.499993751526
358,53,151149,2,0,P|401:102|376:162,1,136.499993751526,8|0,0:0|0:0,0:0:0:0:
309,209,151490,2,0,L|219:203,1,90.9999958343508
144,290,151746,1,0,0:0:0:0:
144,290,151831,2,0,L|233:284,1,90.9999958343508,4|0,0:0|0:0,0:0:0:0:
386,120,152172,5,0,0:0:0:0:
386,120,152342,1,0,0:0:0:0:
498,99,152513,5,0,0:0:0:0:
423,320,152683,1,0,0:0:0:0:
498,99,152854,1,0,0:0:0:0:
423,320,153024,1,0,0:0:0:0:
311,31,153195,5,0,0:0:0:0:
294,286,153365,1,0,0:0:0:0:
311,31,153536,1,0,0:0:0:0:
294,286,153706,1,0,0:0:0:0:
116,39,153876,5,0,0:0:0:0:
169,345,154047,1,0,0:0:0:0:
116,39,154217,1,0,0:0:0:0:
169,345,154388,1,0,0:0:0:0:
251,150,154558,5,4,0:0:0:0:
235,145,156604,6,2,L|240:222,1,73.4999977569581,4|0,0:0|0:0,0:0:0:0:
239,217,157286,6,0,P|303:175|379:187,1,157.500006008148,4|0,0:0|0:0,0:0:0:0:
343,292,157626,2,0,P|283:279|346:207,1,199.499994672775,8|0,0:0|0:0,0:0:0:0:
426,257,157967,2,0,B|458:295|458:295|464:136,1,199.499994672775,2|0,0:0|0:0,0:0:0:0:
392,67,158308,2,0,B|309:48|306:128|198:123,1,199.499994672775,8|0,0:0|0:0,0:0:0:0:
76,76,158649,6,0,P|104:152|105:218,1,132.999996448517,2|0,0:0|0:0,0:0:0:0:
196,342,158990,1,8,0:0:0:0:
369,142,159161,1,2,0:0:0:0:
471,311,159331,2,0,P|418:283|415:221,1,125.999996154785,2|0,0:0|0:0,0:0:0:0:
369,142,159672,2,0,L|167:149,1,199.499994672775,12|0,0:0|0:0,0:0:0:0:
42,314,160013,6,0,L|174:318,1,132.999996448517,2|0,0:0|0:0,0:0:0:0:
411,338,160354,1,8,0:0:0:0:
292,114,160524,1,2,0:0:0:0:
174,318,160695,1,8,0:0:0:0:
462,168,160865,1,2,0:0:0:0:
184,53,161036,2,0,P|170:113|183:174,1,125.999996154785,8|0,0:0|0:0,0:0:0:0:
242,232,161376,5,2,0:0:0:0:
242,232,161547,1,0,0:0:0:0:
376,90,161717,1,8,0:0:0:0:
348,344,161888,1,2,0:0:0:0:
235,92,162058,1,8,0:0:0:0:
475,202,162229,1,2,0:0:0:0:
188,346,162399,2,0,P|153:348|121:340,1,66.4999982242585,8|0,0:0|0:0,0:0:0:0:
122,172,162570,2,0,P|154:164|187:167,1,66.4999982242585
330,274,162740,6,0,P|248:283|287:210,1,199.499994672775,6|0,0:0|0:0,0:0:0:0:
366,159,163081,2,0,B|427:136|427:136|354:109,1,132.999996448517,8|2,0:0|0:0,0:0:0:0:
187,167,163422,2,0,P|151:257|191:353,1,199.499994672775,2|0,0:0|0:0,0:0:0:0:
270,380,163763,1,8,0:0:0:0:
270,380,163933,1,2,0:0:0:0:
398,216,164104,6,0,P|385:185|365:158,1,66.4999982242585,2|0,0:0|0:0,0:0:0:0:
166,67,164274,2,0,P|145:93|132:123,1,66.4999982242585
143,325,164445,2,0,P|175:329|208:325,1,66.4999982242585,8|0,0:0|0:0,0:0:0:0:
398,216,164615,1,0,0:0:0:0:
398,216,164700,1,0,0:0:0:0:
398,216,164786,1,2,0:0:0:0:
409,177,164871,1,0,0:0:0:0:
421,139,164956,1,0,0:0:0:0:
433,101,165041,1,0,0:0:0:0:
443,63,165126,2,0,B|458:40|484:37|506:38|540:75|497:138,1,157.500006008148,8|0,0:0|0:0,0:0:0:0:
409,177,165467,6,0,L|202:182,1,199.499994672775,4|0,0:0|0:0,0:0:0:0:
138,155,165808,1,8,0:0:0:0:
229,344,165979,1,0,0:0:0:0:
469,110,166149,2,0,P|494:172|467:247,1,132.999996448517,2|0,0:0|0:0,0:0:0:0:
219,267,166490,2,0,P|172:175|216:89,1,199.499994672775,8|0,0:0|0:0,0:0:0:0:
278,58,166831,5,2,0:0:0:0:
278,58,167001,1,0,0:0:0:0:
414,261,167172,1,8,0:0:0:0:
463,133,167342,1,0,0:0:0:0:
164,200,167513,1,2,0:0:0:0:
259,336,167683,1,0,0:0:0:0:
280,70,167854,1,8,0:0:0:0:
95,260,168024,1,0,0:0:0:0:
82,258,168109,1,0,0:0:0:0:
71,251,168195,6,0,P|66:208|134:198,1,125.999996154785,2|0,0:0|0:0,0:0:0:0:
131,281,168536,2,0,P|73:273|102:168,1,199.499994672775,8|0,0:0|0:0,0:0:0:0:
182,135,168876,2,0,B|231:152|231:152|325:136|325:136|376:150,1,199.499994672775,2|0,0:0|0:0,0:0:0:0:
392,171,169217,2,0,B|341:157|341:157|247:173|247:173|198:156,1,199.499994672775,8|0,0:0|0:0,0:0:0:0:
101,168,169558,6,0,P|95:203|94:234,1,66.4999982242585
338,328,169729,2,0,P|336:294|330:262,1,66.4999982242585
250,63,169899,1,8,0:0:0:0:
250,63,170070,1,2,0:0:0:0:
64,305,170240,2,0,B|138:293|135:356|211:348,1,125.999996154785,2|0,0:0|0:0,0:0:0:0:
227,268,170581,2,0,P|168:245|192:333,1,199.499994672775,12|0,0:0|0:0,0:0:0:0:
293,359,170922,6,0,P|321:264|288:172,1,199.499994672775,2|0,0:0|0:0,0:0:0:0:
205,136,171263,2,0,L|68:145,1,132.999996448517,8|0,0:0|0:0,0:0:0:0:
278,75,171604,1,0,0:0:0:0:
412,262,171774,1,2,0:0:0:0:
454,78,171945,2,0,B|349:74|380:163|288:172,1,199.499994672775,8|0,0:0|0:0,0:0:0:0:
205,136,172286,5,2,0:0:0:0:
130,316,172456,1,0,0:0:0:0:
52,93,172626,1,8,0:0:0:0:
254,333,172797,1,2,0:0:0:0:
140,45,172967,1,8,0:0:0:0:
26,354,173138,1,2,0:0:0:0:
288,171,173308,2,0,P|295:132|297:104,1,66.4999982242585,8|0,0:0|0:0,0:0:0:0:
64,109,173479,2,0,P|66:142|72:174,1,66.4999982242585
147,315,173649,6,0,P|208:282|341:288,1,199.499994672775,6|0,0:0|0:0,0:0:0:0:
418,337,173990,2,0,L|427:201,1,132.999996448517,8|0,0:0|0:0,0:0:0:0:
348,86,174331,2,0,L|334:288,1,199.499994672775,2|0,0:0|0:0,0:0:0:0:
291,349,174672,1,8,0:0:0:0:
124,174,174843,1,0,0:0:0:0:
348,86,175013,6,0,P|419:88|482:108,1,132.999996448517,2|0,0:0|0:0,0:0:0:0:
203,266,175354,2,0,P|139:284|73:286,1,132.999996448517,8|0,0:0|0:0,0:0:0:0:
8,243,175610,1,0,0:0:0:0:
8,243,175695,1,0,0:0:0:0:
113,92,175865,1,0,0:0:0:0:
252,342,176036,2,0,P|315:323|381:321,1,132.999996448517,8|0,0:0|0:0,0:0:0:0:
377,85,176376,5,2,0:0:0:0:
195,79,176547,1,0,0:0:0:0:
438,168,176717,1,2,0:0:0:0:
133,148,176888,1,0,0:0:0:0:
329,329,177058,5,10,0:0:0:0:
377,85,177229,1,0,0:0:0:0:
240,357,177399,1,2,0:0:0:0:
300,38,177570,1,8,0:0:0:0:
74,211,177740,5,2,0:0:0:0:
409,282,177911,1,0,0:0:0:0:
51,126,178081,1,2,0:0:0:0:
463,215,178251,1,0,0:0:0:0:
72,304,178422,6,0,L|62:230,1,73.4999977569581,8|0,0:0|0:0,0:0:0:0:
74,211,179104,5,4,0:0:0:0:
