osu file format v14

[General]
AudioFilename: audio.ogg
AudioLeadIn: 0
PreviewTime: 171220
Countdown: 0
SampleSet: Normal
StackLeniency: 0.7
Mode: 1
LetterboxInBreaks: 0
WidescreenStoryboard: 1

[Editor]
DistanceSpacing: 1.2
BeatDivisor: 4
GridSize: 32
TimelineZoom: 2.999999

[Metadata]
Title:Dana Dan
TitleUnicode:Dana Dan
Artist:Bloodywood
ArtistUnicode:Bloodywood
Creator:Caelan
Version:Daanav
Source:
Tags:Indian Folk Nu-Metal Nu Metal Rap Metalcore Breakdown Trap English Hindi Rakshak Protector Stop Abusing People
BeatmapID:3757954
BeatmapSetID:1830768

[Difficulty]
HPDrainRate:5
CircleSize:4
OverallDifficulty:5
ApproachRate:9
SliderMultiplier:1.4
SliderTickRate:3

[Events]
//Background and Video events
0,0,"Ganesh blue metal indian elephant.jpg",0,90
//Break Periods
//Storyboard Layer 0 (Background)
//Storyboard Layer 1 (Fail)
//Storyboard Layer 2 (Pass)
//Storyboard Layer 3 (Foreground)
//Storyboard Layer 4 (Overlay)
//Storyboard Sound Samples

[TimingPoints]
18350,375,4,1,0,100,1,0
18350,-90.9090909090909,4,1,0,90,0,0
29975,-92.5925925925926,4,1,0,90,0,0
30100,-94.3396226415094,4,1,0,90,0,0
30225,-96.1538461538461,4,1,0,90,0,0
30350,-98.0392156862745,4,1,0,60,0,0
30725,-117.647058823529,4,1,0,60,0,0
33350,-105.263157894737,4,1,0,80,0,0
41693,-104.166666666667,4,1,0,81,0,0
41787,-102.040816326531,4,1,0,82,0,0
41881,-100,4,1,0,83,0,0
41975,-98.0392156862745,4,1,0,84,0,0
42068,-96.1538461538461,4,1,0,85,0,0
42162,-94.3396226415094,4,1,0,86,0,0
42256,-92.5925925925926,4,1,0,88,0,0
42350,-90.9090909090909,4,1,0,90,0,0
54350,-84.7457627118644,4,1,0,95,0,1
59693,-85.4700854700855,4,1,0,95,0,1
59787,-86.2068965517241,4,1,0,95,0,1
59881,-86.9565217391304,4,1,0,95,0,1
59975,-87.719298245614,4,1,0,95,0,1
60068,-88.4955752212389,4,1,0,95,0,1
60162,-89.2857142857143,4,1,0,95,0,1
60256,-90.0900900900901,4,1,0,95,0,1
60350,-90.9090909090909,4,1,0,95,0,0
65037,-88.4955752212389,4,1,0,95,0,0
65225,-86.2068965517241,4,1,0,95,0,0
65412,-84.0336134453781,4,1,0,95,0,0
65600,-81.9672131147541,4,1,0,95,0,0
65787,-80,4,1,0,95,0,0
65975,-78.125,4,1,0,95,0,0
66162,-76.3358778625954,4,1,0,95,0,0
66350,-74.0740740740741,4,1,0,100,0,1
78475,-75.7575757575758,4,1,0,97,0,1
78600,-76.9230769230769,4,1,0,95,0,1
78725,-78.125,4,1,0,93,0,1
78850,-79.3650793650794,4,1,0,91,0,1
78975,-80.6451612903226,4,1,0,89,0,1
79100,-81.9672131147541,4,1,0,87,0,1
79225,-83.3333333333333,4,1,0,85,0,1
79350,-84.7457627118644,4,1,0,85,0,1
90350,-84.7457627118644,4,1,0,85,0,0
97912,-84.0336134453781,4,1,0,85,0,0
97975,-83.3333333333333,4,1,0,85,0,0
98037,-82.6446280991736,4,1,0,85,0,0
98100,-81.9672131147541,4,1,0,85,0,0
98162,-81.3008130081301,4,1,0,85,0,0
98225,-80.6451612903226,4,1,0,85,0,0
98287,-80,4,1,0,85,0,0
98350,-79.3650793650794,4,1,0,85,0,0
98412,-78.7401574803149,4,1,0,85,0,0
98475,-78.125,4,1,0,85,0,0
98537,-77.5193798449612,4,1,0,85,0,0
98600,-76.9230769230769,4,1,0,85,0,0
99350,-74.0740740740741,4,1,0,90,0,0
99600,-76.3358778625954,4,1,0,90,0,0
99725,-78.7401574803149,4,1,0,90,0,0
99850,-80,4,1,0,90,0,0
100100,-84.7457627118644,4,1,0,90,0,0
100350,-90.9090909090909,4,1,0,90,0,0
110975,-92.5925925925926,4,1,0,90,0,0
111100,-94.3396226415094,4,1,0,90,0,0
111225,-96.1538461538461,4,1,0,90,0,0
111350,-98.0392156862745,4,1,0,60,0,0
111725,-117.647058823529,4,1,0,60,0,0
114350,-105.263157894737,4,1,0,80,0,0
122693,-104.166666666667,4,1,0,80,0,0
122787,-102.040816326531,4,1,0,80,0,0
122881,-100,4,1,0,80,0,0
122975,-98.0392156862745,4,1,0,80,0,0
123068,-96.1538461538461,4,1,0,80,0,0
123162,-94.3396226415094,4,1,0,80,0,0
123256,-92.5925925925926,4,1,0,80,0,0
123350,-90.9090909090909,4,1,0,80,0,0
135350,-125.39184952978,4,1,0,60,0,0
147350,-84.7457627118644,4,1,0,95,0,1
152693,-85.4700854700855,4,1,0,95,0,1
152787,-86.2068965517241,4,1,0,95,0,1
152881,-86.9565217391304,4,1,0,95,0,1
152975,-87.719298245614,4,1,0,95,0,1
153068,-88.4955752212389,4,1,0,95,0,1
153162,-89.2857142857143,4,1,0,95,0,1
153256,-90.0900900900901,4,1,0,95,0,1
153350,-90.9090909090909,4,1,0,95,0,0
158037,-88.4955752212389,4,1,0,95,0,0
158225,-86.2068965517241,4,1,0,95,0,0
158412,-84.0336134453781,4,1,0,95,0,0
158600,-81.9672131147541,4,1,0,95,0,0
158787,-80,4,1,0,95,0,0
158975,-78.125,4,1,0,95,0,0
159162,-76.3358778625954,4,1,0,95,0,0
159350,-74.0740740740741,4,1,0,100,0,1
171475,-75.7575757575758,4,1,0,85,0,1
171600,-76.9230769230769,4,1,0,85,0,1
171725,-78.125,4,1,0,85,0,1
171850,-79.3650793650794,4,1,0,85,0,1
171975,-80.6451612903226,4,1,0,85,0,1
172100,-81.9672131147541,4,1,0,85,0,1
172225,-83.3333333333333,4,1,0,85,0,1
172350,-84.7457627118644,4,1,0,85,0,1
183350,-84.7457627118644,4,1,0,85,0,0
190912,-84.0336134453781,4,1,0,85,0,0
190975,-83.3333333333333,4,1,0,85,0,0
191037,-82.6446280991736,4,1,0,85,0,0
191100,-81.9672131147541,4,1,0,85,0,0
191162,-81.3008130081301,4,1,0,85,0,0
191225,-80.6451612903226,4,1,0,85,0,0
191287,-80,4,1,0,85,0,0
191350,-79.3650793650794,4,1,0,85,0,0
191412,-78.7401574803149,4,1,0,85,0,0
191475,-78.125,4,1,0,85,0,0
191537,-77.5193798449612,4,1,0,85,0,0
191600,-76.9230769230769,4,1,0,90,0,0
192350,-74.0740740740741,4,1,0,100,0,1
203725,-75.187969924812,4,1,0,100,0,1
203850,-76.9230769230769,4,1,0,100,0,1
203975,-78.7401574803149,4,1,0,100,0,1
204100,-80.6451612903226,4,1,0,100,0,1
204225,-82.6446280991736,4,1,0,100,0,1
204350,-84.7457627118644,4,1,0,100,0,0
221725,-83.3333333333333,4,1,0,100,0,0
221850,-81.9672131147541,4,1,0,100,0,0
221975,-80.6451612903226,4,1,0,100,0,0
222100,-79.3650793650794,4,1,0,100,0,0
222225,-78.125,4,1,0,100,0,0
222350,-76.9230769230769,4,1,0,100,0,0
227100,-77.5193798449612,4,1,0,100,0,0
227225,-78.125,4,1,0,100,0,0
227350,-79.3650793650794,4,1,0,100,0,0
227475,-80.6451612903226,4,1,0,100,0,0
227600,-81.9672131147541,4,1,0,100,0,0
227725,-83.3333333333333,4,1,0,100,0,0
227850,-85.4700854700855,4,1,0,100,0,0
227975,-87.719298245614,4,1,0,100,0,0
228100,-90.0900900900901,4,1,0,100,0,0
228225,-92.5925925925926,4,1,0,100,0,0
228350,-95.2380952380952,4,1,0,70,0,0
228537,-105.263157894737,4,1,0,60,0,0
228725,-106.382978723404,4,1,0,60,0,0
228912,-107.52688172043,4,1,0,60,0,0
229100,-108.695652173913,4,1,0,60,0,0
229287,-109.89010989011,4,1,0,60,0,0
229475,-111.111111111111,4,1,0,60,0,0
229662,-112.359550561798,4,1,0,60,0,0
229850,-113.636363636364,4,1,0,60,0,0
230037,-114.942528735632,4,1,0,60,0,0
230225,-116.279069767442,4,1,0,60,0,0
230412,-117.647058823529,4,1,0,60,0,0
230600,-119.047619047619,4,1,0,60,0,0
230787,-120.481927710843,4,1,0,60,0,0
230975,-121.951219512195,4,1,0,60,0,0
231162,-123.456790123457,4,1,0,60,0,0
231350,-125,4,1,0,60,0,0
240350,-111.111111111111,4,1,0,60,0,0
252350,-100,4,1,0,80,0,1
273350,-100,4,1,0,80,0,1
273537,-100,4,1,0,80,0,1
273725,-102.040816326531,4,1,0,80,0,1
273912,-103.092783505155,4,1,0,80,0,1
274100,-104.166666666667,4,1,0,80,0,1
274287,-105.263157894737,4,1,0,80,0,1
274475,-105.263157894737,4,1,0,80,0,1
274662,-107.52688172043,4,1,0,80,0,1
274850,-109.89010989011,4,1,0,80,0,1
275037,-113.636363636364,4,1,0,80,0,1
275225,-114.942528735632,4,1,0,80,0,1
275412,-120.481927710843,4,1,0,80,0,1
275506,-123.456790123457,4,1,0,80,0,1
275600,-128.205128205128,4,1,0,80,0,1
275693,-129.87012987013,4,1,0,80,0,1
275787,-131.578947368421,4,1,0,80,0,1
275881,-133.333333333333,4,1,0,80,0,1
275975,-135.135135135135,4,1,0,80,0,1
276068,-136.986301369863,4,1,0,80,0,1
276162,-138.888888888889,4,1,0,80,0,1
276256,-140.845070422535,4,1,0,80,0,1
276350,-142.857142857143,4,1,0,70,0,0
279350,-74.0740740740741,4,1,0,95,0,1
285350,-71.4285714285714,4,1,0,95,0,1
289850,-68.9655172413793,4,1,0,95,0,1
289912,-71.4285714285714,4,1,0,95,0,1
290225,-68.9655172413793,4,1,0,95,0,1
290287,-71.4285714285714,4,1,0,95,0,1
290600,-68.9655172413793,4,1,0,95,0,0

[HitObjects]
256,192,15350,12,0,17600,0:0:0:0:
256,192,18350,5,12,0:0:0:0:
256,192,18600,1,0,0:0:0:0:
256,192,18725,1,8,0:0:0:0:
256,192,18850,1,0,0:0:0:0:
256,192,19100,1,8,0:0:0:0:
256,192,19350,1,0,0:0:0:0:
256,192,19475,1,0,0:0:0:0:
256,192,19600,1,8,0:0:0:0:
256,192,19850,1,0,0:0:0:0:
256,192,20350,1,0,0:0:0:0:
256,192,20600,1,8,0:0:0:0:
256,192,20850,1,8,0:0:0:0:
256,192,20975,1,8,0:0:0:0:
256,192,21100,1,0,0:0:0:0:
256,192,21225,1,0,0:0:0:0:
256,192,21350,1,8,0:0:0:0:
256,192,21600,1,0,0:0:0:0:
256,192,21725,1,8,0:0:0:0:
256,192,21850,1,0,0:0:0:0:
256,192,22100,1,8,0:0:0:0:
256,192,22600,1,0,0:0:0:0:
256,192,22850,1,8,0:0:0:0:
256,192,23100,1,8,0:0:0:0:
256,192,23225,1,8,0:0:0:0:
256,192,23350,1,0,0:0:0:0:
256,192,23475,1,0,0:0:0:0:
256,192,23600,1,8,0:0:0:0:
256,192,23850,1,0,0:0:0:0:
256,192,24100,1,0,0:0:0:0:
256,192,24225,1,0,0:0:0:0:
256,192,24350,1,8,0:0:0:0:
256,192,24850,1,8,0:0:0:0:
256,192,25100,1,0,0:0:0:0:
256,192,25350,1,8,0:0:0:0:
256,192,25475,1,0,0:0:0:0:
256,192,25600,1,8,0:0:0:0:
256,192,25850,1,0,0:0:0:0:
256,192,26350,1,8,0:0:0:0:
256,192,26600,1,0,0:0:0:0:
256,192,26850,1,0,0:0:0:0:
256,192,26975,1,0,0:0:0:0:
256,192,27100,1,8,0:0:0:0:
256,192,27225,1,8,0:0:0:0:
256,192,27350,1,0,0:0:0:0:
256,192,27600,1,8,0:0:0:0:
256,192,27725,1,0,0:0:0:0:
256,192,27850,1,8,0:0:0:0:
256,192,28100,1,0,0:0:0:0:
256,192,28600,1,8,0:0:0:0:
256,192,28850,1,0,0:0:0:0:
256,192,29100,1,8,0:0:0:0:
256,192,29225,1,8,0:0:0:0:
256,192,29350,1,0,0:0:0:0:
256,192,29475,1,0,0:0:0:0:
256,192,29600,1,8,0:0:0:0:
256,192,29850,1,8,0:0:0:0:
256,192,30100,1,0,0:0:0:0:
256,192,30225,1,0,0:0:0:0:
256,192,30350,1,8,0:0:0:0:
256,192,30725,1,0,0:0:0:0:
256,192,31100,1,0,0:0:0:0:
256,192,31287,1,8,0:0:0:0:
256,192,31662,1,8,0:0:0:0:
256,192,32037,1,0,0:0:0:0:
256,192,32225,1,8,0:0:0:0:
256,192,32600,1,8,0:0:0:0:
256,192,32975,1,0,0:0:0:0:
256,192,33350,1,12,0:0:0:0:
256,192,33725,1,0,0:0:0:0:
256,192,33912,1,8,0:0:0:0:
256,192,34100,1,0,0:0:0:0:
256,192,34287,1,8,0:0:0:0:
256,192,34662,1,8,0:0:0:0:
256,192,35037,1,8,0:0:0:0:
256,192,35225,1,0,0:0:0:0:
256,192,35412,1,0,0:0:0:0:
256,192,35600,1,8,0:0:0:0:
256,192,35975,1,0,0:0:0:0:
256,192,36162,1,8,0:0:0:0:
256,192,36350,1,0,0:0:0:0:
256,192,36725,1,8,0:0:0:0:
256,192,37100,1,0,0:0:0:0:
256,192,37287,1,8,0:0:0:0:
256,192,37475,1,8,0:0:0:0:
256,192,37662,1,0,0:0:0:0:
256,192,38037,1,8,0:0:0:0:
256,192,38225,1,8,0:0:0:0:
256,192,38412,1,0,0:0:0:0:
256,192,38600,1,8,0:0:0:0:
256,192,38975,1,0,0:0:0:0:
256,192,39162,1,8,0:0:0:0:
256,192,39350,1,0,0:0:0:0:
256,192,39725,1,0,0:0:0:0:
256,192,39912,1,0,0:0:0:0:
256,192,40100,1,8,0:0:0:0:
256,192,40287,1,8,0:0:0:0:
256,192,40662,1,0,0:0:0:0:
256,192,41037,1,8,0:0:0:0:
256,192,41225,1,0,0:0:0:0:
256,192,41412,1,0,0:0:0:0:
256,192,41600,1,8,0:0:0:0:
256,192,41975,1,8,0:0:0:0:
256,192,42068,1,8,0:0:0:0:
256,192,42162,1,8,0:0:0:0:
256,192,42256,1,8,0:0:0:0:
256,192,42350,1,0,0:0:0:0:
256,192,42725,1,8,0:0:0:0:
256,192,42912,1,0,0:0:0:0:
256,192,43006,1,0,0:0:0:0:
256,192,43100,1,8,0:0:0:0:
256,192,43287,1,8,0:0:0:0:
256,192,43381,1,8,0:0:0:0:
256,192,43475,1,0,0:0:0:0:
256,192,43662,1,8,0:0:0:0:
256,192,44037,1,8,0:0:0:0:
256,192,44225,1,8,0:0:0:0:
256,192,44318,1,8,0:0:0:0:
256,192,44412,1,0,0:0:0:0:
256,192,44600,1,8,0:0:0:0:
256,192,44787,1,0,0:0:0:0:
256,192,44881,1,0,0:0:0:0:
256,192,44975,1,8,0:0:0:0:
256,192,45162,1,0,0:0:0:0:
256,192,45350,1,8,0:0:0:0:
256,192,45725,1,8,0:0:0:0:
256,192,45912,1,0,0:0:0:0:
256,192,46100,1,8,0:0:0:0:
256,192,46288,1,0,0:0:0:0:
256,192,46381,1,0,0:0:0:0:
256,192,46475,1,8,0:0:0:0:
256,192,46662,1,0,0:0:0:0:
256,192,46850,1,8,0:0:0:0:
256,192,47225,1,8,0:0:0:0:
256,192,47412,1,0,0:0:0:0:
256,192,47506,1,0,0:0:0:0:
256,192,47600,1,8,0:0:0:0:
256,192,47975,1,0,0:0:0:0:
256,192,48162,1,8,0:0:0:0:
256,192,48350,1,0,0:0:0:0:
256,192,48537,1,0,0:0:0:0:
256,192,48631,1,0,0:0:0:0:
256,192,48725,1,8,0:0:0:0:
256,192,48912,1,8,0:0:0:0:
256,192,49006,1,8,0:0:0:0:
256,192,49100,1,0,0:0:0:0:
256,192,49193,1,0,0:0:0:0:
256,192,49287,1,8,0:0:0:0:
256,192,49475,1,8,0:0:0:0:
256,192,49850,1,0,0:0:0:0:
256,192,50037,1,0,0:0:0:0:
256,192,50131,1,0,0:0:0:0:
256,192,50225,1,8,0:0:0:0:
256,192,50412,1,0,0:0:0:0:
256,192,50600,1,8,0:0:0:0:
256,192,50693,1,8,0:0:0:0:
256,192,50787,1,0,0:0:0:0:
256,192,50881,1,0,0:0:0:0:
256,192,50975,1,8,0:0:0:0:
256,192,51162,1,8,0:0:0:0:
256,192,51350,1,0,0:0:0:0:
256,192,51725,1,8,0:0:0:0:
256,192,51818,1,8,0:0:0:0:
256,192,51912,1,0,0:0:0:0:
256,192,52100,1,8,0:0:0:0:
256,192,52287,1,0,0:0:0:0:
256,192,52381,1,0,0:0:0:0:
256,192,52475,1,8,0:0:0:0:
256,192,52662,1,0,0:0:0:0:
256,192,52850,1,8,0:0:0:0:
256,192,53037,1,0,0:0:0:0:
256,192,53131,1,0,0:0:0:0:
256,192,53225,1,8,0:0:0:0:
256,192,53412,1,8,0:0:0:0:
256,192,53600,1,0,0:0:0:0:
256,192,53975,1,12,0:0:0:0:
256,192,54350,1,8,0:0:0:0:
256,192,54443,1,8,0:0:0:0:
256,192,54537,1,0,0:0:0:0:
256,192,54631,1,0,0:0:0:0:
256,192,54725,1,8,0:0:0:0:
256,192,54913,1,0,0:0:0:0:
256,192,55100,1,8,0:0:0:0:
256,192,55287,1,0,0:0:0:0:
256,192,55381,1,8,0:0:0:0:
256,192,55568,1,0,0:0:0:0:
256,192,55662,1,8,0:0:0:0:
256,192,55850,1,0,0:0:0:0:
256,192,56225,1,8,0:0:0:0:
256,192,56318,1,8,0:0:0:0:
256,192,56412,1,0,0:0:0:0:
256,192,56600,1,8,0:0:0:0:
256,192,56787,1,8,0:0:0:0:
256,192,56881,1,8,0:0:0:0:
256,192,56975,1,0,0:0:0:0:
256,192,57068,1,0,0:0:0:0:
256,192,57162,1,8,0:0:0:0:
256,192,57350,1,0,0:0:0:0:
256,192,57725,1,8,0:0:0:0:
256,192,57912,1,0,0:0:0:0:
256,192,58100,1,8,0:0:0:0:
256,192,58287,1,0,0:0:0:0:
256,192,58381,1,0,0:0:0:0:
256,192,58475,1,8,0:0:0:0:
256,192,58662,1,0,0:0:0:0:
256,192,58850,1,8,0:0:0:0:
256,192,59037,1,8,0:0:0:0:
256,192,59131,1,8,0:0:0:0:
256,192,59225,1,0,0:0:0:0:
256,192,59318,1,0,0:0:0:0:
256,192,59412,1,8,0:0:0:0:
256,192,59600,1,0,0:0:0:0:
256,192,59787,1,8,0:0:0:0:
256,192,59881,1,0,0:0:0:0:
256,192,59975,1,8,0:0:0:0:
256,192,60068,1,0,0:0:0:0:
256,192,60162,1,8,0:0:0:0:
256,192,60350,1,0,0:0:0:0:
256,192,60725,1,8,0:0:0:0:
256,192,60912,1,0,0:0:0:0:
256,192,61100,1,8,0:0:0:0:
256,192,61475,1,8,0:0:0:0:
256,192,61662,1,8,0:0:0:0:
256,192,61850,1,0,0:0:0:0:
256,192,62037,1,0,0:0:0:0:
256,192,62131,1,0,0:0:0:0:
256,192,62225,1,8,0:0:0:0:
256,192,62412,1,0,0:0:0:0:
256,192,62600,1,8,0:0:0:0:
256,192,62787,1,0,0:0:0:0:
256,192,62975,1,8,0:0:0:0:
256,192,63162,1,0,0:0:0:0:
256,192,63256,1,8,0:0:0:0:
256,192,63350,1,0,0:0:0:0:
256,192,63443,1,8,0:0:0:0:
256,192,63537,1,0,0:0:0:0:
256,192,63725,1,8,0:0:0:0:
256,192,63818,1,0,0:0:0:0:
256,192,64100,1,0,0:0:0:0:
256,192,64193,1,8,0:0:0:0:
256,192,64287,1,0,0:0:0:0:
256,192,64475,1,8,0:0:0:0:
256,192,64568,1,0,0:0:0:0:
256,192,64850,1,0,0:0:0:0:
256,192,65037,1,12,0:0:0:0:
256,192,65225,1,12,0:0:0:0:
256,192,65412,1,12,0:0:0:0:
256,192,65600,1,12,0:0:0:0:
256,192,65787,1,12,0:0:0:0:
256,192,65975,1,12,0:0:0:0:
256,192,66162,1,12,0:0:0:0:
256,192,66350,1,4,0:0:0:0:
256,192,66600,1,8,0:0:0:0:
256,192,66725,1,0,0:0:0:0:
256,192,66850,1,8,0:0:0:0:
256,192,67100,1,4,0:0:0:0:
256,192,67350,1,8,0:0:0:0:
256,192,67475,1,0,0:0:0:0:
256,192,67600,1,8,0:0:0:0:
256,192,67850,1,4,0:0:0:0:
256,192,68100,1,8,0:0:0:0:
256,192,68225,1,0,0:0:0:0:
256,192,68350,1,8,0:0:0:0:
256,192,68600,1,4,0:0:0:0:
256,192,68850,1,0,0:0:0:0:
256,192,68975,1,8,0:0:0:0:
256,192,69100,1,0,0:0:0:0:
256,192,69350,1,12,0:0:0:0:
256,192,69725,1,12,0:0:0:0:
256,192,70100,1,12,0:0:0:0:
256,192,70350,1,0,0:0:0:0:
256,192,70475,1,8,0:0:0:0:
256,192,70600,1,0,0:0:0:0:
256,192,70850,1,12,0:0:0:0:
256,192,71225,1,12,0:0:0:0:
256,192,71600,1,12,0:0:0:0:
256,192,71850,1,0,0:0:0:0:
256,192,71912,1,0,0:0:0:0:
256,192,71975,1,8,0:0:0:0:
256,192,72225,1,0,0:0:0:0:
256,192,72350,1,12,0:0:0:0:
256,192,72600,1,0,0:0:0:0:
256,192,72725,1,8,0:0:0:0:
256,192,72850,1,0,0:0:0:0:
256,192,73100,1,12,0:0:0:0:
256,192,73350,1,0,0:0:0:0:
256,192,73475,1,8,0:0:0:0:
256,192,73600,1,0,0:0:0:0:
256,192,73850,1,12,0:0:0:0:
256,192,74100,1,0,0:0:0:0:
256,192,74225,1,8,0:0:0:0:
256,192,74350,1,0,0:0:0:0:
256,192,74600,1,12,0:0:0:0:
256,192,74850,1,0,0:0:0:0:
256,192,74975,1,8,0:0:0:0:
256,192,75100,1,0,0:0:0:0:
256,192,75350,1,12,0:0:0:0:
256,192,75725,1,12,0:0:0:0:
256,192,76100,1,12,0:0:0:0:
256,192,76350,1,0,0:0:0:0:
256,192,76475,1,8,0:0:0:0:
256,192,76600,1,0,0:0:0:0:
256,192,76850,1,12,0:0:0:0:
256,192,77225,1,12,0:0:0:0:
256,192,77600,1,12,0:0:0:0:
256,192,77850,1,0,0:0:0:0:
256,192,77975,1,8,0:0:0:0:
256,192,78100,1,8,0:0:0:0:
256,192,78225,1,8,0:0:0:0:
256,192,78350,1,4,0:0:0:0:
256,192,78600,1,8,0:0:0:0:
256,192,78850,1,0,0:0:0:0:
256,192,79100,1,12,0:0:0:0:
256,192,79350,1,0,0:0:0:0:
256,192,79475,1,8,0:0:0:0:
256,192,79600,1,0,0:0:0:0:
256,192,79850,1,8,0:0:0:0:
256,192,80350,1,0,0:0:0:0:
256,192,80600,1,8,0:0:0:0:
256,192,80850,1,0,0:0:0:0:
256,192,80975,1,0,0:0:0:0:
256,192,81100,1,8,0:0:0:0:
256,192,81350,1,4,0:0:0:0:
256,192,81600,1,8,0:0:0:0:
256,192,81850,1,0,0:0:0:0:
256,192,82100,1,12,0:0:0:0:
256,192,82350,1,0,0:0:0:0:
256,192,82475,1,8,0:0:0:0:
256,192,82600,1,0,0:0:0:0:
256,192,82850,1,8,0:0:0:0:
256,192,83350,1,0,0:0:0:0:
256,192,83600,1,8,0:0:0:0:
256,192,83850,1,0,0:0:0:0:
256,192,83975,1,0,0:0:0:0:
256,192,84100,1,8,0:0:0:0:
256,192,84350,1,4,0:0:0:0:
256,192,84600,1,8,0:0:0:0:
256,192,84725,1,0,0:0:0:0:
256,192,84850,1,8,0:0:0:0:
256,192,85100,1,4,0:0:0:0:
256,192,85350,1,8,0:0:0:0:
256,192,85475,1,0,0:0:0:0:
256,192,85600,1,8,0:0:0:0:
256,192,85850,1,4,0:0:0:0:
256,192,86100,1,8,0:0:0:0:
256,192,86225,1,0,0:0:0:0:
256,192,86350,1,8,0:0:0:0:
256,192,86600,1,4,0:0:0:0:
256,192,86850,1,8,0:0:0:0:
256,192,86975,1,8,0:0:0:0:
256,192,87100,1,0,0:0:0:0:
256,192,87350,1,12,0:0:0:0:
256,192,87725,1,12,0:0:0:0:
256,192,88100,1,12,0:0:0:0:
256,192,88350,1,0,0:0:0:0:
256,192,88475,1,8,0:0:0:0:
256,192,88600,1,0,0:0:0:0:
256,192,88850,1,12,0:0:0:0:
256,192,89225,1,12,0:0:0:0:
256,192,89600,1,8,0:0:0:0:
256,192,89725,1,0,0:0:0:0:
256,192,89787,1,0,0:0:0:0:
256,192,89850,1,0,0:0:0:0:
256,192,89975,1,8,0:0:0:0:
256,192,90225,1,0,0:0:0:0:
256,192,90350,1,8,0:0:0:0:
256,192,90725,1,8,0:0:0:0:
256,192,91100,1,8,0:0:0:0:
256,192,91225,1,0,0:0:0:0:
256,192,91350,1,0,0:0:0:0:
256,192,91475,1,8,0:0:0:0:
256,192,91850,1,8,0:0:0:0:
256,192,92100,1,0,0:0:0:0:
256,192,92225,1,8,0:0:0:0:
256,192,92475,1,0,0:0:0:0:
256,192,92600,1,0,0:0:0:0:
256,192,92850,1,8,0:0:0:0:
256,192,92975,1,8,0:0:0:0:
256,192,93100,1,8,0:0:0:0:
256,192,93350,1,4,0:0:0:0:
256,192,93600,1,8,0:0:0:0:
256,192,93725,1,0,0:0:0:0:
256,192,93850,1,8,0:0:0:0:
256,192,94100,1,4,0:0:0:0:
256,192,94350,1,8,0:0:0:0:
256,192,94475,1,0,0:0:0:0:
256,192,94600,1,8,0:0:0:0:
256,192,94850,1,4,0:0:0:0:
256,192,95100,1,8,0:0:0:0:
256,192,95225,1,0,0:0:0:0:
256,192,95350,1,8,0:0:0:0:
256,192,95600,1,4,0:0:0:0:
256,192,95850,1,0,0:0:0:0:
256,192,95975,1,8,0:0:0:0:
256,192,96100,1,0,0:0:0:0:
256,192,96350,1,8,0:0:0:0:
256,192,96475,1,0,0:0:0:0:
256,192,96600,1,0,0:0:0:0:
256,192,96725,1,8,0:0:0:0:
256,192,97100,1,8,0:0:0:0:
256,192,97225,1,8,0:0:0:0:
256,192,97350,1,0,0:0:0:0:
256,192,97475,1,8,0:0:0:0:
256,192,97850,1,8,0:0:0:0:
256,192,97912,1,8,0:0:0:0:
256,192,97975,1,8,0:0:0:0:
256,192,98100,1,0,0:0:0:0:
256,192,98350,1,8,0:0:0:0:
256,192,98475,1,8,0:0:0:0:
256,192,98600,1,8,0:0:0:0:
256,192,99350,5,12,0:0:0:0:
256,192,99600,1,0,0:0:0:0:
256,192,99725,1,8,0:0:0:0:
256,192,99850,1,0,0:0:0:0:
256,192,100100,1,8,0:0:0:0:
256,192,100350,1,0,0:0:0:0:
256,192,100475,1,0,0:0:0:0:
256,192,100600,1,8,0:0:0:0:
256,192,100850,1,8,0:0:0:0:
256,192,101350,1,0,0:0:0:0:
256,192,101600,1,8,0:0:0:0:
256,192,101850,1,8,0:0:0:0:
256,192,101975,1,8,0:0:0:0:
256,192,102100,1,0,0:0:0:0:
256,192,102225,1,0,0:0:0:0:
256,192,102350,1,8,0:0:0:0:
256,192,102600,1,0,0:0:0:0:
256,192,102725,1,8,0:0:0:0:
256,192,102850,1,0,0:0:0:0:
256,192,103100,1,8,0:0:0:0:
256,192,103600,1,8,0:0:0:0:
256,192,103850,1,0,0:0:0:0:
256,192,104100,1,8,0:0:0:0:
256,192,104225,1,8,0:0:0:0:
256,192,104350,1,0,0:0:0:0:
256,192,104475,1,0,0:0:0:0:
256,192,104600,1,8,0:0:0:0:
256,192,104850,1,0,0:0:0:0:
256,192,105100,1,8,0:0:0:0:
256,192,105225,1,0,0:0:0:0:
256,192,105350,1,8,0:0:0:0:
256,192,105850,1,8,0:0:0:0:
256,192,106100,1,0,0:0:0:0:
256,192,106350,1,8,0:0:0:0:
256,192,106475,1,0,0:0:0:0:
256,192,106600,1,8,0:0:0:0:
256,192,106850,1,0,0:0:0:0:
256,192,107350,1,0,0:0:0:0:
256,192,107600,1,8,0:0:0:0:
256,192,107850,1,0,0:0:0:0:
256,192,107975,1,0,0:0:0:0:
256,192,108100,1,8,0:0:0:0:
256,192,108225,1,8,0:0:0:0:
256,192,108350,1,0,0:0:0:0:
256,192,108600,1,8,0:0:0:0:
256,192,108725,1,0,0:0:0:0:
256,192,108850,1,8,0:0:0:0:
256,192,109100,1,0,0:0:0:0:
256,192,109600,1,0,0:0:0:0:
256,192,109850,1,8,0:0:0:0:
256,192,110100,1,8,0:0:0:0:
256,192,110225,1,8,0:0:0:0:
256,192,110350,1,0,0:0:0:0:
256,192,110475,1,0,0:0:0:0:
256,192,110600,1,8,0:0:0:0:
256,192,110850,1,0,0:0:0:0:
256,192,111100,1,0,0:0:0:0:
256,192,111225,1,0,0:0:0:0:
256,192,111350,1,8,0:0:0:0:
256,192,111725,1,0,0:0:0:0:
256,192,112100,1,0,0:0:0:0:
256,192,112287,1,8,0:0:0:0:
256,192,112662,1,8,0:0:0:0:
256,192,113037,1,0,0:0:0:0:
256,192,113225,1,8,0:0:0:0:
256,192,113600,1,8,0:0:0:0:
256,192,113975,1,8,0:0:0:0:
256,192,114350,1,4,0:0:0:0:
256,192,114725,1,8,0:0:0:0:
256,192,114912,1,0,0:0:0:0:
256,192,115100,1,0,0:0:0:0:
256,192,115287,1,8,0:0:0:0:
256,192,115662,1,8,0:0:0:0:
256,192,116037,1,8,0:0:0:0:
256,192,116225,1,0,0:0:0:0:
256,192,116412,1,0,0:0:0:0:
256,192,116600,1,8,0:0:0:0:
256,192,116975,1,0,0:0:0:0:
256,192,117350,1,0,0:0:0:0:
256,192,117725,1,8,0:0:0:0:
256,192,118100,1,0,0:0:0:0:
256,192,118287,1,8,0:0:0:0:
256,192,118475,1,8,0:0:0:0:
256,192,118662,1,0,0:0:0:0:
256,192,119037,1,8,0:0:0:0:
256,192,119225,1,8,0:0:0:0:
256,192,119412,1,0,0:0:0:0:
256,192,119600,1,8,0:0:0:0:
256,192,119975,1,0,0:0:0:0:
256,192,120162,1,8,0:0:0:0:
256,192,120350,1,0,0:0:0:0:
256,192,120725,1,0,0:0:0:0:
256,192,120912,1,0,0:0:0:0:
256,192,121100,1,8,0:0:0:0:
256,192,121287,1,8,0:0:0:0:
256,192,121662,1,0,0:0:0:0:
256,192,122037,1,8,0:0:0:0:
256,192,122225,1,0,0:0:0:0:
256,192,122412,1,0,0:0:0:0:
256,192,122600,1,8,0:0:0:0:
256,192,122975,1,0,0:0:0:0:
256,192,123068,1,0,0:0:0:0:
256,192,123162,1,0,0:0:0:0:
256,192,123256,1,0,0:0:0:0:
256,192,123350,1,8,0:0:0:0:
256,192,123725,1,8,0:0:0:0:
256,192,123912,1,8,0:0:0:0:
256,192,124006,1,8,0:0:0:0:
256,192,124100,1,0,0:0:0:0:
256,192,124287,1,0,0:0:0:0:
256,192,124475,1,8,0:0:0:0:
256,192,124850,1,8,0:0:0:0:
256,192,125037,1,0,0:0:0:0:
256,192,125225,1,8,0:0:0:0:
256,192,125412,1,8,0:0:0:0:
256,192,125600,1,0,0:0:0:0:
256,192,125693,1,0,0:0:0:0:
256,192,125787,1,8,0:0:0:0:
256,192,125881,1,8,0:0:0:0:
256,192,125975,1,8,0:0:0:0:
256,192,126350,1,0,0:0:0:0:
256,192,126537,1,8,0:0:0:0:
256,192,126631,1,8,0:0:0:0:
256,192,126725,1,8,0:0:0:0:
256,192,126912,1,0,0:0:0:0:
256,192,127006,1,0,0:0:0:0:
256,192,127193,1,8,0:0:0:0:
256,192,127287,1,8,0:0:0:0:
256,192,127475,1,0,0:0:0:0:
256,192,127850,1,8,0:0:0:0:
256,192,128037,1,0,0:0:0:0:
256,192,128131,1,0,0:0:0:0:
256,192,128225,1,8,0:0:0:0:
256,192,128412,1,0,0:0:0:0:
256,192,128506,1,0,0:0:0:0:
256,192,128693,1,8,0:0:0:0:
256,192,128787,1,8,0:0:0:0:
256,192,128975,1,8,0:0:0:0:
256,192,129162,1,8,0:0:0:0:
256,192,129350,1,0,0:0:0:0:
256,192,129725,1,8,0:0:0:0:
256,192,129912,1,0,0:0:0:0:
256,192,130006,1,0,0:0:0:0:
256,192,130100,1,8,0:0:0:0:
256,192,130193,1,8,0:0:0:0:
256,192,130381,1,8,0:0:0:0:
256,192,130475,1,8,0:0:0:0:
256,192,130662,1,0,0:0:0:0:
256,192,130850,1,8,0:0:0:0:
256,192,131037,1,0,0:0:0:0:
256,192,131131,1,0,0:0:0:0:
256,192,131225,1,8,0:0:0:0:
256,192,131412,1,0,0:0:0:0:
256,192,131600,1,8,0:0:0:0:
256,192,131725,1,0,0:0:0:0:
256,192,131850,1,0,0:0:0:0:
256,192,131975,1,8,0:0:0:0:
256,192,132225,1,0,0:0:0:0:
256,192,132350,1,12,0:0:0:0:
256,192,133850,12,0,134975,0:0:0:0:
256,192,135350,5,8,0:0:0:0:
256,192,135537,1,0,0:0:0:0:
256,192,135631,1,0,0:0:0:0:
256,192,135725,1,0,0:0:0:0:
256,192,135912,1,0,0:0:0:0:
256,192,136100,1,8,0:0:0:0:
256,192,136475,1,8,0:0:0:0:
256,192,136662,1,0,0:0:0:0:
256,192,136850,1,8,0:0:0:0:
256,192,137037,1,8,0:0:0:0:
256,192,137131,1,8,0:0:0:0:
256,192,137225,1,8,0:0:0:0:
256,192,137412,1,0,0:0:0:0:
256,192,137600,1,8,0:0:0:0:
256,192,137975,1,8,0:0:0:0:
256,192,138162,1,0,0:0:0:0:
256,192,138256,1,0,0:0:0:0:
256,192,138350,1,8,0:0:0:0:
256,192,138537,1,8,0:0:0:0:
256,192,138631,1,8,0:0:0:0:
256,192,138725,1,0,0:0:0:0:
256,192,138912,1,0,0:0:0:0:
256,192,139100,1,8,0:0:0:0:
256,192,139475,1,8,0:0:0:0:
256,192,139662,1,0,0:0:0:0:
256,192,139850,1,8,0:0:0:0:
256,192,139943,1,0,0:0:0:0:
256,192,140037,1,0,0:0:0:0:
256,192,140225,1,0,0:0:0:0:
256,192,140318,1,0,0:0:0:0:
256,192,140412,1,8,0:0:0:0:
256,192,140600,1,8,0:0:0:0:
256,192,140975,1,0,0:0:0:0:
256,192,141162,1,8,0:0:0:0:
256,192,141350,1,0,0:0:0:0:
256,192,141537,1,0,0:0:0:0:
256,192,141631,1,0,0:0:0:0:
256,192,141725,1,8,0:0:0:0:
256,192,141912,1,0,0:0:0:0:
256,192,142100,1,8,0:0:0:0:
256,192,142475,1,0,0:0:0:0:
256,192,142662,1,8,0:0:0:0:
256,192,142850,1,0,0:0:0:0:
256,192,142943,1,8,0:0:0:0:
256,192,143037,1,0,0:0:0:0:
256,192,143225,1,0,0:0:0:0:
256,192,143412,1,8,0:0:0:0:
256,192,143600,1,8,0:0:0:0:
256,192,143975,1,8,0:0:0:0:
256,192,144162,1,0,0:0:0:0:
256,192,144256,1,0,0:0:0:0:
256,192,144350,1,8,0:0:0:0:
256,192,144537,1,0,0:0:0:0:
256,192,144725,1,0,0:0:0:0:
256,192,144912,1,8,0:0:0:0:
256,192,145100,1,8,0:0:0:0:
256,192,145475,1,0,0:0:0:0:
256,192,145662,1,8,0:0:0:0:
256,192,145850,12,0,146975,0:0:0:0:
256,192,147350,5,8,0:0:0:0:
256,192,147443,1,8,0:0:0:0:
256,192,147537,1,0,0:0:0:0:
256,192,147631,1,0,0:0:0:0:
256,192,147725,1,8,0:0:0:0:
256,192,147913,1,0,0:0:0:0:
256,192,148100,1,8,0:0:0:0:
256,192,148287,1,0,0:0:0:0:
256,192,148381,1,8,0:0:0:0:
256,192,148568,1,0,0:0:0:0:
256,192,148662,1,8,0:0:0:0:
256,192,148850,1,0,0:0:0:0:
256,192,149225,1,8,0:0:0:0:
256,192,149318,1,8,0:0:0:0:
256,192,149412,1,0,0:0:0:0:
256,192,149600,1,8,0:0:0:0:
256,192,149787,1,8,0:0:0:0:
256,192,149881,1,8,0:0:0:0:
256,192,149975,1,0,0:0:0:0:
256,192,150068,1,0,0:0:0:0:
256,192,150162,1,8,0:0:0:0:
256,192,150350,1,0,0:0:0:0:
256,192,150725,1,8,0:0:0:0:
256,192,150912,1,0,0:0:0:0:
256,192,151100,1,8,0:0:0:0:
256,192,151287,1,0,0:0:0:0:
256,192,151381,1,0,0:0:0:0:
256,192,151475,1,8,0:0:0:0:
256,192,151662,1,0,0:0:0:0:
256,192,151850,1,8,0:0:0:0:
256,192,152037,1,8,0:0:0:0:
256,192,152131,1,8,0:0:0:0:
256,192,152225,1,0,0:0:0:0:
256,192,152318,1,0,0:0:0:0:
256,192,152412,1,8,0:0:0:0:
256,192,152600,1,0,0:0:0:0:
256,192,152787,1,8,0:0:0:0:
256,192,152881,1,0,0:0:0:0:
256,192,152975,1,8,0:0:0:0:
256,192,153068,1,0,0:0:0:0:
256,192,153162,1,8,0:0:0:0:
256,192,153350,1,0,0:0:0:0:
256,192,153725,1,8,0:0:0:0:
256,192,153912,1,0,0:0:0:0:
256,192,154100,1,8,0:0:0:0:
256,192,154475,1,8,0:0:0:0:
256,192,154662,1,8,0:0:0:0:
256,192,154850,1,0,0:0:0:0:
256,192,155037,1,0,0:0:0:0:
256,192,155131,1,0,0:0:0:0:
256,192,155225,1,8,0:0:0:0:
256,192,155412,1,0,0:0:0:0:
256,192,155600,1,8,0:0:0:0:
256,192,155787,1,0,0:0:0:0:
256,192,155975,1,8,0:0:0:0:
256,192,156162,1,0,0:0:0:0:
256,192,156256,1,8,0:0:0:0:
256,192,156350,1,0,0:0:0:0:
256,192,156443,1,8,0:0:0:0:
256,192,156537,1,0,0:0:0:0:
256,192,156725,1,8,0:0:0:0:
256,192,156818,1,0,0:0:0:0:
256,192,157100,1,8,0:0:0:0:
256,192,157193,1,8,0:0:0:0:
256,192,157287,1,0,0:0:0:0:
256,192,157475,1,8,0:0:0:0:
256,192,157568,1,0,0:0:0:0:
256,192,157850,1,0,0:0:0:0:
256,192,158037,1,12,0:0:0:0:
256,192,158225,1,12,0:0:0:0:
256,192,158412,1,12,0:0:0:0:
256,192,158600,1,12,0:0:0:0:
256,192,158787,1,12,0:0:0:0:
256,192,158975,1,12,0:0:0:0:
256,192,159162,1,12,0:0:0:0:
256,192,159350,1,4,0:0:0:0:
256,192,159600,1,8,0:0:0:0:
256,192,159725,1,0,0:0:0:0:
256,192,159850,1,8,0:0:0:0:
256,192,160100,1,4,0:0:0:0:
256,192,160350,1,8,0:0:0:0:
256,192,160475,1,0,0:0:0:0:
256,192,160600,1,8,0:0:0:0:
256,192,160850,1,4,0:0:0:0:
256,192,161100,1,8,0:0:0:0:
256,192,161225,1,0,0:0:0:0:
256,192,161350,1,8,0:0:0:0:
256,192,161600,1,4,0:0:0:0:
256,192,161850,1,0,0:0:0:0:
256,192,161975,1,8,0:0:0:0:
256,192,162100,1,0,0:0:0:0:
256,192,162350,1,12,0:0:0:0:
256,192,162725,1,12,0:0:0:0:
256,192,163100,1,12,0:0:0:0:
256,192,163350,1,0,0:0:0:0:
256,192,163475,1,8,0:0:0:0:
256,192,163600,1,0,0:0:0:0:
256,192,163850,1,12,0:0:0:0:
256,192,164225,1,12,0:0:0:0:
256,192,164600,1,12,0:0:0:0:
256,192,164850,1,8,0:0:0:0:
256,192,164912,1,8,0:0:0:0:
256,192,164975,1,0,0:0:0:0:
256,192,165225,1,0,0:0:0:0:
256,192,165350,1,12,0:0:0:0:
256,192,165600,1,0,0:0:0:0:
256,192,165725,1,8,0:0:0:0:
256,192,165850,1,0,0:0:0:0:
256,192,166100,1,12,0:0:0:0:
256,192,166350,1,0,0:0:0:0:
256,192,166475,1,8,0:0:0:0:
256,192,166600,1,0,0:0:0:0:
256,192,166850,1,12,0:0:0:0:
256,192,167100,1,0,0:0:0:0:
256,192,167225,1,8,0:0:0:0:
256,192,167350,1,0,0:0:0:0:
256,192,167600,1,12,0:0:0:0:
256,192,167850,1,0,0:0:0:0:
256,192,167975,1,8,0:0:0:0:
256,192,168100,1,0,0:0:0:0:
256,192,168350,1,12,0:0:0:0:
256,192,168725,1,12,0:0:0:0:
256,192,169100,1,12,0:0:0:0:
256,192,169350,1,0,0:0:0:0:
256,192,169475,1,8,0:0:0:0:
256,192,169600,1,0,0:0:0:0:
256,192,169850,1,12,0:0:0:0:
256,192,170225,1,12,0:0:0:0:
256,192,170600,1,12,0:0:0:0:
256,192,170850,1,0,0:0:0:0:
256,192,170975,1,8,0:0:0:0:
256,192,171100,1,8,0:0:0:0:
256,192,171225,1,8,0:0:0:0:
256,192,171350,1,4,0:0:0:0:
256,192,171600,1,8,0:0:0:0:
256,192,171850,1,0,0:0:0:0:
256,192,172100,1,12,0:0:0:0:
256,192,172350,1,0,0:0:0:0:
256,192,172475,1,8,0:0:0:0:
256,192,172600,1,0,0:0:0:0:
256,192,172850,1,8,0:0:0:0:
256,192,173350,1,0,0:0:0:0:
256,192,173600,1,8,0:0:0:0:
256,192,173850,1,0,0:0:0:0:
256,192,173975,1,0,0:0:0:0:
256,192,174100,1,8,0:0:0:0:
256,192,174350,1,4,0:0:0:0:
256,192,174600,1,8,0:0:0:0:
256,192,174850,1,0,0:0:0:0:
256,192,175100,1,12,0:0:0:0:
256,192,175350,1,0,0:0:0:0:
256,192,175475,1,8,0:0:0:0:
256,192,175600,1,0,0:0:0:0:
256,192,175850,1,8,0:0:0:0:
256,192,176350,1,0,0:0:0:0:
256,192,176600,1,8,0:0:0:0:
256,192,176850,1,0,0:0:0:0:
256,192,176975,1,0,0:0:0:0:
256,192,177100,1,8,0:0:0:0:
256,192,177350,1,4,0:0:0:0:
256,192,177600,1,8,0:0:0:0:
256,192,177725,1,0,0:0:0:0:
256,192,177850,1,8,0:0:0:0:
256,192,178100,1,4,0:0:0:0:
256,192,178350,1,8,0:0:0:0:
256,192,178475,1,0,0:0:0:0:
256,192,178600,1,8,0:0:0:0:
256,192,178850,1,4,0:0:0:0:
256,192,179100,1,8,0:0:0:0:
256,192,179225,1,0,0:0:0:0:
256,192,179350,1,8,0:0:0:0:
256,192,179600,1,4,0:0:0:0:
256,192,179850,1,8,0:0:0:0:
256,192,179975,1,8,0:0:0:0:
256,192,180100,1,0,0:0:0:0:
256,192,180350,1,12,0:0:0:0:
256,192,180725,1,12,0:0:0:0:
256,192,181100,1,12,0:0:0:0:
256,192,181350,1,0,0:0:0:0:
256,192,181475,1,8,0:0:0:0:
256,192,181600,1,0,0:0:0:0:
256,192,181850,1,12,0:0:0:0:
256,192,182225,1,12,0:0:0:0:
256,192,182600,1,8,0:0:0:0:
256,192,182725,1,8,0:0:0:0:
256,192,182787,1,8,0:0:0:0:
256,192,182850,1,8,0:0:0:0:
256,192,182975,1,8,0:0:0:0:
256,192,183225,1,0,0:0:0:0:
256,192,183350,1,8,0:0:0:0:
256,192,183725,1,8,0:0:0:0:
256,192,183850,1,0,0:0:0:0:
256,192,183975,1,0,0:0:0:0:
256,192,184100,1,8,0:0:0:0:
256,192,184350,1,0,0:0:0:0:
256,192,184475,1,8,0:0:0:0:
256,192,184725,1,8,0:0:0:0:
256,192,184850,1,8,0:0:0:0:
256,192,184975,1,0,0:0:0:0:
256,192,185100,1,0,0:0:0:0:
256,192,185225,1,8,0:0:0:0:
256,192,185475,1,0,0:0:0:0:
256,192,185600,1,8,0:0:0:0:
256,192,185850,1,8,0:0:0:0:
256,192,185975,1,8,0:0:0:0:
256,192,186100,1,8,0:0:0:0:
256,192,186225,1,8,0:0:0:0:
256,192,186350,1,4,0:0:0:0:
256,192,186600,1,8,0:0:0:0:
256,192,186725,1,0,0:0:0:0:
256,192,186850,1,8,0:0:0:0:
256,192,187100,1,4,0:0:0:0:
256,192,187350,1,8,0:0:0:0:
256,192,187475,1,0,0:0:0:0:
256,192,187600,1,8,0:0:0:0:
256,192,187850,1,4,0:0:0:0:
256,192,188100,1,8,0:0:0:0:
256,192,188225,1,0,0:0:0:0:
256,192,188350,1,8,0:0:0:0:
256,192,188600,1,4,0:0:0:0:
256,192,188850,1,0,0:0:0:0:
256,192,188975,1,8,0:0:0:0:
256,192,189100,1,0,0:0:0:0:
256,192,189350,1,8,0:0:0:0:
256,192,189475,1,0,0:0:0:0:
256,192,189600,1,0,0:0:0:0:
256,192,189725,1,8,0:0:0:0:
256,192,189975,1,0,0:0:0:0:
256,192,190100,1,8,0:0:0:0:
256,192,190350,1,8,0:0:0:0:
256,192,190475,1,8,0:0:0:0:
256,192,190850,1,8,0:0:0:0:
256,192,190912,1,8,0:0:0:0:
256,192,190975,1,8,0:0:0:0:
256,192,191100,1,0,0:0:0:0:
256,192,191350,1,0,0:0:0:0:
256,192,191600,1,8,0:0:0:0:
256,192,191725,1,8,0:0:0:0:
256,192,191850,1,8,0:0:0:0:
256,192,191975,1,8,0:0:0:0:
256,192,192100,1,8,0:0:0:0:
256,192,192350,1,4,0:0:0:0:
256,192,192600,1,8,0:0:0:0:
256,192,192725,1,0,0:0:0:0:
256,192,193100,1,8,0:0:0:0:
256,192,193225,1,0,0:0:0:0:
256,192,193350,1,0,0:0:0:0:
256,192,193600,1,8,0:0:0:0:
256,192,193850,1,4,0:0:0:0:
256,192,194100,1,8,0:0:0:0:
256,192,194225,1,0,0:0:0:0:
256,192,194600,1,8,0:0:0:0:
256,192,194725,1,0,0:0:0:0:
256,192,194850,1,0,0:0:0:0:
256,192,195100,1,8,0:0:0:0:
256,192,195350,1,4,0:0:0:0:
256,192,195600,1,8,0:0:0:0:
256,192,195725,1,0,0:0:0:0:
256,192,196100,1,8,0:0:0:0:
256,192,196225,1,0,0:0:0:0:
256,192,196350,1,0,0:0:0:0:
256,192,196600,1,8,0:0:0:0:
256,192,196850,1,8,0:0:0:0:
256,192,196975,1,8,0:0:0:0:
256,192,197100,1,0,0:0:0:0:
256,192,197225,1,0,0:0:0:0:
256,192,197350,1,8,0:0:0:0:
256,192,197600,1,0,0:0:0:0:
256,192,197725,1,8,0:0:0:0:
256,192,197850,1,0,0:0:0:0:
256,192,197975,1,0,0:0:0:0:
256,192,198100,1,8,0:0:0:0:
256,192,198350,1,12,0:0:0:0:
256,192,198600,1,0,0:0:0:0:
256,192,198725,1,8,0:0:0:0:
256,192,199100,1,0,0:0:0:0:
256,192,199225,1,8,0:0:0:0:
256,192,199350,1,8,0:0:0:0:
256,192,199600,1,0,0:0:0:0:
256,192,199850,1,12,0:0:0:0:
256,192,200100,1,0,0:0:0:0:
256,192,200225,1,8,0:0:0:0:
256,192,200600,1,0,0:0:0:0:
256,192,200725,1,8,0:0:0:0:
256,192,200850,1,8,0:0:0:0:
256,192,201100,1,0,0:0:0:0:
256,192,201350,1,12,0:0:0:0:
256,192,201600,1,0,0:0:0:0:
256,192,201725,1,8,0:0:0:0:
256,192,202100,1,0,0:0:0:0:
256,192,202225,1,8,0:0:0:0:
256,192,202350,1,8,0:0:0:0:
256,192,202600,1,0,0:0:0:0:
256,192,202725,1,8,0:0:0:0:
256,192,202787,1,8,0:0:0:0:
256,192,202850,1,8,0:0:0:0:
256,192,203100,1,0,0:0:0:0:
256,192,203225,1,0,0:0:0:0:
256,192,203350,1,8,0:0:0:0:
256,192,203600,1,8,0:0:0:0:
256,192,203725,1,8,0:0:0:0:
256,192,203850,1,0,0:0:0:0:
256,192,203975,1,0,0:0:0:0:
256,192,204100,1,8,0:0:0:0:
256,192,204350,1,8,0:0:0:0:
256,192,204475,1,0,0:0:0:0:
256,192,204600,1,8,0:0:0:0:
256,192,204725,1,0,0:0:0:0:
256,192,205100,1,0,0:0:0:0:
256,192,205225,1,8,0:0:0:0:
256,192,205350,1,0,0:0:0:0:
256,192,205475,1,8,0:0:0:0:
256,192,205850,1,8,0:0:0:0:
256,192,205975,1,0,0:0:0:0:
256,192,206100,1,8,0:0:0:0:
256,192,206225,1,0,0:0:0:0:
256,192,206600,1,0,0:0:0:0:
256,192,206725,1,8,0:0:0:0:
256,192,206850,1,0,0:0:0:0:
256,192,206975,1,8,0:0:0:0:
256,192,207350,1,8,0:0:0:0:
256,192,207475,1,0,0:0:0:0:
256,192,207600,1,8,0:0:0:0:
256,192,207725,1,0,0:0:0:0:
256,192,208100,1,0,0:0:0:0:
256,192,208225,1,8,0:0:0:0:
256,192,208350,1,0,0:0:0:0:
256,192,208475,1,8,0:0:0:0:
256,192,208850,1,8,0:0:0:0:
256,192,208975,1,0,0:0:0:0:
256,192,209100,1,0,0:0:0:0:
256,192,209225,1,0,0:0:0:0:
256,192,209350,1,8,0:0:0:0:
256,192,209600,1,8,0:0:0:0:
256,192,209725,1,0,0:0:0:0:
256,192,209850,1,8,0:0:0:0:
256,192,209975,1,0,0:0:0:0:
256,192,210100,1,8,0:0:0:0:
256,192,210350,1,0,0:0:0:0:
256,192,210475,1,8,0:0:0:0:
256,192,210600,1,0,0:0:0:0:
256,192,210725,1,8,0:0:0:0:
256,192,211100,1,8,0:0:0:0:
256,192,211225,1,0,0:0:0:0:
256,192,211350,1,8,0:0:0:0:
256,192,211475,1,0,0:0:0:0:
256,192,211850,1,0,0:0:0:0:
256,192,211975,1,8,0:0:0:0:
256,192,212100,1,0,0:0:0:0:
256,192,212225,1,8,0:0:0:0:
256,192,212600,1,8,0:0:0:0:
256,192,212725,1,0,0:0:0:0:
256,192,212850,1,8,0:0:0:0:
256,192,212975,1,0,0:0:0:0:
256,192,213350,1,0,0:0:0:0:
256,192,213475,1,8,0:0:0:0:
256,192,213600,1,0,0:0:0:0:
256,192,213725,1,8,0:0:0:0:
256,192,214100,1,8,0:0:0:0:
256,192,214225,1,0,0:0:0:0:
256,192,214350,1,8,0:0:0:0:
256,192,214475,1,0,0:0:0:0:
256,192,214725,1,8,0:0:0:0:
256,192,214787,1,8,0:0:0:0:
256,192,214850,1,8,0:0:0:0:
256,192,215100,1,0,0:0:0:0:
256,192,215225,1,8,0:0:0:0:
256,192,215350,1,8,0:0:0:0:
256,192,215600,1,8,0:0:0:0:
256,192,215725,1,0,0:0:0:0:
256,192,215850,1,0,0:0:0:0:
256,192,215975,1,0,0:0:0:0:
256,192,216100,1,8,0:0:0:0:
256,192,216350,1,8,0:0:0:0:
256,192,216475,1,0,0:0:0:0:
256,192,216600,1,8,0:0:0:0:
256,192,216725,1,0,0:0:0:0:
256,192,217100,1,0,0:0:0:0:
256,192,217225,1,8,0:0:0:0:
256,192,217350,1,0,0:0:0:0:
256,192,217475,1,8,0:0:0:0:
256,192,217850,1,8,0:0:0:0:
256,192,217975,1,0,0:0:0:0:
256,192,218100,1,8,0:0:0:0:
256,192,218225,1,0,0:0:0:0:
256,192,218600,1,0,0:0:0:0:
256,192,218725,1,8,0:0:0:0:
256,192,218850,1,0,0:0:0:0:
256,192,218975,1,8,0:0:0:0:
256,192,219350,1,8,0:0:0:0:
256,192,219475,1,0,0:0:0:0:
256,192,219600,1,8,0:0:0:0:
256,192,219725,1,0,0:0:0:0:
256,192,220100,1,0,0:0:0:0:
256,192,220225,1,8,0:0:0:0:
256,192,220350,1,0,0:0:0:0:
256,192,220475,1,8,0:0:0:0:
256,192,220850,1,8,0:0:0:0:
256,192,220975,1,0,0:0:0:0:
256,192,221100,1,8,0:0:0:0:
256,192,221225,1,0,0:0:0:0:
256,192,221350,1,8,0:0:0:0:
256,192,221600,1,0,0:0:0:0:
256,192,221725,1,8,0:0:0:0:
256,192,221850,1,0,0:0:0:0:
256,192,221975,1,8,0:0:0:0:
256,192,222100,1,8,0:0:0:0:
256,192,222350,1,8,0:0:0:0:
256,192,222475,1,0,0:0:0:0:
256,192,222600,1,0,0:0:0:0:
256,192,222725,1,8,0:0:0:0:
256,192,223100,1,8,0:0:0:0:
256,192,223225,1,0,0:0:0:0:
256,192,223350,1,0,0:0:0:0:
256,192,223475,1,8,0:0:0:0:
256,192,223850,1,8,0:0:0:0:
256,192,223975,1,0,0:0:0:0:
256,192,224100,1,0,0:0:0:0:
256,192,224225,1,8,0:0:0:0:
256,192,224600,1,8,0:0:0:0:
256,192,224725,1,0,0:0:0:0:
256,192,224850,1,0,0:0:0:0:
256,192,224975,1,8,0:0:0:0:
256,192,225350,1,8,0:0:0:0:
256,192,225475,1,0,0:0:0:0:
256,192,225600,1,0,0:0:0:0:
256,192,225725,1,8,0:0:0:0:
256,192,226100,1,8,0:0:0:0:
256,192,226225,1,0,0:0:0:0:
256,192,226350,1,0,0:0:0:0:
256,192,226475,1,8,0:0:0:0:
256,192,226725,1,0,0:0:0:0:
256,192,226787,1,0,0:0:0:0:
256,192,226850,1,8,0:0:0:0:
256,192,227100,1,0,0:0:0:0:
256,192,227225,1,0,0:0:0:0:
256,192,227350,1,8,0:0:0:0:
256,192,227600,1,8,0:0:0:0:
256,192,227725,1,8,0:0:0:0:
256,192,227850,1,0,0:0:0:0:
256,192,227975,1,0,0:0:0:0:
256,192,228100,1,8,0:0:0:0:
256,192,228350,1,4,0:0:0:0:
256,192,228725,1,8,0:0:0:0:
256,192,229100,1,0,0:0:0:0:
256,192,229287,1,8,0:0:0:0:
256,192,229475,1,0,0:0:0:0:
256,192,229662,1,0,0:0:0:0:
256,192,229850,1,8,0:0:0:0:
256,192,230225,1,0,0:0:0:0:
256,192,230412,1,8,0:0:0:0:
256,192,230600,1,0,0:0:0:0:
256,192,230787,1,0,0:0:0:0:
256,192,230975,1,8,0:0:0:0:
256,192,231162,1,8,0:0:0:0:
256,192,231350,1,0,0:0:0:0:
256,192,231725,1,8,0:0:0:0:
256,192,232100,1,0,0:0:0:0:
256,192,232287,1,8,0:0:0:0:
256,192,232475,1,0,0:0:0:0:
256,192,232662,1,0,0:0:0:0:
256,192,232850,1,8,0:0:0:0:
256,192,233225,1,0,0:0:0:0:
256,192,233412,1,8,0:0:0:0:
256,192,233600,1,0,0:0:0:0:
256,192,233787,1,0,0:0:0:0:
256,192,233975,1,8,0:0:0:0:
256,192,234162,1,8,0:0:0:0:
256,192,234350,1,0,0:0:0:0:
256,192,234725,1,8,0:0:0:0:
256,192,234912,1,0,0:0:0:0:
256,192,235100,1,0,0:0:0:0:
256,192,235287,1,8,0:0:0:0:
256,192,235662,1,0,0:0:0:0:
256,192,235850,1,8,0:0:0:0:
256,192,236037,1,0,0:0:0:0:
256,192,236225,1,0,0:0:0:0:
256,192,236412,1,8,0:0:0:0:
256,192,236600,1,0,0:0:0:0:
256,192,236787,1,0,0:0:0:0:
256,192,236975,1,8,0:0:0:0:
256,192,237350,1,0,0:0:0:0:
256,192,237537,1,8,0:0:0:0:
256,192,237725,1,0,0:0:0:0:
256,192,237912,1,0,0:0:0:0:
256,192,238100,1,8,0:0:0:0:
256,192,238287,1,0,0:0:0:0:
256,192,238475,1,0,0:0:0:0:
256,192,238662,1,8,0:0:0:0:
256,192,239037,1,0,0:0:0:0:
256,192,239225,1,0,0:0:0:0:
256,192,239412,1,8,0:0:0:0:
256,192,239787,1,0,0:0:0:0:
256,192,239975,1,8,0:0:0:0:
256,192,240162,1,8,0:0:0:0:
256,192,240350,1,4,0:0:0:0:
256,192,240537,1,8,0:0:0:0:
256,192,240631,1,8,0:0:0:0:
256,192,240725,1,0,0:0:0:0:
256,192,240912,1,0,0:0:0:0:
256,192,241100,1,8,0:0:0:0:
256,192,241475,1,8,0:0:0:0:
256,192,241662,1,0,0:0:0:0:
256,192,241850,1,8,0:0:0:0:
256,192,241943,1,0,0:0:0:0:
256,192,242037,1,8,0:0:0:0:
256,192,242225,1,0,0:0:0:0:
256,192,242412,1,8,0:0:0:0:
256,192,242600,1,0,0:0:0:0:
256,192,242787,1,0,0:0:0:0:
256,192,242881,1,8,0:0:0:0:
256,192,242975,1,8,0:0:0:0:
256,192,243162,1,8,0:0:0:0:
256,192,243350,1,0,0:0:0:0:
256,192,243725,1,8,0:0:0:0:
256,192,243912,1,0,0:0:0:0:
256,192,244100,1,8,0:0:0:0:
256,192,244287,1,0,0:0:0:0:
256,192,244381,1,0,0:0:0:0:
256,192,244475,1,8,0:0:0:0:
256,192,244662,1,0,0:0:0:0:
256,192,244850,1,8,0:0:0:0:
256,192,245225,1,0,0:0:0:0:
256,192,245412,1,0,0:0:0:0:
256,192,245600,1,8,0:0:0:0:
256,192,245787,1,0,0:0:0:0:
256,192,245881,1,0,0:0:0:0:
256,192,245975,1,8,0:0:0:0:
256,192,246162,1,8,0:0:0:0:
256,192,246350,1,0,0:0:0:0:
256,192,246725,1,8,0:0:0:0:
256,192,246912,1,0,0:0:0:0:
256,192,247100,1,8,0:0:0:0:
256,192,247287,1,0,0:0:0:0:
256,192,247381,1,0,0:0:0:0:
256,192,247475,1,8,0:0:0:0:
256,192,247662,1,0,0:0:0:0:
256,192,247850,1,8,0:0:0:0:
256,192,248225,1,0,0:0:0:0:
256,192,248412,1,0,0:0:0:0:
256,192,248600,1,8,0:0:0:0:
256,192,248787,1,0,0:0:0:0:
256,192,248881,1,0,0:0:0:0:
256,192,248975,1,8,0:0:0:0:
256,192,249068,1,8,0:0:0:0:
256,192,249162,1,0,0:0:0:0:
256,192,249350,1,8,0:0:0:0:
256,192,249725,1,0,0:0:0:0:
256,192,249912,1,0,0:0:0:0:
256,192,250100,1,8,0:0:0:0:
256,192,250287,1,0,0:0:0:0:
256,192,250381,1,0,0:0:0:0:
256,192,250475,1,8,0:0:0:0:
256,192,250662,1,0,0:0:0:0:
256,192,250756,1,0,0:0:0:0:
256,192,250850,1,8,0:0:0:0:
256,192,250943,1,8,0:0:0:0:
256,192,251037,1,0,0:0:0:0:
256,192,251225,12,0,252162,0:0:0:0:
256,192,252350,5,4,0:0:0:0:
256,192,252725,1,0,0:0:0:0:
256,192,253100,1,12,0:0:0:0:
256,192,253287,1,0,0:0:0:0:
256,192,253475,1,8,0:0:0:0:
256,192,253662,1,0,0:0:0:0:
256,192,253850,1,8,0:0:0:0:
256,192,254037,1,0,0:0:0:0:
256,192,254225,1,0,0:0:0:0:
256,192,254412,1,8,0:0:0:0:
256,192,254600,1,0,0:0:0:0:
256,192,254787,1,0,0:0:0:0:
256,192,254975,1,8,0:0:0:0:
256,192,255162,1,8,0:0:0:0:
256,192,255350,1,4,0:0:0:0:
256,192,255725,1,0,0:0:0:0:
256,192,256100,1,12,0:0:0:0:
256,192,256287,1,0,0:0:0:0:
256,192,256475,1,0,0:0:0:0:
256,192,256662,1,8,0:0:0:0:
256,192,256850,1,8,0:0:0:0:
256,192,257037,1,0,0:0:0:0:
256,192,257225,1,0,0:0:0:0:
256,192,257412,1,0,0:0:0:0:
256,192,257600,1,8,0:0:0:0:
256,192,257787,1,0,0:0:0:0:
256,192,257881,1,0,0:0:0:0:
256,192,257975,1,8,0:0:0:0:
256,192,258162,1,8,0:0:0:0:
256,192,258256,1,8,0:0:0:0:
256,192,258350,1,0,0:0:0:0:
256,192,258725,1,0,0:0:0:0:
256,192,259100,1,12,0:0:0:0:
256,192,259287,1,0,0:0:0:0:
256,192,259475,1,8,0:0:0:0:
256,192,259662,1,0,0:0:0:0:
256,192,259850,1,8,0:0:0:0:
256,192,260037,1,0,0:0:0:0:
256,192,260225,1,0,0:0:0:0:
256,192,260412,1,8,0:0:0:0:
256,192,260600,1,0,0:0:0:0:
256,192,260787,1,0,0:0:0:0:
256,192,260975,1,8,0:0:0:0:
256,192,261162,1,8,0:0:0:0:
256,192,261350,1,4,0:0:0:0:
256,192,261725,1,0,0:0:0:0:
256,192,261912,1,0,0:0:0:0:
256,192,262100,1,12,0:0:0:0:
256,192,262287,1,0,0:0:0:0:
256,192,262475,1,0,0:0:0:0:
256,192,262662,1,0,0:0:0:0:
256,192,262850,1,8,0:0:0:0:
256,192,263037,1,0,0:0:0:0:
256,192,263225,1,8,0:0:0:0:
256,192,263412,1,0,0:0:0:0:
256,192,263600,1,8,0:0:0:0:
256,192,263787,1,0,0:0:0:0:
256,192,263975,1,8,0:0:0:0:
256,192,264068,1,8,0:0:0:0:
256,192,264162,1,8,0:0:0:0:
256,192,264256,1,8,0:0:0:0:
256,192,264350,1,0,0:0:0:0:
256,192,264725,1,0,0:0:0:0:
256,192,265100,1,12,0:0:0:0:
256,192,265287,1,0,0:0:0:0:
256,192,265475,1,8,0:0:0:0:
256,192,265662,1,0,0:0:0:0:
256,192,265850,1,8,0:0:0:0:
256,192,266037,1,0,0:0:0:0:
256,192,266225,1,0,0:0:0:0:
256,192,266412,1,8,0:0:0:0:
256,192,266600,1,0,0:0:0:0:
256,192,266787,1,0,0:0:0:0:
256,192,266975,1,8,0:0:0:0:
256,192,267162,1,8,0:0:0:0:
256,192,267350,1,4,0:0:0:0:
256,192,267725,1,0,0:0:0:0:
256,192,268100,1,12,0:0:0:0:
256,192,268287,1,0,0:0:0:0:
256,192,268475,1,0,0:0:0:0:
256,192,268662,1,8,0:0:0:0:
256,192,268850,1,8,0:0:0:0:
256,192,269037,1,0,0:0:0:0:
256,192,269225,1,0,0:0:0:0:
256,192,269412,1,0,0:0:0:0:
256,192,269600,1,8,0:0:0:0:
256,192,269787,1,0,0:0:0:0:
256,192,269881,1,0,0:0:0:0:
256,192,269975,1,8,0:0:0:0:
256,192,270162,1,8,0:0:0:0:
256,192,270256,1,8,0:0:0:0:
256,192,270350,1,0,0:0:0:0:
256,192,270725,1,0,0:0:0:0:
256,192,271100,1,12,0:0:0:0:
256,192,271287,1,0,0:0:0:0:
256,192,271475,1,8,0:0:0:0:
256,192,271662,1,0,0:0:0:0:
256,192,271850,1,8,0:0:0:0:
256,192,272037,1,0,0:0:0:0:
256,192,272225,1,0,0:0:0:0:
256,192,272412,1,8,0:0:0:0:
256,192,272600,1,0,0:0:0:0:
256,192,272787,1,0,0:0:0:0:
256,192,272975,1,8,0:0:0:0:
256,192,273162,1,8,0:0:0:0:
256,192,273350,1,4,0:0:0:0:
256,192,273725,1,8,0:0:0:0:
256,192,273912,1,0,0:0:0:0:
256,192,274100,1,12,0:0:0:0:
256,192,274287,1,0,0:0:0:0:
256,192,274475,1,8,0:0:0:0:
256,192,274662,1,8,0:0:0:0:
256,192,274850,1,8,0:0:0:0:
256,192,275037,1,0,0:0:0:0:
256,192,275225,1,8,0:0:0:0:
256,192,275412,1,0,0:0:0:0:
256,192,275600,1,8,0:0:0:0:
256,192,275787,1,0,0:0:0:0:
256,192,275975,1,8,0:0:0:0:
256,192,276068,1,8,0:0:0:0:
256,192,276162,1,8,0:0:0:0:
256,192,276256,1,8,0:0:0:0:
256,192,276350,1,0,0:0:0:0:
256,192,276850,1,8,0:0:0:0:
256,192,277100,1,0,0:0:0:0:
256,192,277475,1,0,0:0:0:0:
256,192,277600,1,8,0:0:0:0:
256,192,277850,1,0,0:0:0:0:
256,192,278350,1,8,0:0:0:0:
256,192,278600,1,0,0:0:0:0:
256,192,278975,1,0,0:0:0:0:
256,192,279100,1,8,0:0:0:0:
256,192,279350,1,4,0:0:0:0:
256,192,279600,1,8,0:0:0:0:
256,192,279725,1,0,0:0:0:0:
256,192,279850,1,8,0:0:0:0:
256,192,280100,1,4,0:0:0:0:
256,192,280350,1,8,0:0:0:0:
256,192,280475,1,0,0:0:0:0:
256,192,280600,1,8,0:0:0:0:
256,192,280850,1,4,0:0:0:0:
256,192,281100,1,8,0:0:0:0:
256,192,281225,1,0,0:0:0:0:
256,192,281350,1,8,0:0:0:0:
256,192,281600,1,4,0:0:0:0:
256,192,281850,1,0,0:0:0:0:
256,192,281975,1,8,0:0:0:0:
256,192,282100,1,0,0:0:0:0:
256,192,282350,1,12,0:0:0:0:
256,192,282725,1,12,0:0:0:0:
256,192,283100,1,12,0:0:0:0:
256,192,283350,1,0,0:0:0:0:
256,192,283475,1,8,0:0:0:0:
256,192,283600,1,0,0:0:0:0:
256,192,283725,1,0,0:0:0:0:
256,192,283850,1,12,0:0:0:0:
256,192,284225,1,12,0:0:0:0:
256,192,284600,1,12,0:0:0:0:
256,192,284850,1,0,0:0:0:0:
256,192,284912,1,0,0:0:0:0:
256,192,284975,1,8,0:0:0:0:
256,192,285350,1,8,0:0:0:0:
256,192,285412,1,8,0:0:0:0:
256,192,285475,1,8,0:0:0:0:
256,192,285600,1,0,0:0:0:0:
256,192,285725,1,0,0:0:0:0:
256,192,285850,1,8,0:0:0:0:
256,192,286100,1,0,0:0:0:0:
256,192,286162,1,0,0:0:0:0:
256,192,286225,1,0,0:0:0:0:
256,192,286350,1,8,0:0:0:0:
256,192,286475,1,8,0:0:0:0:
256,192,286600,1,0,0:0:0:0:
256,192,286850,1,8,0:0:0:0:
256,192,286912,1,8,0:0:0:0:
256,192,286975,1,8,0:0:0:0:
256,192,287100,1,0,0:0:0:0:
256,192,287225,1,0,0:0:0:0:
256,192,287350,1,8,0:0:0:0:
256,192,287600,1,0,0:0:0:0:
256,192,287662,1,0,0:0:0:0:
256,192,287725,1,0,0:0:0:0:
256,192,287850,1,8,0:0:0:0:
256,192,287975,1,8,0:0:0:0:
256,192,288100,1,0,0:0:0:0:
256,192,288350,1,12,0:0:0:0:
256,192,288725,1,12,0:0:0:0:
256,192,289100,1,12,0:0:0:0:
256,192,289350,1,0,0:0:0:0:
256,192,289412,1,0,0:0:0:0:
256,192,289475,1,8,0:0:0:0:
256,192,289725,1,0,0:0:0:0:
256,192,289850,1,12,0:0:0:0:
256,192,290100,1,0,0:0:0:0:
256,192,290225,1,12,0:0:0:0:
256,192,290475,1,0,0:0:0:0:
256,192,290600,1,12,0:0:0:0:
