osu file format v14

[General]
AudioFilename: audio.mp3
AudioLeadIn: 0
PreviewTime: 108491
Countdown: 0
SampleSet: Drum
StackLeniency: 0.2
Mode: 0
LetterboxInBreaks: 0
WidescreenStoryboard: 0

[Editor]
Bookmarks: 1825,44491,63158,65824,76491,87158,103158,108491,129824,151158,164491,175158,196491,217824,249824,271158,292491,303158,324491,329824
DistanceSpacing: 1
BeatDivisor: 4
GridSize: 4
TimelineZoom: 3.599998

[Metadata]
Title:Smoke and Mirrors
TitleUnicode:Smoke and Mirrors
Artist:Bloodshot Dawn
ArtistUnicode:Bloodshot Dawn
Creator:KriPy
Version:Demons
Source:
Tags:
BeatmapID:2123478
BeatmapSetID:1014632

[Difficulty]
HPDrainRate:4.3
CircleSize:4.3
OverallDifficulty:9.3
ApproachRate:9.3
SliderMultiplier:1.4
SliderTickRate:1

[Events]
//Background and Video events
0,0,"bg.jpg",0,0
//Break Periods
//Storyboard Layer 0 (Background)
//Storyboard Layer 1 (Fail)
//Storyboard Layer 2 (Pass)
//Storyboard Layer 3 (Foreground)
//Storyboard Layer 4 (Overlay)
//Storyboard Sound Samples

[TimingPoints]
1825,400,4,3,0,100,1,0
16425,-142.857142857143,4,3,0,100,0,0
17025,-100,4,3,0,100,0,0
20225,-100,4,3,0,70,0,0
20625,-100,4,3,0,40,0,0
21025,-100,4,3,0,100,0,0
26425,-76.9230769230769,4,3,0,100,0,0
26625,-100,4,3,0,100,0,0
33825,333.333333333333,4,3,0,100,1,0
38491,-66.6666666666667,4,3,0,100,0,0
38824,-100,4,3,0,100,0,0
44491,-83.3333333333333,4,3,0,100,0,0
47324,-71.4285714285714,4,3,0,100,0,0
48658,-62.5,4,3,0,100,0,0
49824,-90.9090909090909,4,3,0,100,0,0
55158,-83.3333333333333,4,3,0,100,0,0
57991,-71.4285714285714,4,3,0,100,0,0
59324,-62.5,4,3,0,100,0,0
60491,-76.9230769230769,4,3,0,100,0,0
65824,-47.6190476190476,4,3,0,100,0,0
108491,-100,4,3,0,100,0,1
129824,-100,4,3,0,100,0,0
196491,-100,4,3,0,100,0,1
217824,-100,4,3,0,100,0,0
271158,-100,4,3,0,100,0,1
292491,-100,4,3,0,100,0,0
303158,-100,4,3,0,100,0,1
324491,-100,4,3,0,100,0,0

[Colours]
Combo1 : 49,80,125
Combo2 : 106,162,195

[HitObjects]
243,183,1825,5,4,0:0:0:0:
243,183,2425,6,0,L|234:266,1,70
145,306,2825,2,0,L|155:229,1,70
96,143,3225,2,0,P|90:201|165:233,1,140
305,123,3825,2,0,B|232:69|160:120|160:120|82:174|10:111,1,315,0|0,0:0|2:0,0:0:0:0:
15,114,4825,5,0,0:0:0:0:
355,321,5025,1,4,0:0:0:0:
355,321,5625,5,0,0:0:0:0:
365,247,5825,1,0,0:0:0:0:
375,171,6025,1,0,0:0:0:0:
385,96,6225,1,0,0:0:0:0:
499,216,6425,2,0,P|436:252|357:238,1,140
234,117,7025,2,0,L|259:310,1,175,0|0,0:0|2:0,0:0:0:0:
257,290,7625,5,0,0:0:0:0:
372,245,7825,2,8,L|368:286,1,23.3333333333333
380,168,8025,1,0,0:0:0:0:
99,137,8225,1,4,0:0:0:0:
99,137,8825,6,0,L|185:125,1,70
256,190,9225,2,0,L|181:200,1,70
98,266,9625,2,0,P|162:263|185:196,1,140
2,143,10225,2,0,L|218:113,1,210
290,103,11025,1,0,0:0:0:0:
369,91,11225,1,0,0:0:0:0:
277,281,11425,6,0,L|268:360,1,70,4|0,0:0|0:0,0:0:0:0:
174,272,11825,2,0,L|168:196,1,70
161,45,12225,1,0,0:0:0:0:
161,45,12291,1,0,0:0:0:0:
161,45,12358,1,0,0:0:0:0:
161,45,12425,1,0,0:0:0:0:
277,281,12625,2,0,P|420:269|450:206,1,210,4|0,0:0|0:0,0:0:0:0:
369,91,13425,6,0,L|357:20,2,70,4|0|0,0:0|0:0|0:0,0:0:0:0:
277,281,14025,2,0,L|265:352,2,70,4|0|0,0:0|0:0|0:0,0:0:0:0:
130,97,14625,1,4,0:0:0:0:
130,97,15225,6,0,L|122:167,1,70
40,236,15625,2,0,L|48:166,1,70
222,170,16025,2,0,P|170:199|126:163,1,105,0|0,0:0|2:0,0:0:0:0:
123,166,16425,6,0,L|132:79,1,73.4999977569581,0|0,0:0|2:0,0:0:0:0:
130,92,16825,1,0,0:0:0:0:
222,170,17025,2,8,L|219:204,1,23.3333333333333
213,274,17225,1,0,0:0:0:0:
68,303,17425,2,0,L|60:214,1,70
372,154,17825,1,4,0:0:0:0:
372,154,18425,5,0,0:0:0:0:
445,168,18625,1,0,0:0:0:0:
456,94,18825,1,0,0:0:0:0:
383,82,19025,1,0,0:0:0:0:
281,240,19225,2,0,P|312:311|379:333,1,140
482,234,19825,5,8,0:0:0:0:
482,234,19891,1,8,0:0:0:0:
482,234,19958,2,8,L|430:243,1,46.6666666666667
356,255,20225,1,8,0:0:0:0:
356,255,20291,1,8,0:0:0:0:
356,255,20358,2,8,L|304:264,1,46.6666666666667
229,277,20625,1,8,0:0:0:0:
229,277,20691,1,8,0:0:0:0:
229,277,20758,2,8,L|177:286,1,46.6666666666667
13,311,21025,6,0,P|20:242|110:200,1,175,4|0,0:0|0:0,0:0:0:0:
223,381,21625,2,0,L|231:261,1,105,4|0,0:0|0:0,0:0:0:0:
393,113,22025,1,0,0:0:0:0:
400,126,22125,1,0,0:0:0:0:
406,138,22225,6,0,L|188:119,1,210,4|0,0:0|0:0,0:0:0:0:
85,120,23025,2,0,L|302:140,1,210
369,147,23825,1,0,0:0:0:0:
445,154,24025,1,0,0:0:0:0:
230,276,24225,6,0,L|143:283,2,70,4|0|0,0:0|0:0|0:0,0:0:0:0:
433,341,24825,2,0,L|439:258,1,70,4|0,0:0|0:0,0:0:0:0:
439,265,25091,1,0,0:0:0:0:
439,259,25158,1,0,0:0:0:0:
439,254,25225,1,0,0:0:0:0:
376,74,25425,6,0,L|363:286,1,210
260,343,26225,2,0,L|252:269,1,70
253,273,26475,6,0,L|227:276,3,22.7499989585877,0|0|0|8,0:0|0:0|0:0|0:0,0:0:0:0:
63,171,26825,2,4,P|82:263|160:280,1,175
512,247,27425,1,4,0:0:0:0:
256,192,27625,12,0,33825,0:0:0:0:
127,164,38491,6,0,P|167:140|223:148,1,105.000004005432
327,316,38824,2,0,L|335:192,1,105
347,8,39158,1,0,0:0:0:0:
347,8,39658,6,0,L|351:56,1,35
475,225,39824,1,8,0:0:0:0:
443,222,39908,1,0,0:0:0:0:
415,219,39991,1,0,0:0:0:0:
390,217,40074,1,0,0:0:0:0:
368,215,40158,1,0,0:0:0:0:
350,214,40241,1,0,0:0:0:0:
336,212,40324,1,0,0:0:0:0:
325,211,40408,1,0,0:0:0:0:
318,211,40491,2,0,L|324:124,1,70
161,76,40991,6,0,L|157:124,1,35
33,293,41157,1,8,0:0:0:0:
65,290,41241,1,0,0:0:0:0:
93,287,41324,1,0,0:0:0:0:
118,285,41407,1,0,0:0:0:0:
140,283,41491,1,0,0:0:0:0:
158,282,41574,1,0,0:0:0:0:
172,280,41657,1,0,0:0:0:0:
183,279,41741,1,0,0:0:0:0:
190,279,41824,2,0,L|181:184,1,70
329,150,42324,6,0,L|333:198,1,35
457,367,42490,1,8,0:0:0:0:
425,364,42574,1,0,0:0:0:0:
397,361,42657,1,0,0:0:0:0:
372,359,42740,1,0,0:0:0:0:
352,359,42824,6,0,L|349:321,5,23.3333333333333
338,255,43158,6,0,L|335:217,5,23.3333333333333
329,150,43491,6,0,L|326:112,5,23.3333333333333
321,43,43824,5,8,0:0:0:0:
140,320,44491,6,0,L|145:383,1,41.9999987182618,4|0,0:0|0:0,0:0:0:0:
67,324,44658,1,0,0:0:0:0:
76,283,44741,1,0,0:0:0:0:
106,253,44824,5,8,0:0:0:0:
147,245,44908,1,0,0:0:0:0:
186,260,44991,1,0,0:0:0:0:
211,294,45074,1,0,0:0:0:0:
213,336,45158,5,8,0:0:0:0:
239,369,45241,1,0,0:0:0:0:
279,383,45324,1,0,0:0:0:0:
320,372,45408,1,0,0:0:0:0:
349,341,45491,5,8,0:0:0:0:
356,300,45574,1,0,0:0:0:0:
339,261,45658,1,0,0:0:0:0:
305,237,45741,1,0,0:0:0:0:
293,196,45824,5,8,0:0:0:0:
302,155,45907,1,0,0:0:0:0:
332,125,45990,1,0,0:0:0:0:
373,117,46074,1,0,0:0:0:0:
412,132,46157,5,8,0:0:0:0:
437,166,46240,1,0,0:0:0:0:
439,208,46324,1,0,0:0:0:0:
419,245,46407,1,0,0:0:0:0:
381,265,46490,5,8,0:0:0:0:
339,261,46574,1,0,0:0:0:0:
306,235,46657,1,0,0:0:0:0:
293,196,46741,1,0,0:0:0:0:
302,155,46824,5,8,0:0:0:0:
292,114,46907,1,0,0:0:0:0:
262,85,46991,1,0,0:0:0:0:
221,76,47074,1,0,0:0:0:0:
181,91,47158,6,0,L|146:136,1,41.9999987182618,8|0,0:0|0:0,0:0:0:0:
237,155,47324,5,0,0:0:0:0:
263,114,47408,1,0,0:0:0:0:
263,65,47491,5,8,0:0:0:0:
237,24,47574,1,0,0:0:0:0:
192,3,47658,1,0,0:0:0:0:
144,10,47741,1,0,0:0:0:0:
106,42,47824,5,8,0:0:0:0:
93,89,47908,1,0,0:0:0:0:
106,137,47991,1,0,0:0:0:0:
144,169,48075,1,0,0:0:0:0:
192,176,48158,5,8,0:0:0:0:
230,208,48241,1,0,0:0:0:0:
243,255,48324,1,0,0:0:0:0:
230,303,48408,1,0,0:0:0:0:
192,335,48491,6,0,L|136:344,1,48.9999985046387,8|0,0:0|0:0,0:0:0:0:
169,249,48658,5,0,0:0:0:0:
224,257,48741,1,0,0:0:0:0:
267,294,48825,5,8,0:0:0:0:
282,348,48908,1,0,0:0:0:0:
330,376,48990,1,0,0:0:0:0:
385,384,49074,1,0,0:0:0:0:
436,361,49157,1,8,0:0:0:0:
475,300,49240,1,0,0:0:0:0:
475,227,49324,5,0,0:0:0:0:
436,166,49407,1,0,0:0:0:0:
370,136,49491,6,0,L|292:132,3,56,8|0|0|0,0:0|0:0|0:0|0:0,0:0:0:0:
289,208,49824,5,8,0:0:0:0:
262,230,49908,1,0,0:0:0:0:
228,235,49991,1,0,0:0:0:0:
196,221,50074,1,0,0:0:0:0:
178,192,50158,5,8,0:0:0:0:
178,157,50241,1,0,0:0:0:0:
196,128,50324,1,0,0:0:0:0:
228,113,50408,1,0,0:0:0:0:
262,118,50491,5,8,0:0:0:0:
288,140,50575,1,0,0:0:0:0:
322,145,50658,1,0,0:0:0:0:
354,131,50741,1,0,0:0:0:0:
372,102,50825,5,8,0:0:0:0:
372,67,50908,1,0,0:0:0:0:
354,38,50991,1,0,0:0:0:0:
322,23,51075,1,0,0:0:0:0:
288,28,51158,5,8,0:0:0:0:
262,51,51241,1,0,0:0:0:0:
252,84,51325,1,0,0:0:0:0:
261,117,51408,1,0,0:0:0:0:
252,151,51491,5,8,0:0:0:0:
225,173,51575,1,0,0:0:0:0:
191,178,51658,1,0,0:0:0:0:
159,164,51741,1,0,0:0:0:0:
141,135,51825,5,8,0:0:0:0:
141,100,51908,1,0,0:0:0:0:
159,71,51991,1,0,0:0:0:0:
191,56,52075,1,0,0:0:0:0:
225,61,52158,5,8,0:0:0:0:
252,84,52241,1,0,0:0:0:0:
261,117,52325,1,0,0:0:0:0:
252,151,52407,1,0,0:0:0:0:
225,173,52491,5,8,0:0:0:0:
191,178,52574,1,0,0:0:0:0:
159,164,52657,1,0,0:0:0:0:
141,135,52741,1,0,0:0:0:0:
109,120,52825,5,8,0:0:0:0:
75,125,52908,1,0,0:0:0:0:
49,148,52991,1,0,0:0:0:0:
39,181,53075,1,0,0:0:0:0:
49,215,53158,5,8,0:0:0:0:
75,237,53242,1,0,0:0:0:0:
109,242,53325,1,0,0:0:0:0:
141,228,53408,1,0,0:0:0:0:
159,199,53492,5,8,0:0:0:0:
159,164,53575,1,0,0:0:0:0:
141,135,53658,1,0,0:0:0:0:
109,120,53741,1,0,0:0:0:0:
75,125,53824,6,0,L|47:150,1,38.5000011749268,8|0,0:0|0:0,0:0:0:0:
191,56,53991,2,0,L|244:63,3,38.5000011749268
75,125,54324,2,0,L|34:119,1,38.5000011749268,8|0,0:0|0:0,0:0:0:0:
252,151,54491,5,8,0:0:0:0:
259,149,54574,1,0,0:0:0:0:
267,148,54658,1,0,0:0:0:0:
296,127,54741,5,8,0:0:0:0:
304,126,54824,1,0,0:0:0:0:
312,125,54908,1,0,0:0:0:0:
334,133,54991,5,8,0:0:0:0:
342,132,55074,1,0,0:0:0:0:
392,80,55158,6,0,L|440:92,1,41.9999987182618,8|0,0:0|0:0,0:0:0:0:
402,5,55325,1,0,0:0:0:0:
360,11,55408,1,0,0:0:0:0:
328,39,55491,5,8,0:0:0:0:
317,79,55575,1,0,0:0:0:0:
328,120,55658,1,0,0:0:0:0:
360,147,55742,1,0,0:0:0:0:
402,153,55825,5,8,0:0:0:0:
434,181,55908,1,0,0:0:0:0:
445,221,55992,1,0,0:0:0:0:
434,262,56074,1,0,0:0:0:0:
402,289,56158,5,8,0:0:0:0:
360,295,56241,1,0,0:0:0:0:
322,278,56324,1,0,0:0:0:0:
299,242,56408,1,0,0:0:0:0:
261,225,56491,5,8,0:0:0:0:
219,231,56574,1,0,0:0:0:0:
187,259,56657,1,0,0:0:0:0:
176,299,56741,1,0,0:0:0:0:
188,340,56824,5,8,0:0:0:0:
219,367,56908,1,0,0:0:0:0:
261,373,56991,1,0,0:0:0:0:
299,356,57074,1,0,0:0:0:0:
322,320,57158,5,8,0:0:0:0:
322,278,57241,1,0,0:0:0:0:
299,243,57324,1,0,0:0:0:0:
261,226,57407,1,0,0:0:0:0:
219,231,57491,5,8,0:0:0:0:
187,259,57574,1,0,0:0:0:0:
145,264,57658,1,0,0:0:0:0:
107,247,57741,1,0,0:0:0:0:
84,211,57824,6,0,L|84:160,1,41.9999987182618,8|0,0:0|0:0,0:0:0:0:
173,208,57991,5,0,0:0:0:0:
160,256,58075,1,0,0:0:0:0:
122,288,58158,5,8,0:0:0:0:
74,295,58242,1,0,0:0:0:0:
29,274,58325,1,0,0:0:0:0:
3,233,58408,1,0,0:0:0:0:
3,184,58492,5,8,0:0:0:0:
29,143,58575,1,0,0:0:0:0:
74,122,58658,1,0,0:0:0:0:
122,129,58742,1,0,0:0:0:0:
160,161,58825,5,8,0:0:0:0:
174,209,58908,1,0,0:0:0:0:
211,241,58991,1,0,0:0:0:0:
259,248,59075,1,0,0:0:0:0:
304,227,59158,6,0,L|328:180,1,48.9999985046387,8|0,0:0|0:0,0:0:0:0:
223,172,59324,5,0,0:0:0:0:
208,226,59408,1,0,0:0:0:0:
224,280,59490,5,8,0:0:0:0:
266,316,59574,1,0,0:0:0:0:
321,324,59657,1,0,0:0:0:0:
372,301,59740,1,0,0:0:0:0:
402,254,59824,5,8,0:0:0:0:
409,180,59908,1,0,0:0:0:0:
377,114,59991,1,0,0:0:0:0:
315,73,60074,1,0,0:0:0:0:
241,71,60158,6,0,L|154:91,3,56,8|0|0|0,0:0|0:0|0:0|0:0,0:0:0:0:
384,40,60491,5,8,0:0:0:0:
419,70,60574,1,0,0:0:0:0:
431,114,60657,1,0,0:0:0:0:
419,158,60741,1,0,0:0:0:0:
384,187,60824,5,8,0:0:0:0:
339,194,60908,1,0,0:0:0:0:
305,223,60991,1,0,0:0:0:0:
292,267,61074,1,0,0:0:0:0:
305,311,61158,5,8,0:0:0:0:
330,273,61241,1,0,0:0:0:0:
330,227,61325,1,0,0:0:0:0:
305,189,61408,1,0,0:0:0:0:
264,170,61491,5,8,0:0:0:0:
219,176,61575,1,0,0:0:0:0:
185,206,61658,1,0,0:0:0:0:
172,250,61741,1,0,0:0:0:0:
137,279,61824,5,8,0:0:0:0:
92,286,61908,1,0,0:0:0:0:
51,267,61991,1,0,0:0:0:0:
26,229,62074,1,0,0:0:0:0:
26,183,62158,5,8,0:0:0:0:
51,145,62241,1,0,0:0:0:0:
92,126,62324,1,0,0:0:0:0:
137,132,62408,1,0,0:0:0:0:
172,162,62491,5,8,0:0:0:0:
184,206,62574,1,0,0:0:0:0:
172,250,62658,1,0,0:0:0:0:
184,294,62741,1,0,0:0:0:0:
218,323,62824,5,8,0:0:0:0:
263,330,62908,1,0,0:0:0:0:
304,311,62991,1,0,0:0:0:0:
329,273,63074,1,0,0:0:0:0:
329,227,63158,2,0,L|381:219,1,45.4999979171754
506,162,63324,5,8,0:0:0:0:
494,161,63408,1,8,0:0:0:0:
484,158,63491,1,8,0:0:0:0:
476,157,63574,1,8,0:0:0:0:
468,155,63658,1,8,0:0:0:0:
460,154,63741,1,8,0:0:0:0:
452,153,63824,2,0,L|448:208,7,45.4999979171754
183,115,64491,6,0,L|125:126,1,45.4999979171754
161,0,64658,1,8,0:0:0:0:
234,10,64741,1,8,0:0:0:0:
290,58,64825,1,8,0:0:0:0:
310,129,64908,1,8,0:0:0:0:
290,200,64992,1,8,0:0:0:0:
234,248,65075,1,8,0:0:0:0:
162,261,65158,2,0,L|151:335,1,45.4999979171754
452,377,65324,1,8,0:0:0:0:
428,306,65408,1,8,0:0:0:0:
357,286,65491,2,0,L|347:206,3,45.4999979171754
96,230,65824,5,4,0:0:0:0:
408,194,65991,1,0,0:0:0:0:
