osu file format v14

[General]
AudioFilename: 08 - Moon Light Wave.mp3
AudioLeadIn: 0
PreviewTime: 84548
Countdown: 0
SampleSet: None
StackLeniency: 0.3
Mode: 0
LetterboxInBreaks: 0
WidescreenStoryboard: 0

[Editor]
DistanceSpacing: 0.7
BeatDivisor: 4
GridSize: 4
TimelineZoom: 2.1

[Metadata]
Title:Moon Light Wave
TitleUnicode:Moon Light Wave
Artist:Blood Stain Child
ArtistUnicode:Blood Stain Child
Creator:-Genesis
Version:LUNATiC
Source:
Tags:alternative metal melodic everything will face away
BeatmapID:862916
BeatmapSetID:396682

[Difficulty]
HPDrainRate:5.5
CircleSize:3.8
OverallDifficulty:8.5
ApproachRate:9.7
SliderMultiplier:1.8
SliderTickRate:1

[Events]
//Background and Video events
0,0,"moon light wave.jpg",0,0
//Break Periods
2,133298,133973
//Storyboard Layer 0 (Background)
//Storyboard Layer 1 (Fail)
//Storyboard Layer 2 (Pass)
//Storyboard Layer 3 (Foreground)
//Storyboard Sound Samples

[TimingPoints]
540,300,4,3,0,60,1,0
4290,-83.3333333333333,4,3,0,60,0,0
15990,-83.3333333333333,4,3,0,5,0,0
16140,-83.3333333333333,4,3,0,60,0,0
36840,-100,4,3,0,60,0,0
46140,-76.9230769230769,4,3,0,75,0,1
56040,-100,4,3,0,60,0,0
62340,-83.3333333333333,4,3,0,60,0,0
84540,-76.9230769230769,4,3,0,75,0,1
103740,-142.857142857143,4,3,0,60,0,0
112890,-100,4,3,0,60,0,0
113340,-83.3333333333334,4,3,0,60,0,0
134940,-76.9230769230769,4,3,0,75,0,1
154140,-100,4,3,0,60,0,0
160065,-100,4,3,0,40,0,0

[Colours]
Combo1 : 0,255,64
Combo2 : 174,28,164
Combo3 : 4,60,251
Combo4 : 222,33,33
Combo5 : 255,255,255

[HitObjects]
104,256,540,6,0,B|220:268|220:268|192:240,1,135,0|0,0:0|0:0,0:0:0:0:
192,236,840,1,0,0:0:0:0:
336,280,990,1,0,0:0:0:0:
356,272,1290,5,0,0:0:0:0:
172,208,1440,1,0,0:0:0:0:
332,136,1590,1,0,0:0:0:0:
156,220,1740,1,0,0:0:0:0:
212,68,1890,5,0,0:0:0:0:
212,68,2040,1,0,0:0:0:0:
252,224,2190,2,0,B|264:340|264:340|236:312,1,135,0|0,0:0|0:0,0:0:0:0:
232,312,2490,1,0,0:0:0:0:
300,124,2640,1,0,0:0:0:0:
336,344,2790,1,0,0:0:0:0:
280,112,2940,6,0,P|253:76|201:52,1,90,0|0,0:0|0:0,0:0:0:0:
128,224,3240,1,0,0:0:0:0:
328,312,3390,1,0,0:0:0:0:
344,324,3690,5,0,0:0:0:0:
224,240,3840,1,0,0:0:0:0:
272,112,3990,1,0,0:0:0:0:
444,232,4140,1,0,0:0:0:0:
328,200,4290,6,0,P|312:236|312:296,1,53.9999983520508,0|0,0:0|0:0,0:0:0:0:
245,137,4440,2,0,P|213:160|183:212,1,53.9999983520508,0|0,0:0|0:0,0:0:0:0:
208,136,4740,6,0,P|140:152|100:232,1,161.999995056153,0|0,0:0|0:0,0:0:0:0:
164,342,5040,2,0,P|232:326|272:246,1,161.999995056153,0|0,0:0|0:0,0:0:0:0:
291,119,5340,2,0,P|259:67|211:47,1,107.999996704102,0|0,0:0|0:0,0:0:0:0:
100,229,5640,5,0,0:0:0:0:
272,248,5790,1,0,0:0:0:0:
100,128,5940,1,0,0:0:0:0:
383,167,6090,2,8,P|319:123|283:119,1,107.999996704102,0|0,0:0|0:0,0:0:0:0:
184,256,6390,1,0,0:0:0:0:
393,274,6540,1,0,0:0:0:0:
172,176,6690,6,0,P|116:212|164:336,1,215.999993408203,0|0,0:0|0:0,0:0:0:0:
396,152,7140,2,0,P|460:166|489:246,1,107.999996704102,0|0,0:0|0:0,0:0:0:0:
393,274,7440,2,0,L|283:277,1,107.999996704102,0|0,0:0|0:0,0:0:0:0:
156,80,7740,2,0,L|265:76,1,107.999996704102,0|0,0:0|0:0,0:0:0:0:
468,128,8040,5,0,0:0:0:0:
304,184,8190,1,0,0:0:0:0:
496,128,8340,1,0,0:0:0:0:
276,184,8490,1,0,0:0:0:0:
432,40,8640,1,0,0:0:0:0:
372,268,8790,1,0,0:0:0:0:
372,268,8940,1,0,0:0:0:0:
200,160,9090,6,0,P|232:116|292:104,1,107.999996704102,0|0,0:0|0:0,0:0:0:0:
376,292,9390,1,0,0:0:0:0:
182,112,9540,2,0,P|231:89|289:108,1,107.999996704102,0|0,0:0|0:0,0:0:0:0:
380,316,9840,1,0,0:0:0:0:
80,260,9990,5,0,0:0:0:0:
68,251,10140,2,0,B|119:185|119:185|183:139,1,161.999995056153,0|0,0:0|0:0,0:0:0:0:
220,144,10440,1,0,0:0:0:0:
360,64,10590,2,0,P|368:120|335:170,1,107.999996704102,0|0,0:0|0:0,0:0:0:0:
92,56,10890,1,0,0:0:0:0:
232,284,11040,1,0,0:0:0:0:
172,32,11190,1,0,0:0:0:0:
176,308,11340,2,0,L|323:326,1,107.999996704102,0|0,0:0|0:0,0:0:0:0:
164,52,11640,5,0,0:0:0:0:
192,326,11790,2,0,L|340:331,1,107.999996704102,0|0,0:0|0:0,0:0:0:0:
392,144,12090,1,0,0:0:0:0:
392,144,12165,1,0,0:0:0:0:
392,144,12240,1,0,0:0:0:0:
196,192,12390,1,0,0:0:0:0:
392,96,12540,2,0,P|444:136|356:168,1,161.999995056153,0|0,0:0|0:0,0:0:0:0:
308,192,12840,6,0,L|264:88,1,107.999996704102,0|0,0:0|0:0,0:0:0:0:
208,296,13140,1,0,0:0:0:0:
188,56,13290,1,0,0:0:0:0:
136,336,13440,1,0,0:0:0:0:
240,40,13590,1,0,0:0:0:0:
280,332,13740,1,0,0:0:0:0:
208,24,13890,5,0,0:0:0:0:
204,360,14040,1,0,0:0:0:0:
340,72,14190,1,0,0:0:0:0:
100,216,14340,1,0,0:0:0:0:
392,72,14490,1,0,0:0:0:0:
112,104,14640,1,0,0:0:0:0:
296,320,14790,1,0,0:0:0:0:
416,56,14940,1,0,0:0:0:0:
256,192,15015,12,0,16065,0:0:0:0:
324,136,16140,5,0,0:0:0:0:
228,264,16440,5,0,0:0:0:0:
328,112,16590,1,0,0:0:0:0:
318,74,16665,1,0,0:0:0:0:
282,61,16740,1,0,0:0:0:0:
250,84,16815,1,0,0:0:0:0:
252,123,16890,1,0,0:0:0:0:
220,152,16965,1,0,0:0:0:0:
184,133,17040,1,0,0:0:0:0:
151,153,17115,1,0,0:0:0:0:
148,192,17190,1,0,0:0:0:0:
179,216,17265,6,0,L|242:202,1,53.9999983520508,0|0,0:0|0:0,0:0:0:0:
244,224,17640,5,0,0:0:0:0:
400,276,17790,2,0,P|444:240|456:176,1,107.999996704102,0|0,0:0|0:0,0:0:0:0:
356,56,18090,2,0,P|312:92|300:156,2,107.999996704102,0|0|0,0:0|0:0|0:0,0:0:0:0:
304,220,18540,2,0,P|248:208|220:164,1,107.999996704102,0|0,0:0|0:0,0:0:0:0:
88,84,18840,1,0,0:0:0:0:
160,264,18990,2,0,L|288:296,1,107.999996704102,0|0,0:0|0:0,0:0:0:0:
408,248,19290,5,0,0:0:0:0:
304,120,19440,1,0,0:0:0:0:
352,336,19590,1,0,0:0:0:0:
172,184,19740,2,0,P|104:200|104:312,1,161.999995056153,0|0,0:0|0:0,0:0:0:0:
163,328,20040,2,0,L|267:288,2,107.999996704102,0|0|0,0:0|0:0|0:0,0:0:0:0:
408,248,20490,2,0,L|304:208,1,107.999996704102,0|0,0:0|0:0,0:0:0:0:
132,240,20790,2,0,P|120:188|144:128,1,107.999996704102,0|0,0:0|0:0,0:0:0:0:
268,116,21090,5,0,0:0:0:0:
268,116,21240,1,0,0:0:0:0:
160,284,21390,2,0,P|130:239|132:174,1,107.999996704102,0|0,0:0|0:0,0:0:0:0:
300,116,21690,5,0,0:0:0:0:
276,292,21840,1,0,0:0:0:0:
188,168,21990,1,0,0:0:0:0:
388,232,22140,1,0,0:0:0:0:
136,108,22440,6,0,P|108:160|124:216,1,107.999996704102,0|0,0:0|0:0,0:0:0:0:
276,292,22740,2,0,P|304:240|288:184,1,107.999996704102,0|0,0:0|0:0,0:0:0:0:
200,40,23040,1,0,0:0:0:0:
220,228,23190,1,0,0:0:0:0:
280,80,23340,1,0,0:0:0:0:
148,284,23490,6,0,B|200:320|200:320|260:304|260:304|344:348|424:300,1,269.999991760254,0|0,0:0|0:0,0:0:0:0:
468,252,23940,2,0,P|420:228|352:228,1,107.999996704102,0|0,0:0|0:0,0:0:0:0:
192,160,24240,2,0,P|240:136|308:136,1,107.999996704102,0|0,0:0|0:0,0:0:0:0:
464,72,24540,2,0,L|328:60,1,107.999996704102,0|0,0:0|0:0,0:0:0:0:
152,72,24840,1,0,0:0:0:0:
264,232,24990,1,0,0:0:0:0:
236,48,25140,1,0,0:0:0:0:
172,232,25290,1,0,0:0:0:0:
180,24,25440,5,0,0:0:0:0:
216,268,25590,1,0,0:0:0:0:
356,62,25740,2,0,P|428:112|456:216,1,161.999995056153,0|0,0:0|0:0,0:0:0:0:
404,264,26040,2,0,L|320:176,1,107.999996704102,0|0,0:0|0:0,0:0:0:0:
232,32,26340,1,0,0:0:0:0:
204,240,26490,1,0,0:0:0:0:
304,76,26640,1,0,0:0:0:0:
332,284,26790,1,0,0:0:0:0:
444,40,26940,6,0,P|504:128|456:232,1,215.999993408203,0|0,0:0|0:0,0:0:0:0:
204,240,27390,2,0,L|88:204,1,107.999996704102,0|0,0:0|0:0,0:0:0:0:
304,76,27690,2,0,L|420:116,1,107.999996704102,0|0,0:0|0:0,0:0:0:0:
296,328,27990,2,0,L|296:260,1,53.9999983520508,0|0,0:0|0:0,0:0:0:0:
280,184,28140,2,0,P|212:136|96:120,1,161.999995056153,0|0,0:0|0:0,0:0:0:0:
56,108,28440,2,0,P|124:60|240:44,1,161.999995056153,0|0,0:0|0:0,0:0:0:0:
304,76,28740,2,0,L|416:116,1,107.999996704102,0|0,0:0|0:0,0:0:0:0:
176,268,29040,5,0,0:0:0:0:
176,268,29190,1,0,0:0:0:0:
405,112,29340,2,0,P|433:220|365:296,1,215.999993408203,0|0,0:0|0:0,0:0:0:0:
168,144,29790,5,0,0:0:0:0:
344,240,29940,1,0,0:0:0:0:
134,146,30090,1,0,0:0:0:0:
377,237,30240,1,0,0:0:0:0:
91,152,30390,1,0,0:0:0:0:
420,231,30540,6,0,P|372:192|312:180,1,107.999996704102,0|0,0:0|0:0,0:0:0:0:
91,152,30840,2,0,P|140:192|200:204,1,107.999996704102,0|0,0:0|0:0,0:0:0:0:
428,280,31140,2,0,L|380:168,1,107.999996704102,0|0,0:0|0:0,0:0:0:0:
152,72,31440,1,0,0:0:0:0:
400,104,31590,1,0,0:0:0:0:
76,104,31740,2,0,P|49:202|112:318,1,215.999993408203,0|0,0:0|0:0,0:0:0:0:
336,240,32190,6,0,L|216:204,1,107.999996704102,0|0,0:0|0:0,0:0:0:0:
400,104,32490,2,0,L|520:68,1,107.999996704102,0|0,0:0|0:0,0:0:0:0:
240,64,32790,1,0,0:0:0:0:
432,204,32940,1,0,0:0:0:0:
213,109,33090,2,0,P|166:105|186:63,1,107.999996704102,0|0,0:0|0:0,0:0:0:0:
405,249,33390,2,0,P|451:245|431:203,1,107.999996704102,0|0,0:0|0:0,0:0:0:0:
152,184,33690,5,0,0:0:0:0:
152,184,33840,1,0,0:0:0:0:
388,128,33990,1,0,0:0:0:0:
116,264,34140,2,0,B|76:288|76:288|124:340|208:288,1,161.999995056153,0|0,0:0|0:0,0:0:0:0:
260,232,34440,1,0,0:0:0:0:
216,52,34590,1,0,0:0:0:0:
372,268,34740,1,0,0:0:0:0:
304,72,34890,1,0,0:0:0:0:
508,252,35040,5,0,0:0:0:0:
388,44,35190,1,0,0:0:0:0:
325,336,35340,2,0,P|253:304|282:214,1,161.999995056153,0|0,0:0|0:0,0:0:0:0:
372,268,35640,6,0,L|376:148,1,107.999996704102,0|0,0:0|0:0,0:0:0:0:
180,152,35940,1,0,0:0:0:0:
388,44,36090,1,0,0:0:0:0:
388,44,36165,1,0,0:0:0:0:
388,44,36240,1,0,0:0:0:0:
220,256,36390,1,0,0:0:0:0:
472,40,36540,1,0,0:0:0:0:
484,48,36840,5,0,0:0:0:0:
375,160,36990,1,0,0:0:0:0:
375,160,37140,1,0,0:0:0:0:
256,132,37290,2,0,P|276:84|332:56,1,90,0|0,0:0|0:0,0:0:0:0:
325,229,37590,2,0,P|359:201|374:159,1,90,0|0,0:0|0:0,0:0:0:0:
119,205,37890,6,0,P|165:136|257:132,1,180,0|0,0:0|0:0,0:0:0:0:
376,216,38340,1,0,0:0:0:0:
393,205,38490,6,0,P|347:136|255:132,1,180,0|0,0:0|0:0,0:0:0:0:
256,41,38940,2,0,L|256:141,1,90,0|0,0:0|0:0,0:0:0:0:
256,280,39240,1,0,0:0:0:0:
400,304,39390,1,0,0:0:0:0:
240,300,39540,1,0,0:0:0:0:
424,284,39690,6,0,P|444:244|440:172,1,90,0|0,0:0|0:0,0:0:0:0:
316,340,39990,1,0,0:0:0:0:
323,189,40140,1,0,0:0:0:0:
88,284,40290,6,0,P|68:244|72:172,1,90,0|0,0:0|0:0,0:0:0:0:
196,340,40590,1,0,0:0:0:0:
152,196,40740,1,0,0:0:0:0:
360,196,40890,1,0,0:0:0:0:
124,162,41040,1,0,0:0:0:0:
385,231,41190,1,0,0:0:0:0:
116,116,41340,6,0,P|72:168|72:264,1,135,0|0,0:0|0:0,0:0:0:0:
128,296,41640,2,0,L|236:264,1,90,0|0,0:0|0:0,0:0:0:0:
264,80,41940,1,0,0:0:0:0:
360,244,42090,6,0,P|344:284|296:316,1,90,0|0,0:0|0:0,0:0:0:0:
220,152,42390,1,0,0:0:0:0:
404,152,42540,1,0,0:0:0:0:
180,248,42690,2,0,P|132:216|116:172,1,90,0|0,0:0|0:0,0:0:0:0:
245,60,42990,1,0,0:0:0:0:
404,152,43140,1,0,0:0:0:0:
162,123,43290,2,0,P|136:71|144:25,1,90,0|0,0:0|0:0,0:0:0:0:
300,148,43590,1,0,0:0:0:0:
372,268,43740,6,0,P|383:324|299:359,1,135,0|0,0:0|0:0,0:0:0:0:
240,340,44040,1,0,0:0:0:0:
240,340,44190,1,0,0:0:0:0:
256,196,44340,1,0,0:0:0:0:
256,196,44490,1,0,0:0:0:0:
272,52,44640,1,0,0:0:0:0:
272,52,44790,1,0,0:0:0:0:
480,160,44940,5,0,0:0:0:0:
475,189,45015,1,0,0:0:0:0:
464,217,45090,1,0,0:0:0:0:
446,241,45165,1,0,0:0:0:0:
422,259,45240,1,0,0:0:0:0:
395,271,45315,1,0,0:0:0:0:
365,275,45390,2,0,P|336:272|300:260,1,60,0|0,0:0|0:0,0:0:0:0:
128,164,45540,2,0,L|92:140,3,30,0|0|0|0,0:0|0:0|0:0|0:0,0:0:0:0:
44,348,45840,1,0,0:0:0:0:
307,263,46140,6,0,P|331:187|315:119,1,116.999994644165,0|0,0:0|0:0,0:0:0:0:
140,64,46440,1,0,0:0:0:0:
184,252,46590,1,0,0:0:0:0:
224,32,46740,1,0,0:0:0:0:
100,244,46890,2,0,P|116:304|160:332,1,116.999994644165,0|0,0:0|0:0,0:0:0:0:
364,296,47190,1,0,0:0:0:0:
224,168,47340,1,0,0:0:0:0:
448,304,47490,6,0,P|432:248|372:212,1,116.999994644165,0|0,0:0|0:0,0:0:0:0:
140,160,47790,2,0,P|156:216|216:252,2,116.999994644165,0|0|0,0:0|0:0|0:0,0:0:0:0:
385,215,48240,6,0,P|377:151|357:91,1,116.999994644165,0|0,0:0|0:0,0:0:0:0:
128,272,48540,2,0,P|213:296|300:288,1,175.499991966248,0|0,0:0|0:0,0:0:0:0:
60,200,48840,1,0,0:0:0:0:
248,192,48990,1,0,0:0:0:0:
104,136,49140,1,0,0:0:0:0:
324,176,49290,6,0,P|347:249|244:248,1,175.499991966248,0|0,0:0|0:0,0:0:0:0:
248,192,49590,2,0,L|216:68,1,116.999994644165,0|0,0:0|0:0,0:0:0:0:
372,260,49890,2,0,L|495:294,1,116.999994644165,0|0,0:0|0:0,0:0:0:0:
148,260,50190,1,0,0:0:0:0:
392,148,50340,1,0,0:0:0:0:
200,160,50490,5,0,0:0:0:0:
384,56,50640,1,0,0:0:0:0:
256,242,50790,1,0,0:0:0:0:
273,44,50940,1,0,0:0:0:0:
331,220,51090,1,0,0:0:0:0:
180,58,51240,1,0,0:0:0:0:
392,148,51390,5,0,0:0:0:0:
148,148,51540,2,0,P|132:206|152:266,1,116.999994644165,0|0,0:0|0:0,0:0:0:0:
372,315,51840,5,0,0:0:0:0:
268,131,51990,1,0,0:0:0:0:
454,259,52140,1,0,0:0:0:0:
256,242,52290,1,0,0:0:0:0:
432,184,52440,1,0,0:0:0:0:
270,335,52590,5,0,0:0:0:0:
348,104,52740,2,0,P|324:68|248:44,1,116.999994644165,0|0,0:0|0:0,0:0:0:0:
92,148,53040,6,0,L|64:268,1,116.999994644165,0|0,0:0|0:0,0:0:0:0:
176,72,53340,2,0,L|208:220,1,116.999994644165,0|0,0:0|0:0,0:0:0:0:
248,320,53640,1,0,0:0:0:0:
336,144,53790,1,0,0:0:0:0:
244,336,53940,1,0,0:0:0:0:
420,144,54090,1,0,0:0:0:0:
240,352,54240,1,0,0:0:0:0:
376,68,54390,5,0,0:0:0:0:
428,316,54540,1,0,0:0:0:0:
300,48,54690,1,0,0:0:0:0:
330,299,54840,1,0,0:0:0:0:
228,32,54990,1,0,0:0:0:0:
236,285,55140,1,0,0:0:0:0:
152,16,55290,1,0,0:0:0:0:
408,236,55440,5,0,0:0:0:0:
76,104,55590,1,0,0:0:0:0:
476,128,55740,1,0,0:0:0:0:
408,236,56040,5,0,0:0:0:0:
408,236,56190,2,0,P|364:248|304:232,1,90,0|0,0:0|0:0,0:0:0:0:
192,168,56490,2,0,P|147:160|104:172,1,90,0|0,0:0|0:0,0:0:0:0:
160,288,56790,2,0,L|256:288,1,90,0|0,0:0|0:0,0:0:0:0:
408,236,57090,6,0,L|408:140,1,90,0|0,0:0|0:0,0:0:0:0:
312,156,57390,2,0,L|312:60,1,90,0|0,0:0|0:0,0:0:0:0:
192,168,57690,2,0,L|192:72,1,90,0|0,0:0|0:0,0:0:0:0:
120,272,57990,1,0,0:0:0:0:
208,64,58140,1,0,0:0:0:0:
236,244,58290,1,0,0:0:0:0:
236,244,58590,6,0,L|348:248,1,90,0|0,0:0|0:0,0:0:0:0:
476,168,58890,2,0,L|364:172,1,90,0|0,0:0|0:0,0:0:0:0:
208,64,59190,2,0,L|320:68,1,90,0|0,0:0|0:0,0:0:0:0:
386,171,59490,2,0,L|402:79,1,90,0|0,0:0|0:0,0:0:0:0:
236,244,59790,2,0,L|252:152,1,90,0|0,0:0|0:0,0:0:0:0:
145,312,60090,5,0,0:0:0:0:
364,312,60240,1,0,0:0:0:0:
87,254,60390,1,0,0:0:0:0:
407,196,60540,1,0,0:0:0:0:
364,312,60840,5,0,0:0:0:0:
364,312,60990,2,0,P|324:312|352:336,1,90,0|0,0:0|0:0,0:0:0:0:
208,232,61290,2,0,P|248:232|220:256,1,90,0|0,0:0|0:0,0:0:0:0:
364,152,61590,2,0,P|324:152|352:176,1,90,0|0,0:0|0:0,0:0:0:0:
176,112,61890,2,0,B|228:104|228:104|256:52|312:16|412:56,1,225,0|0,0:0|0:0,0:0:0:0:
456,112,62340,5,0,0:0:0:0:
264,192,62490,1,0,0:0:0:0:
472,200,62640,1,0,0:0:0:0:
192,264,62790,1,0,0:0:0:0:
440,331,62940,2,0,P|484:294|467:195,1,161.999995056153,0|0,0:0|0:0,0:0:0:0:
388,124,63240,5,0,0:0:0:0:
192,168,63390,1,0,0:0:0:0:
396,208,63540,1,0,0:0:0:0:
148,88,63690,1,0,0:0:0:0:
240,296,63840,1,0,0:0:0:0:
255,50,63990,6,0,P|350:76|390:131,1,161.999995056153,0|0,0:0|0:0,0:0:0:0:
396,208,64290,2,0,L|252:224,1,107.999996704102,0|0,0:0|0:0,0:0:0:0:
44,160,64590,1,0,0:0:0:0:
292,144,64740,1,0,0:0:0:0:
128,248,64890,1,0,0:0:0:0:
467,153,65040,2,0,P|475:213|391:189,1,161.999995056153,0|0,0:0|0:0,0:0:0:0:
467,153,65340,6,0,P|411:93|303:61,1,161.999995056153,0|0,0:0|0:0,0:0:0:0:
224,80,65640,5,0,0:0:0:0:
280,256,65790,1,0,0:0:0:0:
292,144,65940,1,0,0:0:0:0:
227,346,66090,1,0,0:0:0:0:
227,346,66240,1,0,0:0:0:0:
384,232,66390,5,0,0:0:0:0:
172,176,66540,1,0,0:0:0:0:
362,125,66690,1,0,0:0:0:0:
362,125,66840,1,0,0:0:0:0:
196,256,66990,2,0,P|132:252|92:212,1,107.999996704102,0|0,0:0|0:0,0:0:0:0:
265,94,67290,2,0,P|329:98|369:138,2,107.999996704102,0|0|0,0:0|0:0|0:0,0:0:0:0:
172,176,67740,2,0,L|160:52,1,107.999996704102,0|0,0:0|0:0,0:0:0:0:
296,292,68040,5,0,0:0:0:0:
296,292,68190,2,0,B|344:312|344:312|408:316,1,107.999996704102,0|0,0:0|0:0,0:0:0:0:
275,199,68490,2,0,B|227:179|227:179|163:175,2,107.999996704102,0|0|0,0:0|0:0|0:0,0:0:0:0:
452,216,68940,2,0,B|445:165|445:165|417:108,1,107.999996704102,0|0,0:0|0:0,0:0:0:0:
256,84,69240,1,0,0:0:0:0:
104,144,69390,2,0,B|80:220|80:220|132:224,1,107.999996704102,0|0,0:0|0:0,0:0:0:0:
300,312,69690,2,0,B|324:236|324:236|272:232,1,107.999996704102,0|0,0:0|0:0,0:0:0:0:
256,84,69990,5,0,0:0:0:0:
208,320,70140,2,0,B|192:272|192:272|196:212,1,107.999996704102,0|0,0:0|0:0,0:0:0:0:
338,38,70440,1,0,0:0:0:0:
136,116,70590,2,0,L|88:248,1,107.999996704102,0|0,0:0|0:0,0:0:0:0:
358,158,70890,2,0,L|357:298,1,107.999996704102,0|0,0:0|0:0,0:0:0:0:
208,320,71190,2,0,L|236:204,1,107.999996704102,0|0,0:0|0:0,0:0:0:0:
206,98,71490,5,0,0:0:0:0:
210,110,71640,1,0,0:0:0:0:
358,158,71790,1,0,0:0:0:0:
354,170,71940,1,0,0:0:0:0:
312,56,72090,1,0,0:0:0:0:
312,68,72240,1,0,0:0:0:0:
144,216,72390,1,0,0:0:0:0:
358,158,72540,2,0,P|413:158|469:198,1,107.999996704102,0|0,0:0|0:0,0:0:0:0:
284,256,72840,5,0,0:0:0:0:
96,128,72990,1,0,0:0:0:0:
274,287,73140,1,0,0:0:0:0:
79,96,73290,1,0,0:0:0:0:
256,324,73440,1,0,0:0:0:0:
344,104,73590,1,0,0:0:0:0:
152,212,73740,2,0,P|110:246|82:292,1,107.999996704102,0|0,0:0|0:0,0:0:0:0:
288,212,74040,5,0,0:0:0:0:
48,180,74190,1,0,0:0:0:0:
368,188,74340,1,0,0:0:0:0:
131,83,74490,1,0,0:0:0:0:
189,239,74640,1,0,0:0:0:0:
294,111,74790,1,0,0:0:0:0:
120,176,74940,1,0,0:0:0:0:
128,328,75240,5,0,0:0:0:0:
189,239,75390,1,0,0:0:0:0:
292,272,75540,1,0,0:0:0:0:
392,236,75690,2,0,P|432:188|444:128,1,107.999996704102,0|0,0:0|0:0,0:0:0:0:
368,236,75990,1,0,0:0:0:0:
345,130,76140,1,0,0:0:0:0:
263,61,76290,2,0,P|201:50|143:69,1,107.999996704102,0|0,0:0|0:0,0:0:0:0:
276,84,76590,1,0,0:0:0:0:
195,156,76740,1,0,0:0:0:0:
176,262,76890,2,0,P|197:320|243:361,1,107.999996704102,0|0,0:0|0:0,0:0:0:0:
296,196,77190,5,0,0:0:0:0:
296,196,77340,1,0,0:0:0:0:
156,136,77640,5,0,0:0:0:0:
296,196,77790,1,0,0:0:0:0:
132,152,77940,1,0,0:0:0:0:
316,184,78090,2,0,P|396:208|376:284,1,161.999995056153,0|0,0:0|0:0,0:0:0:0:
308,268,78390,2,0,L|192:256,1,107.999996704102,0|0,0:0|0:0,0:0:0:0:
131,151,78690,2,0,P|111:79|179:47,1,161.999995056153,0|0,0:0|0:0,0:0:0:0:
208,126,78990,2,0,L|316:84,1,107.999996704102,0|0,0:0|0:0,0:0:0:0:
200,260,79290,5,0,0:0:0:0:
376,148,79440,1,0,0:0:0:0:
116,220,79590,1,0,0:0:0:0:
388,272,79740,1,0,0:0:0:0:
200,260,80040,5,0,0:0:0:0:
200,260,80190,1,0,0:0:0:0:
276,184,80340,5,0,0:0:0:0:
276,184,80490,2,0,P|252:136|196:152,1,107.999996704102,0|0,0:0|0:0,0:0:0:0:
128,68,80790,1,0,0:0:0:0:
232,44,80940,1,0,0:0:0:0:
232,44,81090,2,0,P|282:39|303:85,1,107.999996704102,0|0,0:0|0:0,0:0:0:0:
384,200,81390,5,0,0:0:0:0:
308,276,81540,1,0,0:0:0:0:
204,276,81690,1,0,0:0:0:0:
128,200,81840,1,0,0:0:0:0:
200,120,81990,1,0,0:0:0:0:
200,120,82140,1,0,0:0:0:0:
436,124,82440,6,0,L|420:248,1,107.999996704102,0|0,0:0|0:0,0:0:0:0:
308,196,82740,2,0,L|324:320,1,107.999996704102,0|0,0:0|0:0,0:0:0:0:
204,276,83040,2,0,L|144:300,3,53.9999983520508,0|0|0|0,0:0|0:0|0:0|0:0,0:0:0:0:
128,200,83340,2,0,L|63:207,3,53.9999983520508,0|0|0|0,0:0|0:0|0:0|0:0,0:0:0:0:
200,120,83640,5,0,0:0:0:0:
231,113,83715,1,0,0:0:0:0:
263,112,83790,1,0,0:0:0:0:
295,119,83865,1,0,0:0:0:0:
325,131,83940,1,0,0:0:0:0:
352,149,84015,1,0,0:0:0:0:
374,173,84090,5,0,0:0:0:0:
204,200,84240,1,0,0:0:0:0:
204,199,84540,6,0,B|191:126|224:69|224:69|281:82|313:37,1,233.999989288331,0|0,0:0|0:0,0:0:0:0:
325,131,84990,2,0,L|361:267,1,116.999994644165,0|0,0:0|0:0,0:0:0:0:
164,352,85290,2,0,L|128:216,1,116.999994644165,0|0,0:0|0:0,0:0:0:0:
232,132,85590,5,0,0:0:0:0:
284,320,85740,1,0,0:0:0:0:
312,164,85890,2,0,P|312:91|266:54,1,116.999994644165,0|0,0:0|0:0,0:0:0:0:
212,272,86190,1,0,0:0:0:0:
200,288,86340,2,0,P|174:236|191:182,1,116.999994644165,0|0,0:0|0:0,0:0:0:0:
376,72,86640,5,0,0:0:0:0:
296,256,86790,1,0,0:0:0:0:
132,76,86940,2,0,P|73:126|89:245,1,175.499991966248,0|0,0:0|0:0,0:0:0:0:
144,280,87240,1,0,0:0:0:0:
151,292,87390,2,0,L|191:182,1,116.999994644165,0|0,0:0|0:0,0:0:0:0:
416,84,87690,2,0,L|375:193,1,116.999994644165,0|0,0:0|0:0,0:0:0:0:
204,68,87990,5,0,0:0:0:0:
160,336,88140,2,0,L|204:196,1,116.999994644165,0|0,0:0|0:0,0:0:0:0:
292,108,88440,5,0,0:0:0:0:
348,324,88590,1,0,0:0:0:0:
400,140,88740,2,0,L|412:20,1,116.999994644165,0|0,0:0|0:0,0:0:0:0:
196,128,89040,5,0,0:0:0:0:
316,256,89190,1,0,0:0:0:0:
177,231,89340,1,0,0:0:0:0:
334,152,89490,1,0,0:0:0:0:
240,280,89640,1,0,0:0:0:0:
271,103,89790,1,0,0:0:0:0:
271,103,89940,2,0,P|308:64|388:48,1,116.999994644165,0|0,0:0|0:0,0:0:0:0:
162,92,90240,5,0,0:0:0:0:
349,291,90390,1,0,0:0:0:0:
133,253,90540,1,0,0:0:0:0:
378,130,90690,1,0,0:0:0:0:
231,329,90840,1,0,0:0:0:0:
279,53,90990,1,0,0:0:0:0:
279,53,91140,2,0,P|330:37|407:63,1,116.999994644165,0|0,0:0|0:0,0:0:0:0:
384,148,91440,6,0,L|336:180,1,58.4999973220826,0|0,0:0|0:0,0:0:0:0:
124,216,91590,2,0,L|172:248,1,58.4999973220826,0|0,0:0|0:0,0:0:0:0:
256,352,91740,2,0,L|256:128,1,175.499991966248,0|0,0:0|0:0,0:0:0:0:
256,92,92040,5,0,0:0:0:0:
124,216,92190,1,0,0:0:0:0:
256,56,92340,1,0,0:0:0:0:
396,244,92490,1,0,0:0:0:0:
256,20,92640,1,0,0:0:0:0:
135,258,92790,5,0,0:0:0:0:
377,258,92940,1,0,0:0:0:0:
136,164,93090,1,0,0:0:0:0:
378,164,93240,1,0,0:0:0:0:
137,70,93390,1,0,0:0:0:0:
379,70,93540,1,0,0:0:0:0:
256,276,93690,1,0,0:0:0:0:
137,70,93840,5,0,0:0:0:0:
379,70,93990,1,0,0:0:0:0:
296,304,94140,2,0,P|256:340|216:300,1,116.999994644165,0|0,0:0|0:0,0:0:0:0:
104,180,94440,5,0,0:0:0:0:
344,224,94590,1,0,0:0:0:0:
200,108,94740,1,0,0:0:0:0:
456,256,94890,1,0,0:0:0:0:
324,72,95040,1,0,0:0:0:0:
104,180,95190,5,0,0:0:0:0:
392,148,95340,1,0,0:0:0:0:
196,260,95490,2,0,L|73:304,1,116.999994644165,0|0,0:0|0:0,0:0:0:0:
260,144,95790,1,0,0:0:0:0:
314,354,95940,2,0,L|436:309,1,116.999994644165,0|0,0:0|0:0,0:0:0:0:
252,240,96240,5,0,0:0:0:0:
240,232,96390,1,0,0:0:0:0:
228,224,96540,2,0,P|184:184|180:112,1,116.999994644165,0|0,0:0|0:0,0:0:0:0:
392,104,96840,1,0,0:0:0:0:
156,100,96990,1,0,0:0:0:0:
416,120,97140,1,0,0:0:0:0:
160,70,97290,1,0,0:0:0:0:
440,148,97440,1,0,0:0:0:0:
172,44,97590,5,0,0:0:0:0:
224,272,97740,1,0,0:0:0:0:
260,64,97890,1,0,0:0:0:0:
132,280,98040,1,0,0:0:0:0:
340,136,98190,1,0,0:0:0:0:
72,216,98340,1,0,0:0:0:0:
312,224,98490,5,0,0:0:0:0:
104,140,98640,1,0,0:0:0:0:
312,224,98790,1,0,0:0:0:0:
104,140,98940,2,0,P|160:120|220:128,1,116.999994644165,0|0,0:0|0:0,0:0:0:0:
420,212,99240,1,0,0:0:0:0:
188,272,99390,1,0,0:0:0:0:
444,296,99540,2,0,P|492:248|500:196,1,116.999994644165,0|0,0:0|0:0,0:0:0:0:
272,64,99840,5,0,0:0:0:0:
188,272,99990,1,0,0:0:0:0:
272,64,100140,2,0,P|278:121|258:176,1,116.999994644165,0|0,0:0|0:0,0:0:0:0:
188,272,100440,1,0,0:0:0:0:
394,184,100590,2,0,P|357:229|305:253,1,116.999994644165,0|0,0:0|0:0,0:0:0:0:
188,272,100890,1,0,0:0:0:0:
72,116,101040,6,0,L|132:156,1,58.4999973220826,0|0,0:0|0:0,0:0:0:0:
320,116,101190,2,0,L|260:156,1,58.4999973220826,0|0,0:0|0:0,0:0:0:0:
188,272,101340,2,0,L|196:136,1,116.999994644165,0|0,0:0|0:0,0:0:0:0:
324,304,101640,1,0,0:0:0:0:
92,256,101790,1,0,0:0:0:0:
416,268,101940,1,0,0:0:0:0:
204,161,102090,1,0,0:0:0:0:
392,348,102240,5,0,0:0:0:0:
317,121,102390,1,0,0:0:0:0:
292,320,102540,1,0,0:0:0:0:
237,87,102690,1,0,0:0:0:0:
184,292,102840,1,0,0:0:0:0:
149,55,102990,1,0,0:0:0:0:
80,260,103140,5,0,0:0:0:0:
428,232,103290,1,0,0:0:0:0:
184,292,103440,1,0,0:0:0:0:
384,300,103590,1,0,0:0:0:0:
288,80,103740,2,0,B|344:72|344:72|344:104|360:136|360:136|260:196|280:328|416:384|488:272,1,472.499985580445,0|0,0:0|0:0,0:0:0:0:
400,228,104940,5,0,0:0:0:0:
241,244,105240,5,0,0:0:0:0:
400,228,105390,1,0,0:0:0:0:
180,189,105540,1,0,0:0:0:0:
340,173,105690,1,0,0:0:0:0:
119,135,105840,1,0,0:0:0:0:
279,119,105990,1,0,0:0:0:0:
84,40,106140,6,0,P|64:216|204:80,1,472.499985580445,0|0,0:0|0:0,0:0:0:0:
119,135,107340,5,0,0:0:0:0:
119,135,107640,5,0,0:0:0:0:
282,168,107790,1,0,0:0:0:0:
119,135,107940,1,0,0:0:0:0:
269,256,108090,1,0,0:0:0:0:
119,135,108240,1,0,0:0:0:0:
220,331,108390,1,0,0:0:0:0:
119,135,108540,2,0,B|160:96|216:80|216:80|336:148|440:92|440:92|352:60,1,440.999986541748,0|0,0:0|0:0,0:0:0:0:
232,180,109740,5,0,0:0:0:0:
232,180,110040,5,0,0:0:0:0:
376,240,110190,1,0,0:0:0:0:
224,260,110340,1,0,0:0:0:0:
284,116,110490,1,0,0:0:0:0:
160,152,110640,1,0,0:0:0:0:
16,92,110790,1,0,0:0:0:0:
232,180,110940,5,0,0:0:0:0:
120,340,111240,5,0,0:0:0:0:
144,252,111390,1,0,0:0:0:0:
344,340,111540,1,0,0:0:0:0:
320,252,111690,1,0,0:0:0:0:
232,112,111840,1,0,0:0:0:0:
232,228,111990,1,0,0:0:0:0:
232,246,112065,1,0,0:0:0:0:
232,265,112140,1,0,0:0:0:0:
232,284,112215,1,0,0:0:0:0:
232,303,112290,1,0,0:0:0:0:
232,322,112365,1,0,0:0:0:0:
248,344,112440,5,0,0:0:0:0:
270,354,112515,1,0,0:0:0:0:
295,359,112590,1,0,0:0:0:0:
320,359,112665,1,0,0:0:0:0:
345,354,112740,1,0,0:0:0:0:
368,344,112815,1,0,0:0:0:0:
388,332,112890,2,0,L|356:240,1,90,0|0,0:0|0:0,0:0:0:0:
56,52,113340,6,0,P|84:96|140:116,1,107.999996704102,0|0,0:0|0:0,0:0:0:0:
260,152,113640,1,0,0:0:0:0:
291,148,113715,1,0,0:0:0:0:
321,160,113790,1,0,0:0:0:0:
342,185,113865,1,0,0:0:0:0:
348,216,113940,1,0,0:0:0:0:
339,247,114015,1,0,0:0:0:0:
331,278,114090,1,0,0:0:0:0:
337,310,114165,1,0,0:0:0:0:
358,334,114240,1,0,0:0:0:0:
388,347,114315,1,0,0:0:0:0:
416,344,114390,5,0,0:0:0:0:
460,172,114540,1,0,0:0:0:0:
240,232,114690,1,0,0:0:0:0:
240,232,114840,1,0,0:0:0:0:
384,120,114990,2,0,P|328:96|280:104,1,107.999996704102,0|0,0:0|0:0,0:0:0:0:
124,184,115290,5,0,0:0:0:0:
328,200,115440,1,0,0:0:0:0:
152,272,115590,1,0,0:0:0:0:
204,100,115740,2,0,P|231:45|302:26,1,107.999996704102,0|0,0:0|0:0,0:0:0:0:
254,260,116040,5,0,0:0:0:0:
204,100,116190,1,0,0:0:0:0:
331,289,116340,1,0,0:0:0:0:
204,100,116490,1,0,0:0:0:0:
411,275,116640,1,0,0:0:0:0:
204,100,116790,1,0,0:0:0:0:
480,224,116940,6,0,L|512:344,1,107.999996704102,0|0,0:0|0:0,0:0:0:0:
233,299,117240,2,0,B|205:267|205:267|224:208|199:149|199:149|205:87,1,215.999993408203,0|0,0:0|0:0,0:0:0:0:
360,272,117690,5,0,0:0:0:0:
360,272,117840,1,0,0:0:0:0:
120,240,117990,1,0,0:0:0:0:
312,192,118140,1,0,0:0:0:0:
125,256,118290,1,0,0:0:0:0:
306,175,118440,1,0,0:0:0:0:
133,271,118590,1,0,0:0:0:0:
298,160,118740,1,0,0:0:0:0:
143,284,118890,5,0,0:0:0:0:
248,308,119040,1,0,0:0:0:0:
352,284,119190,1,0,0:0:0:0:
432,212,119340,6,0,P|440:144|424:96,1,107.999996704102,0|0,0:0|0:0,0:0:0:0:
212,44,119640,1,0,0:0:0:0:
299,222,119790,1,0,0:0:0:0:
238,30,119940,1,0,0:0:0:0:
274,230,120090,1,0,0:0:0:0:
266,29,120240,1,0,0:0:0:0:
250,230,120390,1,0,0:0:0:0:
292,32,120540,2,0,P|344:52|384:96,1,107.999996704102,0|0,0:0|0:0,0:0:0:0:
368,260,120840,5,0,0:0:0:0:
160,136,120990,1,0,0:0:0:0:
296,304,121140,1,0,0:0:0:0:
216,74,121290,1,0,0:0:0:0:
216,280,121440,1,0,0:0:0:0:
302,52,121590,1,0,0:0:0:0:
123,237,121740,6,0,L|163:125,1,107.999996704102,0|0,0:0|0:0,0:0:0:0:
389,147,122040,2,0,L|349:259,1,107.999996704102,0|0,0:0|0:0,0:0:0:0:
160,136,122340,2,0,B|200:120|200:120|236:132|236:132|288:116,1,107.999996704102,0|0,0:0|0:0,0:0:0:0:
240,320,122640,1,0,0:0:0:0:
240,48,122790,1,0,0:0:0:0:
348,236,122940,5,0,0:0:0:0:
348,216,123015,1,0,0:0:0:0:
348,196,123090,1,0,0:0:0:0:
348,176,123165,1,0,0:0:0:0:
348,156,123240,2,0,L|284:152,1,53.9999983520508,0|0,0:0|0:0,0:0:0:0:
188,112,123390,5,0,0:0:0:0:
166,112,123465,1,0,0:0:0:0:
144,112,123540,1,0,0:0:0:0:
122,112,123615,1,0,0:0:0:0:
100,112,123690,2,0,L|95:182,1,53.9999983520508,0|0,0:0|0:0,0:0:0:0:
116,268,123840,5,0,0:0:0:0:
116,292,123915,1,0,0:0:0:0:
116,316,123990,1,0,0:0:0:0:
116,340,124065,1,0,0:0:0:0:
116,364,124140,2,0,L|193:368,1,53.9999983520508,0|0,0:0|0:0,0:0:0:0:
328,316,124290,2,0,L|332:238,1,53.9999983520508,0|0,0:0|0:0,0:0:0:0:
280,104,124440,2,0,L|202:99,1,53.9999983520508,0|0,0:0|0:0,0:0:0:0:
68,152,124590,2,0,L|63:229,1,53.9999983520508,0|0,0:0|0:0,0:0:0:0:
116,364,124740,5,0,0:0:0:0:
147,370,124815,1,0,0:0:0:0:
180,372,124890,1,0,0:0:0:0:
212,370,124965,1,0,0:0:0:0:
244,360,125040,2,0,L|256:304,1,53.9999983520508,0|0,0:0|0:0,0:0:0:0:
278,141,125190,5,0,0:0:0:0:
253,118,125265,1,0,0:0:0:0:
226,100,125340,1,0,0:0:0:0:
197,86,125415,1,0,0:0:0:0:
165,80,125490,2,0,L|126:122,1,53.9999983520508,0|0,0:0|0:0,0:0:0:0:
124,260,125640,5,0,0:0:0:0:
164,275,125715,1,0,0:0:0:0:
206,283,125790,1,0,0:0:0:0:
249,283,125865,1,0,0:0:0:0:
292,272,125940,2,0,L|332:204,1,53.9999983520508,0|0,0:0|0:0,0:0:0:0:
340,96,126090,1,0,0:0:0:0:
340,96,126165,1,0,0:0:0:0:
340,96,126240,2,0,L|260:96,1,53.9999983520508,0|0,0:0|0:0,0:0:0:0:
172,103,126390,1,0,0:0:0:0:
172,103,126465,1,0,0:0:0:0:
172,103,126540,2,0,L|115:160,1,53.9999983520508,0|0,0:0|0:0,0:0:0:0:
88,252,126690,1,0,0:0:0:0:
88,252,126765,1,0,0:0:0:0:
88,252,126840,2,0,L|88:332,1,53.9999983520508,0|0,0:0|0:0,0:0:0:0:
200,344,126990,5,0,0:0:0:0:
242,351,127065,1,0,0:0:0:0:
285,348,127140,1,0,0:0:0:0:
326,335,127215,1,0,0:0:0:0:
363,313,127290,1,0,0:0:0:0:
394,283,127365,1,0,0:0:0:0:
417,247,127440,5,0,0:0:0:0:
160,176,127590,1,0,0:0:0:0:
388,120,127740,2,0,P|440:124|504:160,1,107.999996704102,0|0,0:0|0:0,0:0:0:0:
363,313,128040,1,0,0:0:0:0:
160,176,128190,1,0,0:0:0:0:
160,176,128340,1,0,0:0:0:0:
284,100,128490,5,0,0:0:0:0:
244,240,128640,1,0,0:0:0:0:
220,44,128790,1,0,0:0:0:0:
320,280,128940,6,0,L|376:268,1,53.9999983520508,0|0,0:0|0:0,0:0:0:0:
192,280,129090,2,0,L|136:268,1,53.9999983520508,0|0,0:0|0:0,0:0:0:0:
332,192,129240,2,0,L|399:177,1,53.9999983520508,0|0,0:0|0:0,0:0:0:0:
178,192,129390,2,0,L|110:177,1,53.9999983520508,0|0,0:0|0:0,0:0:0:0:
344,100,129540,2,0,L|424:82,1,53.9999983520508,0|0,0:0|0:0,0:0:0:0:
159,100,129690,2,0,L|78:82,1,53.9999983520508,0|0,0:0|0:0,0:0:0:0:
308,24,129840,5,0,0:0:0:0:
256,236,129990,1,0,0:0:0:0:
228,40,130140,1,0,0:0:0:0:
336,272,130290,1,0,0:0:0:0:
388,32,130440,1,0,0:0:0:0:
160,212,130590,1,0,0:0:0:0:
340,172,130740,1,0,0:0:0:0:
76,160,130890,1,0,0:0:0:0:
276,132,131040,1,0,0:0:0:0:
6,94,131190,1,0,0:0:0:0:
218,83,131340,1,0,0:0:0:0:
76,260,131490,5,0,0:0:0:0:
146,36,131640,1,0,0:0:0:0:
154,301,131790,1,0,0:0:0:0:
252,63,131940,1,0,0:0:0:0:
340,152,132090,1,0,0:0:0:0:
370,256,132240,1,0,0:0:0:0:
344,340,132390,1,0,0:0:0:0:
292,377,132540,1,0,0:0:0:0:
216,192,134490,5,0,0:0:0:0:
216,224,134640,1,0,0:0:0:0:
228,256,134790,1,0,0:0:0:0:
252,280,134940,2,0,P|327:238|339:130,1,175.499991966248,0|0,0:0|0:0,0:0:0:0:
280,96,135240,5,0,0:0:0:0:
116,160,135390,2,0,P|100:224|108:276,1,116.999994644165,0|0,0:0|0:0,0:0:0:0:
184,56,135690,2,0,P|200:120|192:172,1,116.999994644165,0|0,0:0|0:0,0:0:0:0:
144,348,135990,1,0,0:0:0:0:
376,312,136140,1,0,0:0:0:0:
107,273,136290,2,0,P|64:232|59:149,1,116.999994644165,0|0,0:0|0:0,0:0:0:0:
184,56,136590,2,0,P|200:120|192:172,1,116.999994644165,0|0,0:0|0:0,0:0:0:0:
392,220,136890,5,0,0:0:0:0:
180,244,137040,1,0,0:0:0:0:
416,136,137190,1,0,0:0:0:0:
248,304,137340,2,0,P|184:332|128:320,1,116.999994644165,0|0,0:0|0:0,0:0:0:0:
228,100,137640,1,0,0:0:0:0:
280,316,137790,1,0,0:0:0:0:
308,72,137940,1,0,0:0:0:0:
296,340,138090,2,0,P|360:368|416:356,1,116.999994644165,0|0,0:0|0:0,0:0:0:0:
176,212,138390,5,0,0:0:0:0:
176,212,138540,1,0,0:0:0:0:
416,176,138690,1,0,0:0:0:0:
204,44,138840,1,0,0:0:0:0:
300,280,138990,1,0,0:0:0:0:
360,104,139140,2,0,P|420:88|480:104,1,116.999994644165,0|0,0:0|0:0,0:0:0:0:
272,188,139440,5,0,0:0:0:0:
148,198,139590,1,0,0:0:0:0:
203,107,139740,1,0,0:0:0:0:
221,267,139890,1,0,0:0:0:0:
275,72,140040,1,0,0:0:0:0:
300,280,140190,1,0,0:0:0:0:
120,96,140340,2,0,P|60:100|0:136,1,116.999994644165,0|0,0:0|0:0,0:0:0:0:
237,146,140640,5,0,0:0:0:0:
300,280,140790,1,0,0:0:0:0:
361,168,140940,1,0,0:0:0:0:
185,245,141090,1,0,0:0:0:0:
354,72,141240,1,0,0:0:0:0:
124,171,141390,1,0,0:0:0:0:
380,252,141540,2,0,P|431:301|458:380,1,116.999994644165
160,248,141840,5,0,0:0:0:0:
415,173,141990,1,0,0:0:0:0:
132,88,142140,2,0,P|72:136|136:120,1,175.499991966248,0|0,0:0|0:0,0:0:0:0:
208,132,142440,5,0,0:0:0:0:
420,88,142590,1,0,0:0:0:0:
248,56,142740,1,0,0:0:0:0:
472,176,142890,1,0,0:0:0:0:
328,24,143040,1,0,0:0:0:0:
408,256,143190,1,0,0:0:0:0:
417,66,143340,1,0,0:0:0:0:
370,304,143490,1,0,0:0:0:0:
237,61,143640,5,0,0:0:0:0:
266,326,143790,1,0,0:0:0:0:
345,44,143940,1,0,0:0:0:0:
338,337,144090,1,0,0:0:0:0:
143,98,144240,1,0,0:0:0:0:
408,256,144390,1,0,0:0:0:0:
101,225,144540,2,0,B|40:268|40:268|84:300|172:288,1,175.499991966248,0|0,0:0|0:0,0:0:0:0:
189,223,144840,6,0,L|236:170,1,58.4999973220826,0|0,0:0|0:0,0:0:0:0:
374,120,144990,2,0,L|327:173,1,58.4999973220826,0|0,0:0|0:0,0:0:0:0:
146,228,145140,2,0,L|194:175,1,58.4999973220826,0|0,0:0|0:0,0:0:0:0:
417,115,145290,2,0,P|407:199|356:264,1,116.999994644165,0|0,0:0|0:0,0:0:0:0:
76,112,145590,5,0,0:0:0:0:
320,280,145740,1,0,0:0:0:0:
168,52,145890,1,0,0:0:0:0:
246,337,146040,1,0,0:0:0:0:
264,40,146190,1,0,0:0:0:0:
140,308,146340,2,0,P|76:328|24:308,1,116.999994644165,0|0,0:0|0:0,0:0:0:0:
228,128,146640,6,0,L|360:148,1,116.999994644165,0|0,0:0|0:0,0:0:0:0:
30,312,146940,2,0,L|50:180,1,116.999994644165,0|0,0:0|0:0,0:0:0:0:
308,56,147240,1,0,0:0:0:0:
228,260,147390,1,0,0:0:0:0:
220,52,147540,1,0,0:0:0:0:
307,276,147690,1,0,0:0:0:0:
316,35,147840,1,0,0:0:0:0:
220,280,147990,1,0,0:0:0:0:
408,24,148140,5,0,0:0:0:0:
160,204,148290,2,0,P|121:259|126:315,1,116.999994644165,0|0,0:0|0:0,0:0:0:0:
384,224,148590,2,0,L|380:100,1,116.999994644165,0|0,0:0|0:0,0:0:0:0:
136,88,148890,1,0,0:0:0:0:
316,276,149040,1,0,0:0:0:0:
244,128,149190,5,0,0:0:0:0:
380,108,149340,2,0,P|444:140|472:208,1,116.999994644165,0|0,0:0|0:0,0:0:0:0:
212,248,149640,1,0,0:0:0:0:
416,256,149790,1,0,0:0:0:0:
160,176,149940,1,0,0:0:0:0:
336,312,150090,5,0,0:0:0:0:
280,76,150240,1,0,0:0:0:0:
144,316,150390,1,0,0:0:0:0:
296,144,150540,2,0,L|264:276,1,116.999994644165,0|0,0:0|0:0,0:0:0:0:
68,208,150840,1,0,0:0:0:0:
220,36,150990,2,0,L|188:168,1,116.999994644165,0|0,0:0|0:0,0:0:0:0:
208,340,151290,5,0,0:0:0:0:
360,320,151440,2,0,P|404:272|420:208,1,116.999994644165,0|0,0:0|0:0,0:0:0:0:
192,149,151740,2,0,P|131:132|71:149,1,116.999994644165,0|0,0:0|0:0,0:0:0:0:
328,140,152040,5,0,0:0:0:0:
136,56,152190,1,0,0:0:0:0:
360,136,152340,1,0,0:0:0:0:
140,232,152490,1,0,0:0:0:0:
392,128,152640,1,0,0:0:0:0:
60,152,152790,1,0,0:0:0:0:
424,112,152940,1,0,0:0:0:0:
169,317,153090,5,0,0:0:0:0:
214,70,153240,1,0,0:0:0:0:
278,332,153390,1,0,0:0:0:0:
329,55,153540,1,0,0:0:0:0:
387,347,153690,1,0,0:0:0:0:
387,347,153840,1,0,0:0:0:0:
387,347,153990,5,0,0:0:0:0:
332,240,154140,2,0,P|300:208|240:192,1,90,0|0,0:0|0:0,0:0:0:0:
84,184,154440,1,0,0:0:0:0:
84,184,154590,1,0,0:0:0:0:
84,184,154740,1,0,0:0:0:0:
176,100,154890,2,0,P|212:76|260:72,1,90,0|0,0:0|0:0,0:0:0:0:
258,192,155190,5,0,0:0:0:0:
258,192,155340,2,0,P|355:183|436:129,1,180,0|0,0:0|0:0,0:0:0:0:
336,48,155790,5,0,0:0:0:0:
336,48,155940,1,0,0:0:0:0:
336,48,156090,2,0,P|296:72|268:128,1,90,0|0,0:0|0:0,0:0:0:0:
288,232,156390,1,0,0:0:0:0:
288,232,156540,2,0,P|328:208|368:84,1,180,0|0,0:0|0:0,0:0:0:0:
264,128,156990,1,0,0:0:0:0:
264,128,157140,1,0,0:0:0:0:
264,128,157290,2,0,P|217:128|165:163,1,90,0|0,0:0|0:0,0:0:0:0:
194,273,157590,1,0,0:0:0:0:
194,273,157740,2,0,P|240:272|292:237,1,90,0|0,0:0|0:0,0:0:0:0:
367,165,158040,5,0,0:0:0:0:
367,165,158190,1,0,0:0:0:0:
367,165,158340,1,0,0:0:0:0:
247,125,158490,1,0,0:0:0:0:
179,209,158640,1,0,0:0:0:0:
72,192,158790,1,0,0:0:0:0:
72,192,158940,1,0,0:0:0:0:
256,192,159015,12,0,160140,0:0:0:0:
