osu file format v14

[General]
AudioFilename: audio.ogg
AudioLeadIn: 0
PreviewTime: 43253
Countdown: 0
SampleSet: Normal
StackLeniency: 0.7
Mode: 1
LetterboxInBreaks: 0
WidescreenStoryboard: 0

[Editor]
Bookmarks: 1984,13835,19761,31613,40502,43465,55317,67169,68650,80502,89391,92354,104206,116058,127909,136798,138280,139761,151613,163465,175317
DistanceSpacing: 1.2
BeatDivisor: 4
GridSize: 32
TimelineZoom: 1.7

[Metadata]
Title:HER
TitleUnicode:HER
Artist:Block B
ArtistUnicode:블락비
Creator:Arach
Version:Oni
Source:
Tags:H.E.R 헐 k-pop kpop pop korean 한국어 이태일 taeil lee tae-il tae il 비범 b-bomb 이민혁 lee min-hyuk min hyuk 안재효 jaehyo ahn jae-hyo jae hyo 김유권 Kim Yu-kwon yu kwon yukwon 박경 park kyung 지코 zico 우지호 woo ji-ho jiho ji ho 피오 po p.o 표지훈 Pyo Ji-hoon jihoon ji hoon boy band KQ 엔터테인먼트 Entertainment 세븐시즌스 Seven Seasons
BeatmapID:2546086
BeatmapSetID:1224128

[Difficulty]
HPDrainRate:5
CircleSize:5
OverallDifficulty:6
ApproachRate:5
SliderMultiplier:1.4
SliderTickRate:1

[Events]
//Background and Video events
0,0,"wallpaperflare.com_wallpaper.jpg",0,60
//Break Periods
//Storyboard Layer 0 (Background)
//Storyboard Layer 1 (Fail)
//Storyboard Layer 2 (Pass)
//Storyboard Layer 3 (Foreground)
//Storyboard Layer 4 (Overlay)
//Storyboard Sound Samples

[TimingPoints]
1865,370.37037037037,4,1,0,100,1,0
1865,-117.647058823529,4,1,0,100,0,0
31124,-104.166666666667,4,1,0,100,0,0
31216,-103.092783505155,4,1,0,100,0,0
31309,-102.040816326531,4,1,0,100,0,0
31402,-101.010101010101,4,1,0,100,0,0
31494,-100,4,1,0,100,0,0
41864,-98.3680736580135,4,1,0,100,0,0
42050,-96.7885557211715,4,1,0,100,0,0
42235,-95.2589614868019,4,1,0,100,0,0
42420,-93.7770488175183,4,1,0,100,0,0
42605,-92.3404518587671,4,1,0,100,0,0
42790,-90.9472060563563,4,1,0,100,0,0
42976,-89.5953783120052,4,1,0,100,0,0
43346,-87.0088026805672,4,1,0,100,0,1
67050,-86.9565217391304,4,1,0,100,0,0
68161,-117.647058823529,4,1,0,85,0,0
76124,-116.788321167883,4,1,0,85,0,0
76216,-116.363636363636,4,1,0,85,0,0
76309,-115.942028985507,4,1,0,85,0,0
76494,-115.107913669065,4,1,0,85,0,0
76679,-114.285714285714,4,1,0,85,0,0
76864,-113.475177304965,4,1,0,85,0,0
77050,-112.676056338028,4,1,0,85,0,0
77235,-112.280701754386,4,1,0,85,0,0
77327,-111.888111888112,4,1,0,85,0,0
77420,-111.111111111111,4,1,0,90,0,0
77605,-110.344827586207,4,1,0,90,0,0
77790,-109.965635738832,4,1,0,90,0,0
77976,-109.58904109589,4,1,0,90,0,0
78068,-108.843537414966,4,1,0,90,0,0
78161,-108.108108108108,4,1,0,90,0,0
78346,-107.38255033557,4,1,0,90,0,0
78531,-106.666666666667,4,1,0,90,0,0
78902,-105.263157894737,4,1,0,95,0,0
78994,-104.918032786885,4,1,0,95,0,0
79087,-104.575163398693,4,1,0,95,0,0
79179,-104.234527687296,4,1,0,95,0,0
79272,-103.896103896104,4,1,0,95,0,0
79457,-103.225806451613,4,1,0,95,0,0
79642,-102.564102564103,4,1,0,95,0,0
79827,-101.910828025478,4,1,0,95,0,0
79920,-101.587301587302,4,1,0,95,0,0
80013,-101.26582278481,4,1,0,95,0,0
80105,-100.946372239748,4,1,0,95,0,0
80198,-100.62893081761,4,1,0,95,0,0
80383,-100,4,1,0,100,0,0
90753,-98.3680736580135,4,1,0,100,0,0
90939,-96.7885557211715,4,1,0,100,0,0
91124,-95.2589614868019,4,1,0,100,0,0
91309,-93.7770488175183,4,1,0,100,0,0
91494,-92.3404518587671,4,1,0,100,0,0
92235,-87.0088026805672,4,1,0,100,0,1
115939,-117.647058823529,4,1,0,80,0,0
126309,-117.647058823529,4,1,0,85,0,0
126679,-114.285714285714,4,1,0,85,0,0
126864,-112.676056338028,4,1,0,90,0,0
127235,-109.58904109589,4,1,0,90,0,0
127420,-108.108108108108,4,1,0,90,0,0
127605,-106.666666666667,4,1,0,90,0,0
127790,-105.263157894737,4,1,0,90,0,0
134087,-103.897831028879,4,1,0,90,0,0
134272,-103.228363851079,4,1,0,90,0,0
134642,-101.915086388323,4,1,0,90,0,0
134827,-101.27084786992,4,1,0,90,0,0
135013,-100.634703072277,4,1,0,90,0,0
135198,-100.006500422527,4,1,0,90,0,0
135568,-98.7733339654827,4,1,0,90,0,0
135753,-98.1680853591136,4,1,0,90,0,0
135939,-97.5703042827509,4,1,0,90,0,0
136124,-96.9796653037791,4,1,0,90,0,0
136309,-96.3961341294369,4,1,0,90,0,0
136679,-95.2498880813815,4,1,0,90,0,0
136864,-94.6869271440908,4,1,0,90,0,0
137050,-94.1305817081688,4,1,0,90,0,0
137235,-93.5807358440421,4,1,0,90,0,0
137420,-93.0373628745568,4,1,0,90,0,0
137605,-92.5001780628428,4,1,0,90,0,0
137790,-91.9691609009667,4,1,0,90,0,0
137976,-91.4442057750674,4,1,0,90,0,0
138161,-90.9252094689513,4,1,0,90,0,0
138253,-90.6679142571668,4,1,0,90,0,0
138346,-90.4120710964362,4,1,0,90,0,0
138439,-90.1576677293251,4,1,0,90,0,0
138531,-89.9046920359727,4,1,0,90,0,0
138624,-89.6531320321675,4,1,0,90,0,0
138716,-89.4029758674547,4,1,0,90,0,0
138809,-89.1542913080807,4,1,0,90,0,0
139087,-88.1729247400001,4,1,0,90,0,0
139642,-86.976185920295,4,1,0,100,0,1
150753,-86.976185920295,4,1,0,100,0,0
151494,-86.976185920295,4,1,0,100,0,1
163346,-100,4,1,0,100,0,0
173531,-98.0471940363775,4,1,0,100,0,0
173716,-97.0990682373412,4,1,0,100,0,0
173902,-96.1691962370917,4,1,0,100,0,0
174087,-95.2568744504869,4,1,0,100,0,0
174272,-94.3617887598124,4,1,0,100,0,0
174364,-93.9205244522085,4,1,0,100,0,0
174457,-93.4832805152798,4,1,0,100,0,0
174642,-92.6210649940537,4,1,0,100,0,0
174827,-91.7745246767931,4,1,0,100,0,0
175013,-90.9434013741548,4,1,0,100,0,0

[HitObjects]
256,192,1865,5,8,0:0:0:0:
256,192,2050,1,0,0:0:0:0:
256,192,2235,1,8,0:0:0:0:
256,192,2420,1,0,0:0:0:0:
256,192,2790,1,0,0:0:0:0:
256,192,2976,1,8,0:0:0:0:
256,192,3161,1,8,0:0:0:0:
256,192,3346,1,0,0:0:0:0:
256,192,3531,1,0,0:0:0:0:
256,192,3716,1,8,0:0:0:0:
256,192,3902,1,0,0:0:0:0:
256,192,4272,1,0,0:0:0:0:
256,192,4457,1,8,0:0:0:0:
256,192,4642,1,0,0:0:0:0:
256,192,4827,1,8,0:0:0:0:
256,192,5198,1,0,0:0:0:0:
256,192,5383,1,0,0:0:0:0:
256,192,5568,1,8,0:0:0:0:
256,192,5753,1,0,0:0:0:0:
256,192,5939,1,0,0:0:0:0:
256,192,6124,1,8,0:0:0:0:
256,192,6309,1,8,0:0:0:0:
256,192,6679,1,8,0:0:0:0:
256,192,6864,1,8,0:0:0:0:
256,192,7235,1,8,0:0:0:0:
256,192,7420,1,0,0:0:0:0:
256,192,7605,1,0,0:0:0:0:
256,192,7790,1,8,0:0:0:0:
256,192,7976,1,0,0:0:0:0:
256,192,8161,1,8,0:0:0:0:
256,192,8346,1,0,0:0:0:0:
256,192,8716,1,0,0:0:0:0:
256,192,8902,1,8,0:0:0:0:
256,192,9087,1,0,0:0:0:0:
256,192,9272,1,8,0:0:0:0:
256,192,9642,1,8,0:0:0:0:
256,192,9827,1,0,0:0:0:0:
256,192,10198,1,0,0:0:0:0:
256,192,10383,1,8,0:0:0:0:
256,192,10568,1,8,0:0:0:0:
256,192,10753,1,0,0:0:0:0:
256,192,11124,1,8,0:0:0:0:
256,192,11309,1,8,0:0:0:0:
256,192,11679,1,0,0:0:0:0:
256,192,11864,1,8,0:0:0:0:
256,192,12050,1,8,0:0:0:0:
256,192,12235,1,12,0:0:0:0:
256,192,12605,1,12,0:0:0:0:
256,192,12976,1,12,0:0:0:0:
256,192,13346,1,12,0:0:0:0:
256,192,13716,12,0,16679,0:0:0:0:
256,192,19642,5,8,0:0:0:0:
256,192,20013,1,8,0:0:0:0:
256,192,20198,1,0,0:0:0:0:
256,192,20383,1,8,0:0:0:0:
256,192,20753,1,8,0:0:0:0:
256,192,20939,1,0,0:0:0:0:
256,192,21124,1,8,0:0:0:0:
256,192,21309,1,8,0:0:0:0:
256,192,21402,1,0,0:0:0:0:
256,192,21494,1,8,0:0:0:0:
256,192,21679,1,0,0:0:0:0:
256,192,21864,1,8,0:0:0:0:
256,192,21957,1,8,0:0:0:0:
256,192,22050,1,0,0:0:0:0:
256,192,22142,1,0,0:0:0:0:
256,192,22235,1,8,0:0:0:0:
256,192,22420,1,0,0:0:0:0:
256,192,22605,1,8,0:0:0:0:
256,192,22976,1,0,0:0:0:0:
256,192,23161,1,0,0:0:0:0:
256,192,23346,1,8,0:0:0:0:
256,192,23439,1,8,0:0:0:0:
256,192,23531,1,0,0:0:0:0:
256,192,23716,1,0,0:0:0:0:
256,192,23902,1,8,0:0:0:0:
256,192,24087,1,0,0:0:0:0:
256,192,24272,1,0,0:0:0:0:
256,192,24364,1,0,0:0:0:0:
256,192,24457,1,8,0:0:0:0:
256,192,24642,1,8,0:0:0:0:
256,192,25013,1,0,0:0:0:0:
256,192,25198,1,8,0:0:0:0:
256,192,25383,1,0,0:0:0:0:
256,192,25476,1,8,0:0:0:0:
256,192,25568,1,8,0:0:0:0:
256,192,25939,1,8,0:0:0:0:
256,192,26124,1,8,0:0:0:0:
256,192,26216,1,0,0:0:0:0:
256,192,26309,1,8,0:0:0:0:
256,192,26679,1,0,0:0:0:0:
256,192,26864,1,8,0:0:0:0:
256,192,27050,1,8,0:0:0:0:
256,192,27142,1,0,0:0:0:0:
256,192,27235,1,8,0:0:0:0:
256,192,27327,1,8,0:0:0:0:
256,192,27420,1,0,0:0:0:0:
256,192,27605,1,0,0:0:0:0:
256,192,27790,1,8,0:0:0:0:
256,192,28068,1,8,0:0:0:0:
256,192,28253,1,8,0:0:0:0:
256,192,28346,1,8,0:0:0:0:
256,192,28531,1,0,0:0:0:0:
256,192,28716,1,0,0:0:0:0:
256,192,28902,1,8,0:0:0:0:
256,192,28994,1,0,0:0:0:0:
256,192,29087,1,8,0:0:0:0:
256,192,29272,1,8,0:0:0:0:
256,192,29457,1,0,0:0:0:0:
256,192,29550,1,0,0:0:0:0:
256,192,29642,1,8,0:0:0:0:
256,192,29827,1,0,0:0:0:0:
256,192,30013,1,8,0:0:0:0:
256,192,30198,1,8,0:0:0:0:
256,192,30383,1,0,0:0:0:0:
256,192,30568,1,0,0:0:0:0:
256,192,30939,1,0,0:0:0:0:
256,192,31124,1,0,0:0:0:0:
256,192,31216,1,0,0:0:0:0:
256,192,31309,1,0,0:0:0:0:
256,192,31402,1,0,0:0:0:0:
256,192,31494,1,12,0:0:0:0:
256,192,31679,1,0,0:0:0:0:
256,192,31772,1,0,0:0:0:0:
256,192,31864,1,8,0:0:0:0:
256,192,32050,1,0,0:0:0:0:
256,192,32235,1,8,0:0:0:0:
256,192,32420,1,8,0:0:0:0:
256,192,32513,1,0,0:0:0:0:
256,192,32605,1,8,0:0:0:0:
256,192,32790,1,8,0:0:0:0:
256,192,32976,1,0,0:0:0:0:
256,192,33161,1,0,0:0:0:0:
256,192,33253,1,8,0:0:0:0:
256,192,33346,1,0,0:0:0:0:
256,192,33531,1,8,0:0:0:0:
256,192,33902,1,8,0:0:0:0:
256,192,33994,1,8,0:0:0:0:
256,192,34087,1,0,0:0:0:0:
256,192,34272,1,8,0:0:0:0:
256,192,34457,1,0,0:0:0:0:
256,192,34642,1,8,0:0:0:0:
256,192,34827,1,8,0:0:0:0:
256,192,34920,1,0,0:0:0:0:
256,192,35013,1,8,0:0:0:0:
256,192,35105,1,8,0:0:0:0:
256,192,35198,1,0,0:0:0:0:
256,192,35383,1,0,0:0:0:0:
256,192,35568,1,8,0:0:0:0:
256,192,35753,1,8,0:0:0:0:
256,192,35846,1,0,0:0:0:0:
256,192,35939,1,0,0:0:0:0:
256,192,36124,1,0,0:0:0:0:
256,192,36309,1,8,0:0:0:0:
256,192,36679,1,8,0:0:0:0:
256,192,36864,1,8,0:0:0:0:
256,192,36957,1,0,0:0:0:0:
256,192,37050,1,8,0:0:0:0:
256,192,37235,1,8,0:0:0:0:
256,192,37420,1,4,0:0:0:0:
256,192,37790,1,8,0:0:0:0:
256,192,37976,1,0,0:0:0:0:
256,192,38161,1,8,0:0:0:0:
256,192,38253,1,8,0:0:0:0:
256,192,38346,1,0,0:0:0:0:
256,192,38439,1,0,0:0:0:0:
256,192,38531,1,8,0:0:0:0:
256,192,38716,1,8,0:0:0:0:
256,192,38902,1,0,0:0:0:0:
256,192,39087,1,8,0:0:0:0:
256,192,39179,1,8,0:0:0:0:
256,192,39272,1,0,0:0:0:0:
256,192,39457,1,0,0:0:0:0:
256,192,39550,1,0,0:0:0:0:
256,192,39642,1,8,0:0:0:0:
256,192,39827,1,0,0:0:0:0:
256,192,40013,1,8,0:0:0:0:
256,192,40198,1,0,0:0:0:0:
256,192,40383,1,8,0:0:0:0:
256,192,40939,1,8,0:0:0:0:
256,192,41309,1,8,0:0:0:0:
256,192,41679,1,0,0:0:0:0:
256,192,41864,1,8,0:0:0:0:
256,192,42050,1,8,0:0:0:0:
256,192,42235,1,0,0:0:0:0:
256,192,42420,1,0,0:0:0:0:
256,192,42605,1,8,0:0:0:0:
256,192,42790,1,8,0:0:0:0:
256,192,42976,1,8,0:0:0:0:
256,192,43346,1,4,0:0:0:0:
256,192,43531,1,8,0:0:0:0:
256,192,43716,1,0,0:0:0:0:
256,192,43902,1,0,0:0:0:0:
256,192,44272,1,0,0:0:0:0:
256,192,44364,1,0,0:0:0:0:
256,192,44457,1,8,0:0:0:0:
256,192,44642,1,0,0:0:0:0:
256,192,44827,1,12,0:0:0:0:
256,192,45013,1,0,0:0:0:0:
256,192,45198,1,8,0:0:0:0:
256,192,45383,1,8,0:0:0:0:
256,192,45476,1,8,0:0:0:0:
256,192,45568,1,0,0:0:0:0:
256,192,45753,1,0,0:0:0:0:
256,192,45939,1,8,0:0:0:0:
256,192,46124,1,0,0:0:0:0:
256,192,46309,1,12,0:0:0:0:
256,192,46679,1,0,0:0:0:0:
256,192,46864,1,0,0:0:0:0:
256,192,47050,1,8,0:0:0:0:
256,192,47235,1,0,0:0:0:0:
256,192,47327,1,8,0:0:0:0:
256,192,47420,1,0,0:0:0:0:
256,192,47605,1,8,0:0:0:0:
256,192,47976,1,0,0:0:0:0:
256,192,48161,1,0,0:0:0:0:
256,192,48346,1,8,0:0:0:0:
256,192,48531,1,0,0:0:0:0:
256,192,48624,1,0,0:0:0:0:
256,192,48716,1,8,0:0:0:0:
256,192,48809,1,0,0:0:0:0:
256,192,48902,1,8,0:0:0:0:
256,192,49087,1,8,0:0:0:0:
256,192,49272,1,4,0:0:0:0:
256,192,49457,1,8,0:0:0:0:
256,192,49642,1,0,0:0:0:0:
256,192,49827,1,0,0:0:0:0:
256,192,50198,1,8,0:0:0:0:
256,192,50290,1,0,0:0:0:0:
256,192,50383,1,8,0:0:0:0:
256,192,50568,1,0,0:0:0:0:
256,192,50753,1,12,0:0:0:0:
256,192,51124,1,8,0:0:0:0:
256,192,51309,1,8,0:0:0:0:
256,192,51402,1,8,0:0:0:0:
256,192,51494,1,0,0:0:0:0:
256,192,51679,1,0,0:0:0:0:
256,192,51864,1,8,0:0:0:0:
256,192,52050,1,8,0:0:0:0:
256,192,52235,1,4,0:0:0:0:
256,192,52605,1,8,0:0:0:0:
256,192,52790,1,0,0:0:0:0:
256,192,52976,1,8,0:0:0:0:
256,192,53161,1,8,0:0:0:0:
256,192,53253,1,8,0:0:0:0:
256,192,53346,1,0,0:0:0:0:
256,192,53531,1,8,0:0:0:0:
256,192,53716,1,0,0:0:0:0:
256,192,53902,1,0,0:0:0:0:
256,192,53994,1,0,0:0:0:0:
256,192,54087,1,8,0:0:0:0:
256,192,54272,1,8,0:0:0:0:
256,192,54642,1,8,0:0:0:0:
256,192,54735,1,8,0:0:0:0:
256,192,54827,1,0,0:0:0:0:
256,192,54920,1,0,0:0:0:0:
256,192,55013,1,8,0:0:0:0:
256,192,55198,1,4,0:0:0:0:
256,192,55568,1,8,0:0:0:0:
256,192,55753,1,0,0:0:0:0:
256,192,55846,1,0,0:0:0:0:
256,192,55939,1,8,0:0:0:0:
256,192,56124,1,8,0:0:0:0:
256,192,56216,1,8,0:0:0:0:
256,192,56309,1,0,0:0:0:0:
256,192,56494,1,8,0:0:0:0:
256,192,56679,1,4,0:0:0:0:
256,192,57050,1,8,0:0:0:0:
256,192,57235,1,0,0:0:0:0:
256,192,57327,1,8,0:0:0:0:
256,192,57420,1,8,0:0:0:0:
256,192,57605,1,0,0:0:0:0:
256,192,57698,1,8,0:0:0:0:
256,192,57790,1,0,0:0:0:0:
256,192,57976,1,0,0:0:0:0:
256,192,58161,1,4,0:0:0:0:
256,192,58531,1,8,0:0:0:0:
256,192,58716,1,8,0:0:0:0:
256,192,58809,1,0,0:0:0:0:
256,192,58902,1,8,0:0:0:0:
256,192,59087,1,8,0:0:0:0:
256,192,59179,1,0,0:0:0:0:
256,192,59272,1,0,0:0:0:0:
256,192,59457,1,8,0:0:0:0:
256,192,59827,1,0,0:0:0:0:
256,192,60013,1,8,0:0:0:0:
256,192,60198,1,0,0:0:0:0:
256,192,60290,1,0,0:0:0:0:
256,192,60383,1,8,0:0:0:0:
256,192,60661,1,8,0:0:0:0:
256,192,60939,1,8,0:0:0:0:
256,192,61124,1,4,0:0:0:0:
256,192,61494,1,8,0:0:0:0:
256,192,61679,1,0,0:0:0:0:
256,192,61772,1,0,0:0:0:0:
256,192,61864,1,8,0:0:0:0:
256,192,62050,1,8,0:0:0:0:
256,192,62142,1,8,0:0:0:0:
256,192,62235,1,0,0:0:0:0:
256,192,62420,1,8,0:0:0:0:
256,192,62605,1,4,0:0:0:0:
256,192,62976,1,8,0:0:0:0:
256,192,63161,1,0,0:0:0:0:
256,192,63253,1,8,0:0:0:0:
256,192,63346,1,8,0:0:0:0:
256,192,63531,1,0,0:0:0:0:
256,192,63624,1,8,0:0:0:0:
256,192,63716,1,0,0:0:0:0:
256,192,63902,1,0,0:0:0:0:
256,192,64087,1,4,0:0:0:0:
256,192,64457,1,8,0:0:0:0:
256,192,64642,1,8,0:0:0:0:
256,192,64735,1,0,0:0:0:0:
256,192,64827,1,8,0:0:0:0:
256,192,65013,1,8,0:0:0:0:
256,192,65105,1,0,0:0:0:0:
256,192,65198,1,0,0:0:0:0:
256,192,65383,1,0,0:0:0:0:
256,192,65568,1,8,0:0:0:0:
256,192,65753,1,0,0:0:0:0:
256,192,65846,1,0,0:0:0:0:
256,192,65939,1,8,0:0:0:0:
256,192,66124,1,0,0:0:0:0:
256,192,66309,1,8,0:0:0:0:
256,192,66587,1,8,0:0:0:0:
256,192,66864,1,0,0:0:0:0:
256,192,68346,1,8,0:0:0:0:
256,192,68531,1,0,0:0:0:0:
256,192,68716,1,0,0:0:0:0:
256,192,68809,1,0,0:0:0:0:
256,192,68902,1,8,0:0:0:0:
256,192,69087,1,0,0:0:0:0:
256,192,69179,1,0,0:0:0:0:
256,192,69457,1,0,0:0:0:0:
256,192,69642,1,8,0:0:0:0:
256,192,69827,1,8,0:0:0:0:
256,192,69920,1,8,0:0:0:0:
256,192,70013,1,0,0:0:0:0:
256,192,70198,1,0,0:0:0:0:
256,192,70290,1,0,0:0:0:0:
256,192,70383,1,8,0:0:0:0:
256,192,70568,1,0,0:0:0:0:
256,192,70753,1,8,0:0:0:0:
256,192,70846,1,0,0:0:0:0:
256,192,70939,1,8,0:0:0:0:
256,192,71124,1,0,0:0:0:0:
256,192,71216,1,8,0:0:0:0:
256,192,71309,1,0,0:0:0:0:
256,192,71494,1,0,0:0:0:0:
256,192,71587,1,8,0:0:0:0:
256,192,71772,1,0,0:0:0:0:
256,192,71864,1,0,0:0:0:0:
256,192,72050,1,0,0:0:0:0:
256,192,72235,1,8,0:0:0:0:
256,192,72420,1,0,0:0:0:0:
256,192,72513,1,0,0:0:0:0:
256,192,72605,1,8,0:0:0:0:
256,192,72790,1,0,0:0:0:0:
256,192,72883,1,8,0:0:0:0:
256,192,72976,1,0,0:0:0:0:
256,192,73161,1,8,0:0:0:0:
256,192,73253,1,0,0:0:0:0:
256,192,73439,1,8,0:0:0:0:
256,192,73531,1,8,0:0:0:0:
256,192,73716,1,0,0:0:0:0:
256,192,74087,1,8,0:0:0:0:
256,192,74272,1,0,0:0:0:0:
256,192,74457,1,8,0:0:0:0:
256,192,74642,1,0,0:0:0:0:
256,192,74735,1,0,0:0:0:0:
256,192,74827,1,8,0:0:0:0:
256,192,75013,1,0,0:0:0:0:
256,192,75383,1,0,0:0:0:0:
256,192,75568,1,8,0:0:0:0:
256,192,75753,1,0,0:0:0:0:
256,192,75846,1,0,0:0:0:0:
256,192,75939,1,8,0:0:0:0:
256,192,76124,1,8,0:0:0:0:
256,192,76216,1,0,0:0:0:0:
256,192,76309,1,8,0:0:0:0:
256,192,76494,1,8,0:0:0:0:
256,192,76679,1,0,0:0:0:0:
256,192,76864,1,0,0:0:0:0:
256,192,77050,1,8,0:0:0:0:
256,192,77235,1,0,0:0:0:0:
256,192,77327,1,0,0:0:0:0:
256,192,77420,1,8,0:0:0:0:
256,192,77605,1,0,0:0:0:0:
256,192,77790,1,8,0:0:0:0:
256,192,77976,1,8,0:0:0:0:
256,192,78068,1,8,0:0:0:0:
256,192,78161,1,8,0:0:0:0:
256,192,78346,1,0,0:0:0:0:
256,192,78531,1,8,0:0:0:0:
256,192,78902,1,8,0:0:0:0:
256,192,78994,1,8,0:0:0:0:
256,192,79087,1,0,0:0:0:0:
256,192,79179,1,0,0:0:0:0:
256,192,79272,1,8,0:0:0:0:
256,192,79457,1,8,0:0:0:0:
256,192,79642,1,8,0:0:0:0:
256,192,79827,1,0,0:0:0:0:
256,192,79920,1,0,0:0:0:0:
256,192,80013,1,8,0:0:0:0:
256,192,80105,1,0,0:0:0:0:
256,192,80198,1,8,0:0:0:0:
256,192,80383,1,4,0:0:0:0:
256,192,80568,1,0,0:0:0:0:
256,192,80661,1,0,0:0:0:0:
256,192,80753,1,8,0:0:0:0:
256,192,80939,1,0,0:0:0:0:
256,192,81124,1,8,0:0:0:0:
256,192,81309,1,8,0:0:0:0:
256,192,81402,1,0,0:0:0:0:
256,192,81494,1,0,0:0:0:0:
256,192,81679,1,8,0:0:0:0:
256,192,81864,1,8,0:0:0:0:
256,192,82050,1,0,0:0:0:0:
256,192,82142,1,8,0:0:0:0:
256,192,82235,1,0,0:0:0:0:
256,192,82420,1,8,0:0:0:0:
256,192,82790,1,8,0:0:0:0:
256,192,82883,1,8,0:0:0:0:
256,192,82976,1,0,0:0:0:0:
256,192,83161,1,8,0:0:0:0:
256,192,83346,1,0,0:0:0:0:
256,192,83531,1,8,0:0:0:0:
256,192,83716,1,8,0:0:0:0:
256,192,83809,1,8,0:0:0:0:
256,192,83902,1,0,0:0:0:0:
256,192,83994,1,0,0:0:0:0:
256,192,84087,1,8,0:0:0:0:
256,192,84272,1,0,0:0:0:0:
256,192,84457,1,8,0:0:0:0:
256,192,84642,1,0,0:0:0:0:
256,192,84735,1,0,0:0:0:0:
256,192,84827,1,0,0:0:0:0:
256,192,85013,1,0,0:0:0:0:
256,192,85198,1,8,0:0:0:0:
256,192,85568,1,0,0:0:0:0:
256,192,85753,1,8,0:0:0:0:
256,192,85846,1,0,0:0:0:0:
256,192,85939,1,8,0:0:0:0:
256,192,86124,1,8,0:0:0:0:
256,192,86309,1,4,0:0:0:0:
256,192,86679,1,8,0:0:0:0:
256,192,86864,1,0,0:0:0:0:
256,192,87050,1,8,0:0:0:0:
256,192,87142,1,0,0:0:0:0:
256,192,87235,1,0,0:0:0:0:
256,192,87327,1,0,0:0:0:0:
256,192,87420,1,8,0:0:0:0:
256,192,87605,1,8,0:0:0:0:
256,192,87790,1,0,0:0:0:0:
256,192,87976,1,8,0:0:0:0:
256,192,88068,1,8,0:0:0:0:
256,192,88161,1,0,0:0:0:0:
256,192,88346,1,0,0:0:0:0:
256,192,88439,1,0,0:0:0:0:
256,192,88531,1,8,0:0:0:0:
256,192,88716,1,0,0:0:0:0:
256,192,88902,1,8,0:0:0:0:
256,192,89087,1,0,0:0:0:0:
256,192,89272,1,8,0:0:0:0:
256,192,89827,1,8,0:0:0:0:
256,192,90198,1,8,0:0:0:0:
256,192,90568,1,0,0:0:0:0:
256,192,90753,1,8,0:0:0:0:
256,192,90939,1,8,0:0:0:0:
256,192,91124,1,8,0:0:0:0:
256,192,91309,1,8,0:0:0:0:
256,192,91494,1,8,0:0:0:0:
256,192,92235,1,4,0:0:0:0:
256,192,92420,1,8,0:0:0:0:
256,192,92605,1,0,0:0:0:0:
256,192,92790,1,0,0:0:0:0:
256,192,93161,1,0,0:0:0:0:
256,192,93253,1,0,0:0:0:0:
256,192,93346,1,8,0:0:0:0:
256,192,93531,1,0,0:0:0:0:
256,192,93716,1,12,0:0:0:0:
256,192,93902,1,8,0:0:0:0:
256,192,94087,1,0,0:0:0:0:
256,192,94272,1,8,0:0:0:0:
256,192,94364,1,8,0:0:0:0:
256,192,94457,1,0,0:0:0:0:
256,192,94642,1,0,0:0:0:0:
256,192,94827,1,8,0:0:0:0:
256,192,95013,1,0,0:0:0:0:
256,192,95198,1,12,0:0:0:0:
256,192,95568,1,0,0:0:0:0:
256,192,95753,1,0,0:0:0:0:
256,192,95939,1,8,0:0:0:0:
256,192,96124,1,0,0:0:0:0:
256,192,96216,1,8,0:0:0:0:
256,192,96309,1,0,0:0:0:0:
256,192,96494,1,8,0:0:0:0:
256,192,96864,1,0,0:0:0:0:
256,192,97050,1,0,0:0:0:0:
256,192,97235,1,8,0:0:0:0:
256,192,97420,1,0,0:0:0:0:
256,192,97513,1,0,0:0:0:0:
256,192,97605,1,8,0:0:0:0:
256,192,97698,1,0,0:0:0:0:
256,192,97790,1,8,0:0:0:0:
256,192,97976,1,8,0:0:0:0:
256,192,98161,1,4,0:0:0:0:
256,192,98346,1,0,0:0:0:0:
256,192,98531,1,8,0:0:0:0:
256,192,98716,1,0,0:0:0:0:
256,192,99087,1,8,0:0:0:0:
256,192,99179,1,0,0:0:0:0:
256,192,99272,1,8,0:0:0:0:
256,192,99457,1,0,0:0:0:0:
256,192,99642,1,12,0:0:0:0:
256,192,100013,1,8,0:0:0:0:
256,192,100198,1,8,0:0:0:0:
256,192,100290,1,8,0:0:0:0:
256,192,100383,1,0,0:0:0:0:
256,192,100568,1,0,0:0:0:0:
256,192,100753,1,8,0:0:0:0:
256,192,100939,1,8,0:0:0:0:
256,192,101124,1,4,0:0:0:0:
256,192,101494,1,0,0:0:0:0:
256,192,101679,1,0,0:0:0:0:
256,192,101864,1,8,0:0:0:0:
256,192,102050,1,8,0:0:0:0:
256,192,102142,1,8,0:0:0:0:
256,192,102235,1,0,0:0:0:0:
256,192,102420,1,8,0:0:0:0:
256,192,102605,1,0,0:0:0:0:
256,192,102790,1,0,0:0:0:0:
256,192,102883,1,0,0:0:0:0:
256,192,102976,1,8,0:0:0:0:
256,192,103161,1,8,0:0:0:0:
256,192,103531,1,8,0:0:0:0:
256,192,103624,1,8,0:0:0:0:
256,192,103716,1,0,0:0:0:0:
256,192,103809,1,0,0:0:0:0:
256,192,103902,1,8,0:0:0:0:
256,192,104087,1,4,0:0:0:0:
256,192,104457,1,8,0:0:0:0:
256,192,104642,1,0,0:0:0:0:
256,192,104735,1,0,0:0:0:0:
256,192,104827,1,8,0:0:0:0:
256,192,105013,1,8,0:0:0:0:
256,192,105105,1,8,0:0:0:0:
256,192,105198,1,0,0:0:0:0:
256,192,105383,1,8,0:0:0:0:
256,192,105568,1,4,0:0:0:0:
256,192,105939,1,8,0:0:0:0:
256,192,106124,1,0,0:0:0:0:
256,192,106216,1,8,0:0:0:0:
256,192,106309,1,8,0:0:0:0:
256,192,106494,1,0,0:0:0:0:
256,192,106587,1,8,0:0:0:0:
256,192,106679,1,0,0:0:0:0:
256,192,106864,1,0,0:0:0:0:
256,192,107050,1,4,0:0:0:0:
256,192,107420,1,8,0:0:0:0:
256,192,107605,1,8,0:0:0:0:
256,192,107698,1,0,0:0:0:0:
256,192,107790,1,8,0:0:0:0:
256,192,107976,1,8,0:0:0:0:
256,192,108068,1,0,0:0:0:0:
256,192,108161,1,0,0:0:0:0:
256,192,108346,1,8,0:0:0:0:
256,192,108716,1,0,0:0:0:0:
256,192,108902,1,8,0:0:0:0:
256,192,109087,1,0,0:0:0:0:
256,192,109179,1,0,0:0:0:0:
256,192,109272,1,8,0:0:0:0:
256,192,109550,1,8,0:0:0:0:
256,192,109827,1,8,0:0:0:0:
256,192,110013,1,4,0:0:0:0:
256,192,110383,1,8,0:0:0:0:
256,192,110568,1,0,0:0:0:0:
256,192,110661,1,0,0:0:0:0:
256,192,110753,1,8,0:0:0:0:
256,192,110939,1,8,0:0:0:0:
256,192,111031,1,8,0:0:0:0:
256,192,111124,1,0,0:0:0:0:
256,192,111309,1,8,0:0:0:0:
256,192,111494,1,4,0:0:0:0:
256,192,111864,1,8,0:0:0:0:
256,192,112050,1,0,0:0:0:0:
256,192,112142,1,8,0:0:0:0:
256,192,112235,1,8,0:0:0:0:
256,192,112420,1,0,0:0:0:0:
256,192,112513,1,8,0:0:0:0:
256,192,112605,1,0,0:0:0:0:
256,192,112790,1,0,0:0:0:0:
256,192,112976,1,4,0:0:0:0:
256,192,113346,1,8,0:0:0:0:
256,192,113531,1,8,0:0:0:0:
256,192,113624,1,0,0:0:0:0:
256,192,113716,1,8,0:0:0:0:
256,192,113902,1,8,0:0:0:0:
256,192,113994,1,0,0:0:0:0:
256,192,114087,1,0,0:0:0:0:
256,192,114272,1,0,0:0:0:0:
256,192,114457,1,8,0:0:0:0:
256,192,114642,1,0,0:0:0:0:
256,192,114735,1,0,0:0:0:0:
256,192,114827,1,8,0:0:0:0:
256,192,115013,1,0,0:0:0:0:
256,192,115198,1,8,0:0:0:0:
256,192,115476,1,8,0:0:0:0:
256,192,115939,1,0,0:0:0:0:
256,192,116309,1,8,0:0:0:0:
256,192,116494,1,0,0:0:0:0:
256,192,116679,1,8,0:0:0:0:
256,192,116864,1,8,0:0:0:0:
256,192,117050,1,0,0:0:0:0:
256,192,117235,1,8,0:0:0:0:
256,192,117605,1,8,0:0:0:0:
256,192,117790,1,0,0:0:0:0:
256,192,117976,1,8,0:0:0:0:
256,192,118346,1,8,0:0:0:0:
256,192,118716,1,0,0:0:0:0:
256,192,118902,1,8,0:0:0:0:
256,192,119272,1,8,0:0:0:0:
256,192,119457,1,0,0:0:0:0:
256,192,119642,1,8,0:0:0:0:
256,192,119827,1,8,0:0:0:0:
256,192,120013,1,0,0:0:0:0:
256,192,120198,1,0,0:0:0:0:
256,192,120568,1,0,0:0:0:0:
256,192,120753,1,0,0:0:0:0:
256,192,120939,1,8,0:0:0:0:
256,192,121309,1,8,0:0:0:0:
256,192,121494,1,0,0:0:0:0:
256,192,121679,1,0,0:0:0:0:
256,192,121864,1,8,0:0:0:0:
256,192,122235,1,8,0:0:0:0:
256,192,122605,1,8,0:0:0:0:
256,192,122790,1,0,0:0:0:0:
256,192,122976,1,0,0:0:0:0:
256,192,123161,1,8,0:0:0:0:
256,192,123531,1,8,0:0:0:0:
256,192,123902,1,0,0:0:0:0:
256,192,124272,1,8,0:0:0:0:
256,192,124457,1,8,0:0:0:0:
256,192,124827,1,8,0:0:0:0:
256,192,125568,1,8,0:0:0:0:
256,192,125939,1,0,0:0:0:0:
256,192,126124,1,8,0:0:0:0:
256,192,126309,1,0,0:0:0:0:
256,192,126679,1,8,0:0:0:0:
256,192,126864,1,0,0:0:0:0:
256,192,127235,1,0,0:0:0:0:
256,192,127420,1,8,0:0:0:0:
256,192,127605,1,8,0:0:0:0:
256,192,127790,1,4,0:0:0:0:
256,192,128161,1,8,0:0:0:0:
256,192,128346,1,0,0:0:0:0:
256,192,128716,1,8,0:0:0:0:
256,192,128902,1,0,0:0:0:0:
256,192,129087,1,0,0:0:0:0:
256,192,129272,1,12,0:0:0:0:
256,192,129642,1,8,0:0:0:0:
256,192,129827,1,0,0:0:0:0:
256,192,130013,1,0,0:0:0:0:
256,192,130198,1,8,0:0:0:0:
256,192,130383,1,0,0:0:0:0:
256,192,130568,1,8,0:0:0:0:
256,192,130753,1,0,0:0:0:0:
256,192,131124,1,8,0:0:0:0:
256,192,131309,1,0,0:0:0:0:
256,192,131679,1,0,0:0:0:0:
256,192,131864,1,8,0:0:0:0:
256,192,132050,1,0,0:0:0:0:
256,192,132235,1,8,0:0:0:0:
256,192,132605,1,8,0:0:0:0:
256,192,132790,1,0,0:0:0:0:
256,192,132976,1,8,0:0:0:0:
256,192,133161,1,8,0:0:0:0:
256,192,133346,1,0,0:0:0:0:
256,192,133531,1,0,0:0:0:0:
256,192,133716,1,12,0:0:0:0:
256,192,134087,1,8,0:0:0:0:
256,192,134272,1,0,0:0:0:0:
256,192,134642,1,8,0:0:0:0:
256,192,134827,1,0,0:0:0:0:
256,192,135013,1,0,0:0:0:0:
256,192,135198,1,12,0:0:0:0:
256,192,135568,1,8,0:0:0:0:
256,192,135753,1,0,0:0:0:0:
256,192,135939,1,8,0:0:0:0:
256,192,136124,1,0,0:0:0:0:
256,192,136309,1,0,0:0:0:0:
256,192,136679,1,8,0:0:0:0:
256,192,136864,1,0,0:0:0:0:
256,192,137050,1,8,0:0:0:0:
256,192,137235,1,0,0:0:0:0:
256,192,137420,1,8,0:0:0:0:
256,192,137605,1,0,0:0:0:0:
256,192,137790,1,8,0:0:0:0:
256,192,137976,1,0,0:0:0:0:
256,192,138161,1,0,0:0:0:0:
256,192,138253,1,0,0:0:0:0:
256,192,138346,1,0,0:0:0:0:
256,192,138439,1,0,0:0:0:0:
256,192,138531,1,0,0:0:0:0:
256,192,138624,1,0,0:0:0:0:
256,192,138716,1,0,0:0:0:0:
256,192,138809,1,0,0:0:0:0:
256,192,139087,1,8,0:0:0:0:
256,192,139642,1,4,0:0:0:0:
256,192,139827,1,8,0:0:0:0:
256,192,140013,1,0,0:0:0:0:
256,192,140198,1,0,0:0:0:0:
256,192,140568,1,0,0:0:0:0:
256,192,140661,1,0,0:0:0:0:
256,192,140753,1,8,0:0:0:0:
256,192,140939,1,0,0:0:0:0:
256,192,141124,1,12,0:0:0:0:
256,192,141309,1,0,0:0:0:0:
256,192,141494,1,8,0:0:0:0:
256,192,141679,1,8,0:0:0:0:
256,192,141772,1,8,0:0:0:0:
256,192,141864,1,0,0:0:0:0:
256,192,142050,1,0,0:0:0:0:
256,192,142235,1,8,0:0:0:0:
256,192,142420,1,0,0:0:0:0:
256,192,142605,1,12,0:0:0:0:
256,192,142976,1,0,0:0:0:0:
256,192,143161,1,0,0:0:0:0:
256,192,143346,1,8,0:0:0:0:
256,192,143531,1,0,0:0:0:0:
256,192,143624,1,8,0:0:0:0:
256,192,143716,1,0,0:0:0:0:
256,192,143902,1,8,0:0:0:0:
256,192,144272,1,0,0:0:0:0:
256,192,144457,1,0,0:0:0:0:
256,192,144642,1,8,0:0:0:0:
256,192,144827,1,0,0:0:0:0:
256,192,144920,1,0,0:0:0:0:
256,192,145013,1,8,0:0:0:0:
256,192,145105,1,0,0:0:0:0:
256,192,145198,1,8,0:0:0:0:
256,192,145383,1,8,0:0:0:0:
256,192,145568,1,4,0:0:0:0:
256,192,145753,1,8,0:0:0:0:
256,192,145939,1,0,0:0:0:0:
256,192,146124,1,0,0:0:0:0:
256,192,146494,1,8,0:0:0:0:
256,192,146587,1,0,0:0:0:0:
256,192,146679,1,8,0:0:0:0:
256,192,146864,1,0,0:0:0:0:
256,192,147050,1,12,0:0:0:0:
256,192,147420,1,8,0:0:0:0:
256,192,147605,1,8,0:0:0:0:
256,192,147698,1,8,0:0:0:0:
256,192,147790,1,0,0:0:0:0:
256,192,147976,1,0,0:0:0:0:
256,192,148161,1,8,0:0:0:0:
256,192,148346,1,8,0:0:0:0:
256,192,148531,1,4,0:0:0:0:
256,192,148902,1,8,0:0:0:0:
256,192,149087,1,0,0:0:0:0:
256,192,149272,1,8,0:0:0:0:
256,192,149457,1,8,0:0:0:0:
256,192,149550,1,8,0:0:0:0:
256,192,149642,1,0,0:0:0:0:
256,192,149827,1,8,0:0:0:0:
256,192,150013,1,0,0:0:0:0:
256,192,150198,1,0,0:0:0:0:
256,192,150290,1,0,0:0:0:0:
256,192,150383,1,8,0:0:0:0:
256,192,150568,1,8,0:0:0:0:
256,192,150939,1,8,0:0:0:0:
256,192,151124,1,0,0:0:0:0:
256,192,151309,1,8,0:0:0:0:
256,192,151494,1,4,0:0:0:0:
256,192,151864,1,8,0:0:0:0:
256,192,152050,1,0,0:0:0:0:
256,192,152142,1,0,0:0:0:0:
256,192,152235,1,8,0:0:0:0:
256,192,152420,1,8,0:0:0:0:
256,192,152513,1,8,0:0:0:0:
256,192,152605,1,0,0:0:0:0:
256,192,152790,1,8,0:0:0:0:
256,192,152976,1,4,0:0:0:0:
256,192,153346,1,8,0:0:0:0:
256,192,153531,1,0,0:0:0:0:
256,192,153624,1,8,0:0:0:0:
256,192,153716,1,8,0:0:0:0:
256,192,153902,1,0,0:0:0:0:
256,192,153994,1,8,0:0:0:0:
256,192,154087,1,0,0:0:0:0:
256,192,154272,1,0,0:0:0:0:
256,192,154457,1,4,0:0:0:0:
256,192,154827,1,8,0:0:0:0:
256,192,155013,1,8,0:0:0:0:
256,192,155105,1,0,0:0:0:0:
256,192,155198,1,8,0:0:0:0:
256,192,155383,1,8,0:0:0:0:
256,192,155476,1,0,0:0:0:0:
256,192,155568,1,0,0:0:0:0:
256,192,155753,1,8,0:0:0:0:
256,192,156124,1,0,0:0:0:0:
256,192,156309,1,8,0:0:0:0:
256,192,156494,1,0,0:0:0:0:
256,192,156587,1,0,0:0:0:0:
256,192,156679,1,8,0:0:0:0:
256,192,156957,1,8,0:0:0:0:
256,192,157235,1,8,0:0:0:0:
256,192,157420,1,4,0:0:0:0:
256,192,157790,1,8,0:0:0:0:
256,192,157976,1,0,0:0:0:0:
256,192,158068,1,0,0:0:0:0:
256,192,158161,1,8,0:0:0:0:
256,192,158346,1,8,0:0:0:0:
256,192,158439,1,8,0:0:0:0:
256,192,158531,1,0,0:0:0:0:
256,192,158716,1,8,0:0:0:0:
256,192,158902,1,4,0:0:0:0:
256,192,159272,1,8,0:0:0:0:
256,192,159457,1,0,0:0:0:0:
256,192,159550,1,8,0:0:0:0:
256,192,159642,1,8,0:0:0:0:
256,192,159827,1,0,0:0:0:0:
256,192,159920,1,8,0:0:0:0:
256,192,160013,1,0,0:0:0:0:
256,192,160198,1,0,0:0:0:0:
256,192,160383,1,4,0:0:0:0:
256,192,160753,1,8,0:0:0:0:
256,192,160939,1,8,0:0:0:0:
256,192,161031,1,0,0:0:0:0:
256,192,161124,1,8,0:0:0:0:
256,192,161309,1,8,0:0:0:0:
256,192,161402,1,0,0:0:0:0:
256,192,161494,1,0,0:0:0:0:
256,192,161679,1,0,0:0:0:0:
256,192,161864,1,8,0:0:0:0:
256,192,162050,1,0,0:0:0:0:
256,192,162142,1,0,0:0:0:0:
256,192,162235,1,8,0:0:0:0:
256,192,162420,1,0,0:0:0:0:
256,192,162605,1,8,0:0:0:0:
256,192,162883,1,8,0:0:0:0:
256,192,163161,1,8,0:0:0:0:
256,192,163346,1,4,0:0:0:0:
256,192,163531,1,0,0:0:0:0:
256,192,163716,1,8,0:0:0:0:
256,192,163902,1,8,0:0:0:0:
256,192,164272,1,8,0:0:0:0:
256,192,164642,1,8,0:0:0:0:
256,192,164827,1,0,0:0:0:0:
256,192,165013,1,8,0:0:0:0:
256,192,165198,1,0,0:0:0:0:
256,192,165290,1,0,0:0:0:0:
256,192,165383,1,8,0:0:0:0:
256,192,165568,1,8,0:0:0:0:
256,192,165753,1,8,0:0:0:0:
256,192,165846,1,8,0:0:0:0:
256,192,165939,1,0,0:0:0:0:
256,192,166309,1,0,0:0:0:0:
256,192,166494,1,0,0:0:0:0:
256,192,166679,1,8,0:0:0:0:
256,192,166864,1,8,0:0:0:0:
256,192,167235,1,8,0:0:0:0:
256,192,167605,1,8,0:0:0:0:
256,192,167790,1,0,0:0:0:0:
256,192,167976,1,8,0:0:0:0:
256,192,168068,1,0,0:0:0:0:
256,192,168161,1,8,0:0:0:0:
256,192,168346,1,8,0:0:0:0:
256,192,168531,1,0,0:0:0:0:
256,192,168716,1,0,0:0:0:0:
256,192,168902,1,8,0:0:0:0:
256,192,168994,1,8,0:0:0:0:
256,192,169087,1,0,0:0:0:0:
256,192,169272,1,12,0:0:0:0:
256,192,169457,1,0,0:0:0:0:
256,192,169642,1,8,0:0:0:0:
256,192,169827,1,8,0:0:0:0:
256,192,170198,1,8,0:0:0:0:
256,192,170568,1,8,0:0:0:0:
256,192,170753,1,0,0:0:0:0:
256,192,170939,1,0,0:0:0:0:
256,192,171124,1,0,0:0:0:0:
256,192,171216,1,8,0:0:0:0:
256,192,171309,1,8,0:0:0:0:
256,192,171494,1,8,0:0:0:0:
256,192,171679,1,0,0:0:0:0:
256,192,171772,1,0,0:0:0:0:
256,192,171864,1,8,0:0:0:0:
256,192,172235,1,0,0:0:0:0:
256,192,172420,1,0,0:0:0:0:
256,192,172605,1,8,0:0:0:0:
256,192,172790,1,8,0:0:0:0:
256,192,173161,1,8,0:0:0:0:
256,192,173531,1,8,0:0:0:0:
256,192,173716,1,0,0:0:0:0:
256,192,173902,1,8,0:0:0:0:
256,192,174087,1,0,0:0:0:0:
256,192,174272,1,0,0:0:0:0:
256,192,174364,1,0,0:0:0:0:
256,192,174457,1,8,0:0:0:0:
256,192,174642,1,8,0:0:0:0:
256,192,174827,1,8,0:0:0:0:
256,192,175013,1,8,0:0:0:0:
