osu file format v14

[General]
AudioFilename: audio.ogg
AudioLeadIn: 0
PreviewTime: 43253
Countdown: 0
SampleSet: Normal
StackLeniency: 0.7
Mode: 1
LetterboxInBreaks: 0
WidescreenStoryboard: 1

[Editor]
Bookmarks: 1984,13835,19761,31613,40502,43465,55317,67169,68650,80502,89391,92354,104206,116058,127909,136798,138280,139761,151613,163465,175317
DistanceSpacing: 1.2
BeatDivisor: 4
GridSize: 32
TimelineZoom: 1.7

[Metadata]
Title:HER
TitleUnicode:HER
Artist:Block B
ArtistUnicode:블락비
Creator:Arach
Version:Kantan
Source:
Tags:H.E.R 헐 k-pop kpop pop korean 한국어 이태일 taeil lee tae-il tae il 비범 b-bomb 이민혁 lee min-hyuk min hyuk 안재효 jaehyo ahn jae-hyo jae hyo 김유권 Kim Yu-kwon yu kwon yukwon 박경 park kyung 지코 zico 우지호 woo ji-ho jiho ji ho 피오 po p.o 표지훈 Pyo Ji-hoon jihoon ji hoon boy band KQ 엔터테인먼트 Entertainment 세븐시즌스 Seven Seasons
BeatmapID:2550323
BeatmapSetID:1224128

[Difficulty]
HPDrainRate:7
CircleSize:5
OverallDifficulty:3
ApproachRate:5
SliderMultiplier:1.4
SliderTickRate:1

[Events]
//Background and Video events
0,0,"wallpaperflare.com_wallpaper.jpg",0,60
//Break Periods
//Storyboard Layer 0 (Background)
//Storyboard Layer 1 (Fail)
//Storyboard Layer 2 (Pass)
//Storyboard Layer 3 (Foreground)
//Storyboard Layer 4 (Overlay)
//Storyboard Sound Samples

[TimingPoints]
1865,370.37037037037,4,1,0,100,1,0
1865,-111.111111111111,4,1,0,100,0,0
19642,-100,4,1,0,100,0,0
43346,-100,4,1,0,100,0,1
67050,-100,4,1,0,100,0,0
92235,-100,4,1,0,100,0,1
115939,-105.263157894737,4,1,0,80,0,0
127790,-105.263157894737,4,1,0,90,0,0
136679,-105.263157894737,4,1,0,95,0,0
139642,-100,4,1,0,100,0,1
150753,-100,4,1,0,100,0,0
151494,-100,4,1,0,100,0,1
163346,-100,4,1,0,100,0,0

[HitObjects]
256,192,1865,5,8,0:0:0:0:
256,192,2420,1,0,0:0:0:0:
256,192,2976,1,8,0:0:0:0:
256,192,3346,1,8,0:0:0:0:
256,192,3902,1,0,0:0:0:0:
256,192,4827,1,8,0:0:0:0:
256,192,5568,1,8,0:0:0:0:
256,192,5939,1,0,0:0:0:0:
256,192,6309,1,8,0:0:0:0:
256,192,6864,1,8,0:0:0:0:
256,192,7420,1,8,0:0:0:0:
256,192,7790,1,8,0:0:0:0:
256,192,8346,1,0,0:0:0:0:
256,192,8902,1,8,0:0:0:0:
256,192,9272,1,8,0:0:0:0:
256,192,9827,1,0,0:0:0:0:
256,192,11124,1,8,0:0:0:0:
256,192,11864,1,8,0:0:0:0:
256,192,12235,1,12,0:0:0:0:
256,192,12605,1,12,0:0:0:0:
256,192,12976,1,12,0:0:0:0:
256,192,13346,1,12,0:0:0:0:
256,192,13716,12,0,16679,0:0:0:0:
256,192,19642,5,8,0:0:0:0:
256,192,20383,1,8,0:0:0:0:
256,192,21124,1,8,0:0:0:0:
256,192,21494,1,0,0:0:0:0:
256,192,21864,1,8,0:0:0:0:
256,192,22605,1,8,0:0:0:0:
256,192,23346,1,0,0:0:0:0:
256,192,24087,1,0,0:0:0:0:
256,192,24642,1,8,0:0:0:0:
256,192,25568,1,8,0:0:0:0:
256,192,26309,1,0,0:0:0:0:
256,192,27050,1,8,0:0:0:0:
256,192,27420,1,0,0:0:0:0:
256,192,27790,1,8,0:0:0:0:
256,192,28531,1,0,0:0:0:0:
256,192,29272,1,8,0:0:0:0:
256,192,29642,1,0,0:0:0:0:
256,192,30013,1,8,0:0:0:0:
256,192,30383,1,8,0:0:0:0:
256,192,31494,1,12,0:0:0:0:
256,192,32235,1,8,0:0:0:0:
256,192,32605,1,8,0:0:0:0:
256,192,32976,1,0,0:0:0:0:
256,192,33531,1,8,0:0:0:0:
256,192,34087,1,8,0:0:0:0:
256,192,34457,1,0,0:0:0:0:
256,192,35198,1,0,0:0:0:0:
256,192,35568,1,8,0:0:0:0:
256,192,35939,1,0,0:0:0:0:
256,192,37050,1,8,0:0:0:0:
256,192,37420,1,4,0:0:0:0:
256,192,38161,1,8,0:0:0:0:
256,192,38716,1,0,0:0:0:0:
256,192,39087,1,0,0:0:0:0:
256,192,39457,1,8,0:0:0:0:
256,192,40383,1,8,0:0:0:0:
256,192,41124,1,0,0:0:0:0:
256,192,41494,1,8,0:0:0:0:
256,192,41864,1,8,0:0:0:0:
256,192,43346,1,4,0:0:0:0:
256,192,43902,1,0,0:0:0:0:
256,192,44457,1,0,0:0:0:0:
256,192,44827,1,12,0:0:0:0:
256,192,45383,1,8,0:0:0:0:
256,192,45939,1,0,0:0:0:0:
256,192,46309,1,12,0:0:0:0:
256,192,47050,1,8,0:0:0:0:
256,192,47605,1,8,0:0:0:0:
256,192,48902,1,8,0:0:0:0:
256,192,49272,1,4,0:0:0:0:
256,192,49827,1,0,0:0:0:0:
256,192,50383,1,8,0:0:0:0:
256,192,50753,1,12,0:0:0:0:
256,192,51309,1,0,0:0:0:0:
256,192,51864,1,8,0:0:0:0:
256,192,52235,1,4,0:0:0:0:
256,192,52976,1,8,0:0:0:0:
256,192,53716,1,0,0:0:0:0:
256,192,54087,1,8,0:0:0:0:
256,192,55198,1,4,0:0:0:0:
256,192,55939,1,8,0:0:0:0:
256,192,56679,1,4,0:0:0:0:
256,192,57420,1,8,0:0:0:0:
256,192,58161,1,4,0:0:0:0:
256,192,58902,1,8,0:0:0:0:
256,192,60013,1,8,0:0:0:0:
256,192,60383,1,0,0:0:0:0:
256,192,60753,1,8,0:0:0:0:
256,192,61124,1,4,0:0:0:0:
256,192,61864,1,8,0:0:0:0:
256,192,62605,1,4,0:0:0:0:
256,192,63346,1,8,0:0:0:0:
256,192,64087,1,4,0:0:0:0:
256,192,64827,1,8,0:0:0:0:
256,192,65568,1,8,0:0:0:0:
256,192,65939,1,0,0:0:0:0:
256,192,66309,1,8,0:0:0:0:
256,192,66864,1,0,0:0:0:0:
256,192,68531,1,0,0:0:0:0:
256,192,68902,1,8,0:0:0:0:
256,192,69642,1,8,0:0:0:0:
256,192,70013,1,0,0:0:0:0:
256,192,70383,1,8,0:0:0:0:
256,192,71124,1,0,0:0:0:0:
256,192,71494,1,8,0:0:0:0:
256,192,72235,1,8,0:0:0:0:
256,192,72605,1,8,0:0:0:0:
256,192,72976,1,0,0:0:0:0:
256,192,74087,1,0,0:0:0:0:
256,192,74457,1,0,0:0:0:0:
256,192,74827,1,8,0:0:0:0:
256,192,75568,1,8,0:0:0:0:
256,192,75939,1,0,0:0:0:0:
256,192,76309,1,8,0:0:0:0:
256,192,77050,1,0,0:0:0:0:
256,192,77420,1,8,0:0:0:0:
256,192,78161,1,8,0:0:0:0:
256,192,78531,1,8,0:0:0:0:
256,192,78902,1,8,0:0:0:0:
256,192,80013,1,8,0:0:0:0:
256,192,80383,1,4,0:0:0:0:
256,192,81124,1,8,0:0:0:0:
256,192,81494,1,8,0:0:0:0:
256,192,81864,1,0,0:0:0:0:
256,192,82420,1,8,0:0:0:0:
256,192,82976,1,8,0:0:0:0:
256,192,83346,1,0,0:0:0:0:
256,192,84087,1,0,0:0:0:0:
256,192,84457,1,8,0:0:0:0:
256,192,84827,1,0,0:0:0:0:
256,192,85939,1,8,0:0:0:0:
256,192,86309,1,4,0:0:0:0:
256,192,87050,1,8,0:0:0:0:
256,192,87605,1,0,0:0:0:0:
256,192,87976,1,0,0:0:0:0:
256,192,88346,1,8,0:0:0:0:
256,192,89272,1,8,0:0:0:0:
256,192,90013,1,0,0:0:0:0:
256,192,90383,1,8,0:0:0:0:
256,192,90753,1,8,0:0:0:0:
256,192,92235,1,4,0:0:0:0:
256,192,92790,1,0,0:0:0:0:
256,192,93346,1,0,0:0:0:0:
256,192,93716,1,12,0:0:0:0:
256,192,94272,1,0,0:0:0:0:
256,192,94827,1,0,0:0:0:0:
256,192,95198,1,12,0:0:0:0:
256,192,95939,1,8,0:0:0:0:
256,192,96494,1,8,0:0:0:0:
256,192,97790,1,8,0:0:0:0:
256,192,98161,1,4,0:0:0:0:
256,192,98716,1,0,0:0:0:0:
256,192,99272,1,8,0:0:0:0:
256,192,99642,1,12,0:0:0:0:
256,192,100198,1,0,0:0:0:0:
256,192,100753,1,8,0:0:0:0:
256,192,101124,1,4,0:0:0:0:
256,192,101864,1,8,0:0:0:0:
256,192,102605,1,0,0:0:0:0:
256,192,102976,1,8,0:0:0:0:
256,192,104087,1,4,0:0:0:0:
256,192,104827,1,8,0:0:0:0:
256,192,105568,1,4,0:0:0:0:
256,192,106309,1,8,0:0:0:0:
256,192,107050,1,4,0:0:0:0:
256,192,107790,1,8,0:0:0:0:
256,192,108902,1,8,0:0:0:0:
256,192,109272,1,0,0:0:0:0:
256,192,109642,1,8,0:0:0:0:
256,192,110013,1,4,0:0:0:0:
256,192,110753,1,8,0:0:0:0:
256,192,111494,1,4,0:0:0:0:
256,192,112235,1,8,0:0:0:0:
256,192,112976,1,4,0:0:0:0:
256,192,113716,1,8,0:0:0:0:
256,192,114457,1,8,0:0:0:0:
256,192,114827,1,0,0:0:0:0:
256,192,115198,1,8,0:0:0:0:
256,192,115939,1,0,0:0:0:0:
256,192,117235,1,0,0:0:0:0:
256,192,117976,1,8,0:0:0:0:
256,192,118902,1,0,0:0:0:0:
256,192,119642,1,8,0:0:0:0:
256,192,120198,1,8,0:0:0:0:
256,192,120939,1,0,0:0:0:0:
256,192,121864,1,8,0:0:0:0:
256,192,122235,1,8,0:0:0:0:
256,192,122605,1,0,0:0:0:0:
256,192,123161,1,8,0:0:0:0:
256,192,123902,1,0,0:0:0:0:
256,192,124457,1,8,0:0:0:0:
256,192,124827,1,8,0:0:0:0:
256,192,125568,1,8,0:0:0:0:
256,192,126309,1,0,0:0:0:0:
256,192,126864,1,8,0:0:0:0:
256,192,127420,1,8,0:0:0:0:
256,192,127790,1,4,0:0:0:0:
256,192,128902,1,0,0:0:0:0:
256,192,129272,1,12,0:0:0:0:
256,192,130383,1,0,0:0:0:0:
256,192,130753,1,0,0:0:0:0:
256,192,131309,1,0,0:0:0:0:
256,192,131864,1,8,0:0:0:0:
256,192,132235,1,8,0:0:0:0:
256,192,132976,1,8,0:0:0:0:
256,192,133346,1,0,0:0:0:0:
256,192,133716,1,12,0:0:0:0:
256,192,134827,1,0,0:0:0:0:
256,192,135198,1,12,0:0:0:0:
256,192,136679,1,8,0:0:0:0:
256,192,137050,1,0,0:0:0:0:
256,192,137420,1,8,0:0:0:0:
256,192,137790,1,0,0:0:0:0:
256,192,138161,1,8,0:0:0:0:
256,192,139642,1,4,0:0:0:0:
256,192,140198,1,0,0:0:0:0:
256,192,140753,1,0,0:0:0:0:
256,192,141124,1,12,0:0:0:0:
256,192,141679,1,8,0:0:0:0:
256,192,142235,1,0,0:0:0:0:
256,192,142605,1,12,0:0:0:0:
256,192,143346,1,8,0:0:0:0:
256,192,143902,1,8,0:0:0:0:
256,192,145198,1,8,0:0:0:0:
256,192,145568,1,4,0:0:0:0:
256,192,146124,1,0,0:0:0:0:
256,192,146679,1,8,0:0:0:0:
256,192,147050,1,12,0:0:0:0:
256,192,147605,1,8,0:0:0:0:
256,192,148161,1,8,0:0:0:0:
256,192,148531,1,4,0:0:0:0:
256,192,149272,1,8,0:0:0:0:
256,192,150013,1,0,0:0:0:0:
256,192,150383,1,8,0:0:0:0:
256,192,151494,1,4,0:0:0:0:
256,192,152235,1,8,0:0:0:0:
256,192,152976,1,4,0:0:0:0:
256,192,153716,1,8,0:0:0:0:
256,192,154457,1,4,0:0:0:0:
256,192,155198,1,8,0:0:0:0:
256,192,156309,1,8,0:0:0:0:
256,192,156679,1,0,0:0:0:0:
256,192,157050,1,8,0:0:0:0:
256,192,157420,1,4,0:0:0:0:
256,192,158161,1,8,0:0:0:0:
256,192,158902,1,4,0:0:0:0:
256,192,159642,1,8,0:0:0:0:
256,192,160383,1,4,0:0:0:0:
256,192,161124,1,8,0:0:0:0:
256,192,161864,1,8,0:0:0:0:
256,192,162235,1,0,0:0:0:0:
256,192,162605,1,8,0:0:0:0:
256,192,163346,1,4,0:0:0:0:
256,192,163902,1,8,0:0:0:0:
256,192,164827,1,0,0:0:0:0:
256,192,165198,1,0,0:0:0:0:
256,192,165939,1,8,0:0:0:0:
256,192,166309,1,0,0:0:0:0:
256,192,166864,1,8,0:0:0:0:
256,192,167790,1,0,0:0:0:0:
256,192,168161,1,8,0:0:0:0:
256,192,168902,1,0,0:0:0:0:
256,192,169272,1,12,0:0:0:0:
256,192,169827,1,8,0:0:0:0:
256,192,170753,1,0,0:0:0:0:
256,192,171124,1,0,0:0:0:0:
256,192,171864,1,8,0:0:0:0:
256,192,172235,1,0,0:0:0:0:
256,192,172790,1,8,0:0:0:0:
256,192,173716,1,0,0:0:0:0:
256,192,174087,1,0,0:0:0:0:
256,192,174457,1,8,0:0:0:0:
256,192,174827,1,8,0:0:0:0:
