osu file format v14

[General]
AudioFilename: audio.mp3
AudioLeadIn: 0
PreviewTime: 97475
Countdown: 1
SampleSet: Normal
StackLeniency: 0.7
Mode: 1
LetterboxInBreaks: 0
WidescreenStoryboard: 0

[Editor]
DistanceSpacing: 1
BeatDivisor: 8
GridSize: 4
TimelineZoom: 4.199999

[Metadata]
Title:Heavenly Spores
TitleUnicode:Heavenly Spores
Artist:Blitz Lunar
ArtistUnicode:Blitz Lunar
Creator:Xay
Version:Meiosis
Source:
Tags:8-bit 8bit chiptune nsf nsfplug nintendo sound format autumntunes
BeatmapID:1618355
BeatmapSetID:769683

[Difficulty]
HPDrainRate:7
CircleSize:5
OverallDifficulty:6
ApproachRate:5
SliderMultiplier:1.4
SliderTickRate:1

[Events]
//Background and Video events
0,0,"spores.jpg",0,0
//Break Periods
//Storyboard Layer 0 (Background)
//Storyboard Layer 1 (Fail)
//Storyboard Layer 2 (Pass)
//Storyboard Layer 3 (Foreground)
//Storyboard Sound Samples

[TimingPoints]
21070,266.193433895297,4,1,0,70,1,0
110518,266.193433895297,4,1,0,5,1,0
112648,266.193433895297,4,1,0,70,1,0
114778,266.193433895297,4,1,0,5,1,0
117573,266.193433895297,4,1,0,5,1,0
117639,266.193433895297,4,1,0,5,1,0
117705,266.193433895297,4,1,0,5,1,0
117771,266.193433895297,4,1,0,5,1,0
117870,266.193433895297,4,1,0,5,1,0
117969,266.193433895297,4,1,0,5,1,0
118102,266.193433895297,4,1,0,5,1,0
118268,266.193433895297,4,1,0,5,1,0
118467,266.193433895297,4,1,0,5,1,0
118699,266.193433895297,4,1,0,5,1,0
118965,266.193433895297,4,1,0,5,1,0
119297,266.193433895297,4,1,0,5,1,0
119633,266.193433895297,4,1,0,5,1,0
120195,266.193433895297,4,1,0,70,1,0

[HitObjects]
260,188,21074,5,0,0:0:0:0:
336,152,21607,1,8,0:0:0:0:
128,128,22007,1,0,0:0:0:0:
196,200,22140,1,0,0:0:0:0:
248,100,22406,1,0,0:0:0:0:
292,176,22672,1,8,0:0:0:0:
252,184,22938,1,0,0:0:0:0:
140,176,23205,1,0,0:0:0:0:
300,232,23737,1,8,0:0:0:0:
192,152,24136,1,0,0:0:0:0:
152,152,24269,1,0,0:0:0:0:
152,152,24535,1,0,0:0:0:0:
168,164,24802,1,8,0:0:0:0:
328,144,25068,1,0,0:0:0:0:
148,104,25134,1,0,0:0:0:0:
240,96,25201,1,8,0:0:0:0:
256,184,25334,1,0,0:0:0:0:
160,204,25861,1,8,0:0:0:0:
288,152,26260,1,0,0:0:0:0:
184,108,26394,1,0,0:0:0:0:
196,188,26660,1,0,0:0:0:0:
328,292,26926,1,8,0:0:0:0:
312,136,27192,1,0,0:0:0:0:
208,116,27458,1,0,0:0:0:0:
232,156,27991,1,8,0:0:0:0:
340,192,28390,1,0,0:0:0:0:
272,200,28523,1,0,0:0:0:0:
152,168,28789,1,8,0:0:0:0:
336,108,29055,1,8,0:0:0:0:
200,104,29322,1,8,0:0:0:0:
108,148,29388,1,8,0:0:0:0:
196,156,29455,1,0,0:0:0:0:
216,188,29588,1,4,0:0:0:0:
324,192,30120,1,8,0:0:0:0:
192,128,30386,1,0,0:0:0:0:
224,72,30453,1,0,0:0:0:0:
256,204,30520,1,8,0:0:0:0:
220,200,30653,1,0,0:0:0:0:
352,264,30919,1,0,0:0:0:0:
316,180,31185,1,8,0:0:0:0:
268,200,31451,1,0,0:0:0:0:
128,64,31584,1,8,0:0:0:0:
72,96,31651,1,8,0:0:0:0:
172,168,31717,1,0,0:0:0:0:
324,148,32250,1,8,0:0:0:0:
248,236,32516,1,0,0:0:0:0:
392,200,32583,1,0,0:0:0:0:
144,172,32649,1,8,0:0:0:0:
356,232,32782,1,0,0:0:0:0:
312,128,33048,1,8,0:0:0:0:
208,152,33315,1,8,0:0:0:0:
172,224,33581,1,0,0:0:0:0:
160,96,33647,1,0,0:0:0:0:
128,80,33714,1,8,0:0:0:0:
88,136,33780,1,8,0:0:0:0:
288,268,33847,1,0,0:0:0:0:
272,200,34379,1,8,0:0:0:0:
448,208,34646,1,0,0:0:0:0:
248,80,34712,1,0,0:0:0:0:
304,136,34779,1,8,0:0:0:0:
192,136,34912,1,0,0:0:0:0:
280,228,35178,1,0,0:0:0:0:
216,180,35444,1,8,0:0:0:0:
380,224,35710,1,0,0:0:0:0:
180,60,35843,1,8,0:0:0:0:
160,64,35910,1,8,0:0:0:0:
276,148,35977,1,0,0:0:0:0:
332,184,36243,1,8,0:0:0:0:
200,188,36309,1,8,0:0:0:0:
316,88,36376,1,8,0:0:0:0:
292,244,36442,1,8,0:0:0:0:
116,144,36509,1,8,0:0:0:0:
132,84,36775,1,0,0:0:0:0:
76,72,36908,1,8,0:0:0:0:
408,212,37041,1,8,0:0:0:0:
376,104,37108,1,8,0:0:0:0:
296,132,37174,1,8,0:0:0:0:
316,244,37241,1,8,0:0:0:0:
280,200,37307,1,0,0:0:0:0:
216,232,37374,1,0,0:0:0:0:
312,56,37441,1,0,0:0:0:0:
104,148,37507,1,0,0:0:0:0:
276,180,37574,1,8,0:0:0:0:
192,192,37640,1,8,0:0:0:0:
284,172,37707,1,8,0:0:0:0:
132,124,37773,1,8,0:0:0:0:
160,64,37840,1,0,0:0:0:0:
48,96,37906,1,8,0:0:0:0:
180,76,37973,1,0,0:0:0:0:
168,168,38040,1,8,0:0:0:0:
204,120,38106,1,0,0:0:0:0:
344,156,38638,1,8,0:0:0:0:
272,80,38705,1,8,0:0:0:0:
204,72,38772,1,8,0:0:0:0:
104,176,38905,1,0,0:0:0:0:
176,160,39038,1,8,0:0:0:0:
122,162,39304,1,0,0:0:0:0:
316,236,39437,1,8,0:0:0:0:
380,224,39504,1,8,0:0:0:0:
232,200,39570,1,8,0:0:0:0:
221,188,39703,1,0,0:0:0:0:
236,160,39836,1,8,0:0:0:0:
144,172,39903,1,8,0:0:0:0:
224,236,39969,1,0,0:0:0:0:
316,280,40103,1,0,0:0:0:0:
312,132,40236,1,8,0:0:0:0:
164,120,40502,1,8,0:0:0:0:
104,80,40635,1,8,0:0:0:0:
252,204,40768,1,0,0:0:0:0:
81,183,40835,1,0,0:0:0:0:
46,141,40901,1,0,0:0:0:0:
240,104,41034,1,8,0:0:0:0:
240,204,41300,1,0,0:0:0:0:
260,208,41367,1,0,0:0:0:0:
220,204,41433,1,0,0:0:0:0:
192,200,41500,1,0,0:0:0:0:
144,208,41567,1,8,0:0:0:0:
144,208,41633,1,8,0:0:0:0:
144,232,41700,1,8,0:0:0:0:
144,232,41766,1,8,0:0:0:0:
144,232,41833,1,0,0:0:0:0:
144,232,41899,1,0,0:0:0:0:
384,200,41966,1,8,0:0:0:0:
220,112,42032,1,0,0:0:0:0:
296,124,42099,1,8,0:0:0:0:
188,164,42166,1,0,0:0:0:0:
140,136,42232,1,8,0:0:0:0:
136,204,42299,1,8,0:0:0:0:
240,216,42365,1,0,0:0:0:0:
256,56,42631,1,8,0:0:0:0:
112,96,42764,1,8,0:0:0:0:
348,192,42898,1,0,0:0:0:0:
181,111,42964,1,0,0:0:0:0:
76,66,43031,1,0,0:0:0:0:
224,112,43164,1,8,0:0:0:0:
320,256,43297,1,0,0:0:0:0:
192,200,43563,1,8,0:0:0:0:
180,144,43630,1,8,0:0:0:0:
72,188,43696,1,0,0:0:0:0:
220,68,43962,1,8,0:0:0:0:
248,164,44095,1,0,0:0:0:0:
312,237,44162,1,0,0:0:0:0:
160,124,44228,1,8,0:0:0:0:
157,155,44295,1,0,0:0:0:0:
236,208,44361,1,8,0:0:0:0:
328,96,44494,1,0,0:0:0:0:
380,248,44761,1,8,0:0:0:0:
324,168,44894,1,0,0:0:0:0:
192,200,44960,1,8,0:0:0:0:
244,272,45027,1,8,0:0:0:0:
212,132,45293,1,8,0:0:0:0:
96,112,45426,1,0,0:0:0:0:
312,132,45559,1,8,0:0:0:0:
248,88,45626,1,0,0:0:0:0:
384,152,45692,1,8,0:0:0:0:
164,72,45759,1,8,0:0:0:0:
272,204,45825,1,0,0:0:0:0:
76,152,45892,1,0,0:0:0:0:
384,268,45958,1,8,0:0:0:0:
188,192,46025,1,0,0:0:0:0:
152,200,46092,1,8,0:0:0:0:
88,48,46158,1,8,0:0:0:0:
80,112,46225,1,0,0:0:0:0:
80,104,46291,1,0,0:0:0:0:
216,132,46358,1,8,0:0:0:0:
132,112,46424,1,0,0:0:0:0:
256,52,46491,1,8,0:0:0:0:
200,56,46557,1,8,0:0:0:0:
336,172,46624,1,0,0:0:0:0:
196,168,47156,1,8,0:0:0:0:
330,115,47223,1,8,0:0:0:0:
241,110,47289,1,8,0:0:0:0:
272,104,47423,1,0,0:0:0:0:
344,272,47556,1,8,0:0:0:0:
192,72,47822,1,0,0:0:0:0:
150,227,47888,1,0,0:0:0:0:
288,208,47955,1,8,0:0:0:0:
251,169,48088,1,8,0:0:0:0:
268,224,48221,1,0,0:0:0:0:
276,108,48288,1,0,0:0:0:0:
224,152,48354,1,8,0:0:0:0:
204,72,48421,1,8,0:0:0:0:
172,88,48487,1,0,0:0:0:0:
388,224,48620,1,0,0:0:0:0:
360,140,48754,1,8,0:0:0:0:
168,128,49020,1,8,0:0:0:0:
96,96,49153,1,8,0:0:0:0:
272,276,49286,1,0,0:0:0:0:
161,127,49352,1,0,0:0:0:0:
122,97,49419,1,8,0:0:0:0:
344,248,49552,1,8,0:0:0:0:
227,151,49685,1,0,0:0:0:0:
352,164,49818,1,0,0:0:0:0:
344,80,49885,1,0,0:0:0:0:
304,52,49951,1,0,0:0:0:0:
272,44,50018,1,0,0:0:0:0:
176,168,50084,1,8,0:0:0:0:
280,216,50151,1,0,0:0:0:0:
212,204,50218,1,0,0:0:0:0:
176,208,50284,1,0,0:0:0:0:
140,212,50351,1,8,0:0:0:0:
304,212,50417,1,0,0:0:0:0:
240,128,50484,1,8,0:0:0:0:
140,80,50550,1,8,0:0:0:0:
212,72,50617,1,0,0:0:0:0:
192,48,50683,1,8,0:0:0:0:
192,48,50750,1,0,0:0:0:0:
152,40,50817,1,8,0:0:0:0:
152,40,50883,1,8,0:0:0:0:
296,96,51149,1,8,0:0:0:0:
136,96,51282,1,8,0:0:0:0:
80,176,51327,1,0,0:0:0:0:
152,192,51371,1,0,0:0:0:0:
300,240,51415,1,8,0:0:0:0:
244,140,51549,1,8,0:0:0:0:
176,96,51815,1,8,0:0:0:0:
176,248,52081,1,0,0:0:0:0:
312,156,52214,1,0,0:0:0:0:
208,96,52347,1,0,0:0:0:0:
124,56,52414,1,0,0:0:0:0:
148,160,52480,1,8,0:0:0:0:
392,140,52613,1,8,0:0:0:0:
276,84,52680,1,8,0:0:0:0:
128,136,52746,1,0,0:0:0:0:
76,140,52813,1,0,0:0:0:0:
52,164,52880,1,8,0:0:0:0:
72,176,52946,1,8,0:0:0:0:
64,208,53013,1,0,0:0:0:0:
219,169,53279,1,0,0:0:0:0:
228,68,53412,1,0,0:0:0:0:
112,68,53478,1,0,0:0:0:0:
168,116,53545,1,8,0:0:0:0:
24,104,53678,1,8,0:0:0:0:
200,116,53811,1,0,0:0:0:0:
56,120,53944,1,8,0:0:0:0:
332,184,54077,1,8,0:0:0:0:
208,176,54144,1,0,0:0:0:0:
128,188,54210,1,0,0:0:0:0:
180,240,54277,1,8,0:0:0:0:
256,232,54344,1,0,0:0:0:0:
336,252,54410,1,0,0:0:0:0:
320,208,54477,1,8,0:0:0:0:
192,80,54543,1,8,0:0:0:0:
120,56,54610,1,0,0:0:0:0:
292,96,54676,1,8,0:0:0:0:
264,64,54743,1,8,0:0:0:0:
244,60,54809,1,0,0:0:0:0:
180,36,54876,1,8,0:0:0:0:
160,24,54943,1,8,0:0:0:0:
120,32,55009,1,8,0:0:0:0:
80,44,55076,1,8,0:0:0:0:
104,116,55142,1,0,0:0:0:0:
277,94,55209,1,0,0:0:0:0:
340,84,55275,1,0,0:0:0:0:
275,79,55342,1,0,0:0:0:0:
300,70,55408,1,0,0:0:0:0:
56,194,55475,1,0,0:0:0:0:
304,172,55541,1,8,0:0:0:0:
196,116,55941,1,8,0:0:0:0:
92,96,56074,1,0,0:0:0:0:
264,216,56340,1,0,0:0:0:0:
20,136,56473,1,8,0:0:0:0:
332,152,56540,1,0,0:0:0:0:
236,252,56606,1,0,0:0:0:0:
196,116,56739,1,8,0:0:0:0:
336,260,57006,1,8,0:0:0:0:
119,220,57072,1,0,0:0:0:0:
400,148,57139,1,8,0:0:0:0:
300,140,57205,1,8,0:0:0:0:
176,180,57272,1,0,0:0:0:0:
192,100,57538,1,8,0:0:0:0:
160,76,57671,1,0,0:0:0:0:
232,68,57738,1,0,0:0:0:0:
112,96,57804,1,8,0:0:0:0:
212,160,57937,1,8,0:0:0:0:
216,156,58070,1,8,0:0:0:0:
288,144,58203,1,0,0:0:0:0:
336,292,58470,1,0,0:0:0:0:
72,128,58536,1,0,0:0:0:0:
144,168,58603,1,8,0:0:0:0:
144,104,58669,1,0,0:0:0:0:
200,192,58736,1,0,0:0:0:0:
160,96,58802,1,0,0:0:0:0:
132,188,58869,1,8,0:0:0:0:
300,184,59135,1,0,0:0:0:0:
168,132,59401,1,8,0:0:0:0:
256,120,59468,1,8,0:0:0:0:
220,92,59534,1,8,0:0:0:0:
172,80,59601,1,0,0:0:0:0:
120,68,59667,1,8,0:0:0:0:
324,220,59801,1,0,0:0:0:0:
248,224,59934,1,8,0:0:0:0:
140,120,60200,1,8,0:0:0:0:
236,192,60266,1,8,0:0:0:0:
180,168,60333,1,0,0:0:0:0:
340,152,60599,1,0,0:0:0:0:
204,92,60732,1,8,0:0:0:0:
112,60,60865,1,0,0:0:0:0:
100,164,60998,1,8,0:0:0:0:
40,124,61065,1,8,0:0:0:0:
128,120,61132,1,8,0:0:0:0:
128,120,61198,1,8,0:0:0:0:
232,212,61265,1,0,0:0:0:0:
172,120,61331,1,0,0:0:0:0:
384,164,61398,1,8,0:0:0:0:
248,136,61464,1,8,0:0:0:0:
148,184,61531,1,0,0:0:0:0:
312,248,61797,1,8,0:0:0:0:
292,176,62063,1,8,0:0:0:0:
204,156,62329,1,0,0:0:0:0:
220,128,62396,1,0,0:0:0:0:
156,132,62462,1,8,0:0:0:0:
312,96,62729,1,0,0:0:0:0:
208,228,62795,1,0,0:0:0:0:
208,64,62862,1,8,0:0:0:0:
132,196,62928,1,8,0:0:0:0:
80,72,62995,1,0,0:0:0:0:
132,196,63062,1,0,0:0:0:0:
104,160,63128,1,8,0:0:0:0:
352,232,63394,1,0,0:0:0:0:
244,200,63660,1,0,0:0:0:0:
244,104,63749,1,8,0:0:0:0:
200,68,63838,1,8,0:0:0:0:
176,168,63926,1,0,0:0:0:0:
88,204,64015,1,0,0:0:0:0:
136,228,64104,1,0,0:0:0:0:
228,240,64192,1,8,0:0:0:0:
300,188,64459,1,0,0:0:0:0:
180,152,64725,1,8,0:0:0:0:
392,232,64991,1,8,0:0:0:0:
256,212,65124,1,0,0:0:0:0:
308,64,65191,1,0,0:0:0:0:
140,84,65257,1,8,0:0:0:0:
280,108,65523,1,0,0:0:0:0:
172,80,65590,1,0,0:0:0:0:
100,48,65657,1,8,0:0:0:0:
64,48,65723,1,0,0:0:0:0:
224,188,65790,1,8,0:0:0:0:
100,128,66056,1,8,0:0:0:0:
176,64,66122,1,8,0:0:0:0:
144,44,66189,1,0,0:0:0:0:
292,148,66322,1,8,0:0:0:0:
328,280,66455,1,8,0:0:0:0:
264,184,66588,1,0,0:0:0:0:
224,128,66721,1,0,0:0:0:0:
396,144,66988,1,0,0:0:0:0:
100,48,67054,1,8,0:0:0:0:
264,80,67121,1,8,0:0:0:0:
100,48,67187,1,8,0:0:0:0:
152,208,67254,1,0,0:0:0:0:
140,60,67320,1,0,0:0:0:0:
88,180,67387,1,8,0:0:0:0:
236,196,67653,1,0,0:0:0:0:
168,124,67919,1,0,0:0:0:0:
320,152,68119,1,0,0:0:0:0:
216,100,68318,1,0,0:0:0:0:
228,168,68452,1,8,0:0:0:0:
304,260,68718,1,8,0:0:0:0:
136,192,68851,1,0,0:0:0:0:
328,124,69117,1,0,0:0:0:0:
216,76,69184,1,0,0:0:0:0:
148,76,69250,1,8,0:0:0:0:
184,48,69317,1,8,0:0:0:0:
216,148,69383,1,0,0:0:0:0:
180,40,69450,1,0,0:0:0:0:
152,132,69516,1,8,0:0:0:0:
272,224,69783,1,0,0:0:0:0:
160,208,70049,1,0,0:0:0:0:
272,116,70315,1,8,0:0:0:0:
160,96,70581,1,8,0:0:0:0:
320,208,70847,1,8,0:0:0:0:
76,176,70914,1,0,0:0:0:0:
160,172,70980,1,8,0:0:0:0:
232,168,71247,1,0,0:0:0:0:
212,128,71513,1,0,0:0:0:0:
336,160,71646,1,8,0:0:0:0:
288,192,72178,1,8,0:0:0:0:
128,144,72245,1,8,0:0:0:0:
204,96,72311,1,8,0:0:0:0:
168,84,72378,1,8,0:0:0:0:
196,148,72444,1,8,0:0:0:0:
220,136,72511,1,8,0:0:0:0:
252,120,72578,1,0,0:0:0:0:
244,96,72644,1,8,0:0:0:0:
136,96,72711,1,8,0:0:0:0:
120,96,72777,1,8,0:0:0:0:
112,96,72844,1,8,0:0:0:0:
112,96,72910,1,8,0:0:0:0:
108,96,72977,1,0,0:0:0:0:
288,44,73043,1,8,0:0:0:0:
184,40,73110,1,8,0:0:0:0:
144,40,73177,1,8,0:0:0:0:
184,116,73243,1,0,0:0:0:0:
248,192,73310,1,0,0:0:0:0:
104,164,73376,1,0,0:0:0:0:
96,152,73443,1,0,0:0:0:0:
164,164,73509,1,8,0:0:0:0:
316,104,73576,1,8,0:0:0:0:
336,176,73642,1,0,0:0:0:0:
60,80,73709,1,0,0:0:0:0:
56,88,73775,1,8,0:0:0:0:
204,136,73842,1,8,0:0:0:0:
192,68,73909,1,0,0:0:0:0:
132,48,73975,1,0,0:0:0:0:
96,44,74042,1,8,0:0:0:0:
236,192,74108,1,0,0:0:0:0:
204,136,74175,1,8,0:0:0:0:
136,112,74241,1,0,0:0:0:0:
328,132,74308,1,8,0:0:0:0:
128,144,74374,1,8,0:0:0:0:
204,96,74441,1,8,0:0:0:0:
168,84,74507,1,8,0:0:0:0:
196,148,74574,1,8,0:0:0:0:
220,136,74641,1,8,0:0:0:0:
252,120,74707,1,0,0:0:0:0:
244,96,74774,1,0,0:0:0:0:
136,96,74840,1,8,0:0:0:0:
120,96,74907,1,8,0:0:0:0:
112,96,74973,1,8,0:0:0:0:
112,96,75040,1,8,0:0:0:0:
108,96,75106,1,0,0:0:0:0:
288,44,75173,1,8,0:0:0:0:
184,40,75239,1,8,0:0:0:0:
144,40,75306,1,8,0:0:0:0:
184,116,75373,1,0,0:0:0:0:
248,192,75439,1,0,0:0:0:0:
104,164,75506,1,0,0:0:0:0:
96,152,75572,1,0,0:0:0:0:
164,164,75639,1,8,0:0:0:0:
316,104,75705,1,8,0:0:0:0:
336,176,75772,1,0,0:0:0:0:
60,80,75838,1,0,0:0:0:0:
56,88,75905,1,8,0:0:0:0:
204,136,75972,1,8,0:0:0:0:
192,68,76038,1,0,0:0:0:0:
132,48,76105,1,0,0:0:0:0:
96,44,76171,1,8,0:0:0:0:
236,192,76238,1,0,0:0:0:0:
204,136,76304,1,8,0:0:0:0:
136,112,76371,1,0,0:0:0:0:
288,192,76437,1,8,0:0:0:0:
128,144,76504,1,8,0:0:0:0:
204,96,76570,1,8,0:0:0:0:
168,84,76637,1,8,0:0:0:0:
196,148,76704,1,8,0:0:0:0:
220,136,76770,1,8,0:0:0:0:
252,120,76837,1,0,0:0:0:0:
244,96,76903,1,0,0:0:0:0:
136,96,76970,1,8,0:0:0:0:
120,96,77036,1,8,0:0:0:0:
112,96,77103,1,8,0:0:0:0:
112,96,77169,1,8,0:0:0:0:
108,96,77236,1,0,0:0:0:0:
288,44,77302,1,8,0:0:0:0:
184,40,77369,1,8,0:0:0:0:
144,40,77436,1,8,0:0:0:0:
184,116,77502,1,0,0:0:0:0:
248,192,77569,1,0,0:0:0:0:
104,164,77635,1,0,0:0:0:0:
96,152,77702,1,0,0:0:0:0:
164,164,77768,1,8,0:0:0:0:
316,104,77835,1,8,0:0:0:0:
336,176,77901,1,0,0:0:0:0:
60,80,77968,1,0,0:0:0:0:
56,88,78035,1,8,0:0:0:0:
204,136,78101,1,8,0:0:0:0:
192,68,78168,1,0,0:0:0:0:
132,48,78234,1,0,0:0:0:0:
96,44,78301,1,8,0:0:0:0:
236,192,78367,1,0,0:0:0:0:
204,136,78434,1,8,0:0:0:0:
136,112,78500,1,0,0:0:0:0:
288,192,78567,1,8,0:0:0:0:
128,144,78633,1,8,0:0:0:0:
204,96,78700,1,8,0:0:0:0:
168,84,78767,1,8,0:0:0:0:
196,148,78833,1,0,0:0:0:0:
220,136,78900,1,8,0:0:0:0:
252,120,78966,1,8,0:0:0:0:
244,96,79033,1,8,0:0:0:0:
136,96,79099,1,0,0:0:0:0:
120,96,79166,1,8,0:0:0:0:
112,96,79232,1,8,0:0:0:0:
112,96,79299,1,8,0:0:0:0:
108,96,79365,1,0,0:0:0:0:
184,40,79432,1,0,0:0:0:0:
288,44,79499,1,8,0:0:0:0:
144,40,79565,1,8,0:0:0:0:
184,116,79632,1,0,0:0:0:0:
248,192,79698,1,8,0:0:0:0:
104,164,79765,1,0,0:0:0:0:
96,152,79831,1,0,0:0:0:0:
164,164,79898,1,8,0:0:0:0:
316,104,79964,1,8,0:0:0:0:
336,176,80031,1,0,0:0:0:0:
60,80,80098,1,0,0:0:0:0:
56,88,80164,1,8,0:0:0:0:
192,68,80231,1,0,0:0:0:0:
204,136,80297,1,8,0:0:0:0:
132,48,80364,1,8,0:0:0:0:
96,44,80430,1,0,0:0:0:0:
204,136,80497,1,0,0:0:0:0:
236,192,80563,1,8,0:0:0:0:
136,112,80630,1,0,0:0:0:0:
272,96,80696,1,8,0:0:0:0:
244,56,80763,1,0,0:0:0:0:
284,140,80830,1,0,0:0:0:0:
176,52,80896,1,0,0:0:0:0:
160,48,80963,1,0,0:0:0:0:
160,56,81029,1,0,0:0:0:0:
120,108,81096,1,0,0:0:0:0:
104,120,81162,1,0,0:0:0:0:
148,152,81229,1,8,0:0:0:0:
316,200,81295,1,8,0:0:0:0:
248,184,81362,1,8,0:0:0:0:
184,180,81428,1,8,0:0:0:0:
252,160,81495,1,0,0:0:0:0:
216,112,81562,1,8,0:0:0:0:
184,96,81628,1,8,0:0:0:0:
160,88,81695,1,8,0:0:0:0:
144,88,81761,1,0,0:0:0:0:
384,188,81828,1,0,0:0:0:0:
296,148,81894,1,0,0:0:0:0:
204,104,81961,1,0,0:0:0:0:
348,104,82027,1,8,0:0:0:0:
316,80,82094,1,8,0:0:0:0:
260,64,82160,1,0,0:0:0:0:
72,164,82227,1,0,0:0:0:0:
172,124,82293,1,8,0:0:0:0:
172,52,82360,1,8,0:0:0:0:
92,72,82426,1,0,0:0:0:0:
92,72,82493,1,8,0:0:0:0:
248,188,82560,1,0,0:0:0:0:
88,112,82626,1,8,0:0:0:0:
100,128,82693,1,8,0:0:0:0:
104,128,82759,1,8,0:0:0:0:
180,156,82826,1,0,0:0:0:0:
328,160,82892,1,0,0:0:0:0:
260,104,82959,1,0,0:0:0:0:
208,88,83025,1,0,0:0:0:0:
156,92,83092,1,8,0:0:0:0:
256,220,83158,1,0,0:0:0:0:
168,184,83225,1,0,0:0:0:0:
276,152,83292,1,0,0:0:0:0:
116,184,83358,1,8,0:0:0:0:
328,88,83425,1,8,0:0:0:0:
256,56,83491,1,8,0:0:0:0:
320,236,83558,1,8,0:0:0:0:
400,200,83624,1,8,0:0:0:0:
356,172,83691,1,8,0:0:0:0:
212,136,83757,1,0,0:0:0:0:
120,104,83824,1,0,0:0:0:0:
100,68,83891,1,0,0:0:0:0:
192,48,83957,1,0,0:0:0:0:
148,56,84024,1,8,0:0:0:0:
148,64,84090,1,8,0:0:0:0:
156,152,84157,1,0,0:0:0:0:
100,152,84223,1,0,0:0:0:0:
68,200,84290,1,8,0:0:0:0:
264,160,84356,1,0,0:0:0:0:
256,116,84423,1,8,0:0:0:0:
244,80,84489,1,8,0:0:0:0:
340,108,84556,1,8,0:0:0:0:
332,224,84623,1,8,0:0:0:0:
260,184,84689,1,0,0:0:0:0:
196,176,84756,1,0,0:0:0:0:
168,184,84822,1,8,0:0:0:0:
408,224,84889,1,8,0:0:0:0:
340,196,84955,1,0,0:0:0:0:
116,80,85022,1,0,0:0:0:0:
60,44,85088,1,0,0:0:0:0:
184,152,85155,1,0,0:0:0:0:
100,124,85221,1,0,0:0:0:0:
88,124,85288,1,0,0:0:0:0:
144,56,85355,1,8,0:0:0:0:
280,160,85421,1,0,0:0:0:0:
60,68,85488,1,8,0:0:0:0:
220,88,85554,1,8,0:0:0:0:
288,64,85621,1,8,0:0:0:0:
256,48,85687,1,8,0:0:0:0:
380,136,85754,1,0,0:0:0:0:
248,208,85820,1,8,0:0:0:0:
168,152,85887,1,0,0:0:0:0:
136,104,85954,1,8,0:0:0:0:
188,136,86020,1,8,0:0:0:0:
160,192,86087,1,8,0:0:0:0:
100,124,86153,1,0,0:0:0:0:
304,144,86220,1,8,0:0:0:0:
252,104,86286,1,8,0:0:0:0:
236,100,86353,1,8,0:0:0:0:
160,104,86419,1,0,0:0:0:0:
320,248,86486,1,0,0:0:0:0:
232,180,86552,1,8,0:0:0:0:
196,184,86619,1,8,0:0:0:0:
156,204,86686,1,8,0:0:0:0:
176,60,86752,1,8,0:0:0:0:
100,60,86819,1,0,0:0:0:0:
60,80,86885,1,0,0:0:0:0:
52,104,86952,1,0,0:0:0:0:
340,304,87018,1,0,0:0:0:0:
292,140,87085,1,8,0:0:0:0:
188,108,87151,1,8,0:0:0:0:
396,228,87218,1,8,0:0:0:0:
244,204,87284,1,8,0:0:0:0:
100,156,87351,1,0,0:0:0:0:
224,68,87418,1,8,0:0:0:0:
148,48,87484,1,8,0:0:0:0:
148,48,87551,1,8,0:0:0:0:
144,140,87617,1,0,0:0:0:0:
316,144,87684,1,8,0:0:0:0:
224,112,87750,1,8,0:0:0:0:
164,104,87817,1,8,0:0:0:0:
152,104,87883,1,0,0:0:0:0:
84,92,87950,1,8,0:0:0:0:
76,100,88017,1,0,0:0:0:0:
216,144,88083,1,8,0:0:0:0:
360,184,88150,1,0,0:0:0:0:
364,100,88239,1,0,0:0:0:0:
172,72,88328,1,0,0:0:0:0:
240,116,88416,1,0,0:0:0:0:
172,112,88505,1,0,0:0:0:0:
164,112,88594,1,0,0:0:0:0:
148,112,88682,1,8,0:0:0:0:
128,188,88771,1,8,0:0:0:0:
52,140,88860,1,8,0:0:0:0:
48,132,88948,1,8,0:0:0:0:
52,116,89038,1,0,0:1:0:0:
72,116,89126,1,8,0:0:0:0:
260,204,89214,1,0,0:0:0:0:
208,144,89481,1,0,0:0:0:0:
124,104,89614,1,0,0:0:0:0:
140,144,89747,1,8,0:0:0:0:
312,92,89813,1,8,0:0:0:0:
112,72,89880,1,0,0:0:0:0:
48,96,89946,1,0,0:0:0:0:
72,220,90013,1,8,0:0:0:0:
284,200,90146,1,8,0:0:0:0:
208,136,90412,1,0,0:0:0:0:
192,84,90545,1,0,0:0:0:0:
356,108,90678,1,8,0:0:0:0:
276,100,90812,1,0,0:0:0:0:
136,144,90945,1,8,0:0:0:0:
332,208,91078,1,8,0:0:0:0:
264,172,91144,1,0,0:0:0:0:
192,152,91211,1,8,0:0:0:0:
92,80,91277,1,8,0:0:0:0:
60,136,91344,1,0,0:0:0:0:
216,96,91610,1,0,0:0:0:0:
160,88,91743,1,0,0:0:0:0:
180,144,91876,1,8,0:0:0:0:
312,204,91943,1,8,0:0:0:0:
240,152,92009,1,0,0:0:0:0:
188,160,92076,1,0,0:0:0:0:
124,204,92143,1,8,0:0:0:0:
224,228,92276,1,0,0:0:0:0:
96,260,92342,1,0,0:0:0:0:
96,260,92409,1,0,0:0:0:0:
372,116,92542,1,8,0:0:0:0:
72,148,92608,1,0,0:0:0:0:
256,108,92675,1,8,0:0:0:0:
248,180,92808,1,0,0:0:0:0:
300,240,93074,1,8,0:0:0:0:
184,168,93207,1,8,0:0:0:0:
152,88,93340,1,0,0:0:0:0:
280,176,93407,1,0,0:0:0:0:
304,224,93473,1,8,0:0:0:0:
216,116,93740,1,0,0:0:0:0:
304,172,93873,1,8,0:0:0:0:
388,152,93939,1,0,0:0:0:0:
232,192,94006,1,0,0:0:0:0:
376,104,94272,1,8,0:0:0:0:
172,144,94538,1,0,0:0:0:0:
344,192,94738,1,8,0:0:0:0:
336,128,94804,1,0,0:0:0:0:
252,104,94871,1,0,0:0:0:0:
264,176,94938,1,8,0:0:0:0:
236,100,95004,1,0,0:0:0:0:
172,96,95071,1,0,0:0:0:0:
196,136,95137,1,8,0:0:0:0:
168,96,95204,1,0,0:0:0:0:
172,96,95270,1,8,0:0:0:0:
196,136,95337,1,8,0:0:0:0:
224,200,95403,1,8,0:0:0:0:
128,188,95470,1,8,0:0:0:0:
128,188,95536,1,0,0:0:0:0:
128,196,95603,1,8,0:0:0:0:
304,220,95869,1,0,0:0:0:0:
268,184,96002,1,0,0:0:0:0:
204,184,96135,1,8,0:0:0:0:
104,120,96202,1,8,0:0:0:0:
220,104,96269,1,8,0:0:0:0:
176,88,96335,1,8,0:0:0:0:
176,88,96402,1,0,0:0:0:0:
208,52,96468,1,8,0:0:0:0:
328,88,96535,1,8,0:0:0:0:
268,72,96601,1,8,0:0:0:0:
292,116,96668,1,0,0:0:0:0:
152,192,96757,1,0,0:0:0:0:
216,176,96846,1,0,0:0:0:0:
280,224,96934,1,8,0:0:0:0:
276,180,97023,1,0,0:0:0:0:
268,180,97112,1,0,0:0:0:0:
216,176,97200,1,8,0:0:0:0:
388,184,97466,1,8,0:0:0:0:
260,112,97599,1,8,0:0:0:0:
156,144,97733,1,0,0:0:0:0:
252,232,97999,1,0,0:0:0:0:
152,224,98132,1,0,0:0:0:0:
160,224,98265,1,8,0:0:0:0:
272,108,98332,1,8,0:0:0:0:
216,92,98398,1,8,0:0:0:0:
148,88,98465,1,8,0:0:0:0:
348,208,98531,1,0,0:0:0:0:
160,212,98864,1,8,0:0:0:0:
336,296,98930,1,0,0:0:0:0:
352,128,99064,1,0,0:0:0:0:
196,100,99197,1,8,0:0:0:0:
264,104,99263,1,8,0:0:0:0:
356,232,99330,1,0,0:0:0:0:
224,216,99596,1,0,0:0:0:0:
104,144,99862,1,0,0:0:0:0:
336,232,100128,1,0,0:0:0:0:
188,136,100261,1,0,0:0:0:0:
264,144,100395,1,8,0:0:0:0:
396,128,100462,1,8,0:0:0:0:
300,92,100528,1,0,0:0:0:0:
264,84,100595,1,0,0:0:0:0:
208,80,100661,1,8,0:0:0:0:
180,128,100795,1,0,0:0:0:0:
228,172,100861,1,0,0:0:0:0:
356,252,100928,1,0,0:0:0:0:
264,240,101061,1,8,0:0:0:0:
192,208,101194,1,8,0:0:0:0:
108,188,101327,1,0,0:0:0:0:
72,92,101460,1,8,0:0:0:0:
32,164,101527,1,0,0:0:0:0:
368,208,101660,1,0,0:0:0:0:
152,80,101726,1,8,0:0:0:0:
256,136,101859,1,8,0:0:0:0:
216,144,101992,1,0,0:0:0:0:
104,172,102259,1,0,0:0:0:0:
192,192,102392,1,0,0:0:0:0:
196,184,102525,1,8,0:0:0:0:
132,92,102591,1,8,0:0:0:0:
224,72,102658,1,8,0:0:0:0:
200,68,102724,1,8,0:0:0:0:
200,64,102791,1,0,0:0:0:0:
272,92,102858,1,8,0:0:0:0:
276,116,102924,1,8,0:0:0:0:
268,120,102991,1,8,0:0:0:0:
252,136,103057,1,0,0:0:0:0:
104,176,103124,1,0,0:0:0:0:
264,260,103190,1,0,0:0:0:0:
220,248,103257,1,0,0:0:0:0:
396,200,103323,1,8,0:0:0:0:
212,168,103456,1,0,0:0:0:0:
92,100,103590,1,0,0:0:0:0:
144,144,103723,1,0,0:0:0:0:
312,256,103856,1,0,0:0:0:0:
236,140,103989,1,8,0:0:0:0:
384,228,104122,1,0,0:0:0:0:
236,196,104388,1,0,0:0:0:0:
96,152,104521,1,8,0:0:0:0:
96,152,104654,1,8,0:0:0:0:
168,88,104721,1,8,0:0:0:0:
88,72,104787,1,8,0:0:0:0:
88,72,104854,1,8,0:0:0:0:
80,72,104921,1,8,0:0:0:0:
344,220,104987,1,8,0:0:0:0:
276,152,105054,1,8,0:0:0:0:
224,144,105120,1,8,0:0:0:0:
392,120,105187,1,0,0:0:0:0:
308,88,105253,1,0,0:0:0:0:
228,88,105320,1,0,0:0:0:0:
188,88,105386,1,0,0:0:0:0:
144,168,105453,1,8,0:0:0:0:
136,96,105519,1,0,0:0:0:0:
56,92,105586,1,0,0:0:0:0:
336,384,105653,1,0,0:0:0:0:
76,148,105719,1,8,0:0:0:0:
280,212,105786,1,0,0:0:0:0:
196,180,105852,1,0,0:0:0:0:
152,192,105919,1,0,0:0:0:0:
132,192,105985,1,8,0:0:0:0:
196,76,106052,1,8,0:0:0:0:
336,384,106118,1,8,0:0:0:0:
264,104,106185,1,8,0:0:0:0:
220,100,106251,1,0,0:0:0:0:
392,200,106318,1,0,0:0:0:0:
152,72,106385,1,8,0:0:0:0:
148,176,106451,1,0,0:0:0:0:
312,96,106518,1,8,0:0:0:0:
336,292,106651,1,0,0:0:0:0:
304,256,106784,1,0,0:0:0:0:
260,112,106850,1,0,0:0:0:0:
348,384,106917,1,0,0:0:0:0:
200,156,106984,1,8,0:0:0:0:
192,136,107050,1,0,0:0:0:0:
356,184,107183,1,0,0:0:0:0:
280,172,107250,1,8,0:0:0:0:
176,220,107316,1,0,0:0:0:0:
244,108,107449,1,8,0:0:0:0:
272,256,107516,1,8,0:0:0:0:
340,296,107582,1,0,0:0:0:0:
376,168,107716,1,8,0:0:0:0:
152,152,107849,1,0,0:0:0:0:
68,188,107915,1,8,0:0:0:0:
120,88,107982,1,0,0:0:0:0:
176,220,108048,1,8,0:0:0:0:
168,168,108115,1,0,0:0:0:0:
224,180,108248,1,8,0:0:0:0:
332,80,108381,1,8,0:0:0:0:
220,72,108448,1,8,0:0:0:0:
180,72,108514,1,8,0:0:0:0:
140,64,108581,1,8,0:0:0:0:
336,180,108647,1,0,0:0:0:0:
256,132,108714,1,0,0:0:0:0:
132,144,108780,1,0,0:0:0:0:
288,228,108847,1,0,0:0:0:0:
332,80,108913,1,8,0:0:0:0:
240,128,109002,1,8,0:0:0:0:
180,116,109091,1,8,0:0:0:0:
336,272,109180,1,0,0:0:0:0:
392,284,109268,1,0,0:0:0:0:
252,216,109357,1,0,0:0:0:0:
188,212,109446,1,8,0:0:0:0:
148,164,109712,1,4,0:0:0:0:
240,108,109978,1,4,0:0:0:0:
244,224,110244,1,4,0:0:0:0:
212,176,110519,1,0,0:0:0:0:
128,112,110585,1,0,0:0:0:0:
128,112,110652,1,8,0:0:0:0:
404,120,110785,1,8,0:0:0:0:
344,216,110918,1,0,0:0:0:0:
244,84,111051,1,0,0:0:0:0:
196,72,111118,1,8,0:0:0:0:
184,80,111184,1,8,0:0:0:0:
268,272,111317,1,8,0:0:0:0:
220,184,111450,1,0,0:0:0:0:
144,176,111583,1,8,0:0:0:0:
144,176,111650,1,8,0:0:0:0:
132,188,111716,1,8,0:0:0:0:
352,320,111850,1,8,0:0:0:0:
320,240,111916,1,8,0:0:0:0:
288,232,111983,1,0,0:0:0:0:
340,152,112116,1,0,0:0:0:0:
272,144,112182,1,8,0:0:0:0:
216,152,112249,1,0,0:0:0:0:
152,204,112382,1,8,0:0:0:0:
144,204,112448,1,0,0:0:0:0:
108,208,112515,1,0,0:0:0:0:
132,80,112648,1,8,0:0:0:0:
44,76,112715,1,8,0:0:0:0:
44,76,112781,1,8,0:0:0:0:
280,128,112848,1,8,0:0:0:0:
316,240,112914,1,0,0:0:0:0:
240,196,112981,1,0,0:0:0:0:
220,200,113047,1,0,0:0:0:0:
256,100,113181,1,8,0:0:0:0:
180,96,113269,1,8,0:0:0:0:
356,184,113358,1,8,0:0:0:0:
392,240,113447,1,0,0:0:0:0:
188,224,113535,1,0,0:0:0:0:
116,192,113624,1,0,0:0:0:0:
80,84,113712,2,0,L|336:140,2,256.666666666667
112,160,114778,1,8,0:0:0:0:
136,136,114844,1,8,0:0:0:0:
136,136,114911,1,8,0:0:0:0:
132,128,115044,1,8,0:0:0:0:
312,268,115177,1,8,0:0:0:0:
260,176,115377,1,8,0:0:0:0:
244,116,115576,1,8,0:0:0:0:
400,196,115776,1,8,0:0:0:0:
348,320,115909,1,8,0:0:0:0:
316,308,116009,1,8,0:0:0:0:
200,188,116075,1,8,0:0:0:0:
120,176,116142,1,8,0:0:0:0:
168,100,116197,1,8,0:0:0:0:
260,104,116242,1,8,0:0:0:0:
224,184,117573,1,0,0:0:0:0:
320,216,117639,1,0,0:0:0:0:
308,212,117705,1,0,0:0:0:0:
272,184,117771,1,0,0:0:0:0:
376,220,117870,1,0,0:0:0:0:
280,136,117969,1,0,0:0:0:0:
256,140,118102,1,0,0:0:0:0:
312,296,118268,1,0,0:0:0:0:
208,196,118467,1,0,0:0:0:0:
184,140,118699,1,0,0:0:0:0:
340,244,118965,1,0,0:0:0:0:
288,132,119297,1,0,0:0:0:0:
280,240,119633,1,0,0:0:0:0:
220,164,120195,1,4,0:0:0:0:
132,192,120328,1,0,0:0:0:0:
272,120,120461,1,8,0:0:0:0:
288,196,120594,1,0,0:0:0:0:
216,200,120727,1,0,0:0:0:0:
192,200,120861,1,0,0:0:0:0:
160,180,120994,1,8,0:0:0:0:
288,196,121127,1,0,0:0:0:0:
216,200,121260,1,0,0:0:0:0:
192,200,121393,1,0,0:0:0:0:
160,180,121526,1,8,0:0:0:0:
288,196,121659,1,0,0:0:0:0:
216,200,121792,1,0,0:0:0:0:
192,200,121925,1,0,0:0:0:0:
160,180,122058,1,8,0:0:0:0:
288,196,122192,1,0,0:0:0:0:
216,200,122325,1,0,0:0:0:0:
192,200,122458,1,0,0:0:0:0:
160,180,122591,1,8,0:0:0:0:
288,196,122724,1,0,0:0:0:0:
216,200,122857,1,0,0:0:0:0:
192,200,122990,1,0,0:0:0:0:
160,180,123123,1,8,0:0:0:0:
116,128,123256,1,0,0:0:0:0:
272,204,123389,1,0,0:0:0:0:
192,88,123456,1,0,0:0:0:0:
268,92,123523,1,0,0:0:0:0:
352,128,123589,1,0,0:0:0:0:
88,48,123656,1,8,0:0:0:0:
40,72,123722,1,8,0:0:0:0:
84,152,123789,1,0,0:0:0:0:
136,152,123855,1,0,0:0:0:0:
200,184,123922,1,8,0:0:0:0:
188,172,123988,1,8,0:0:0:0:
176,164,124055,1,8,0:0:0:0:
128,160,124121,1,8,0:0:0:0:
128,160,124188,1,0,0:0:0:0:
288,108,124255,1,0,0:0:0:0:
176,84,124321,1,8,0:0:0:0:
124,72,124388,1,8,0:0:0:0:
300,176,124454,1,0,0:0:0:0:
292,256,124587,1,0,0:0:0:0:
156,224,124720,1,8,0:0:0:0:
212,220,124853,1,8,0:0:0:0:
300,176,124987,1,0,0:0:0:0:
292,256,125120,1,0,0:0:0:0:
156,224,125253,1,8,0:0:0:0:
212,220,125386,1,8,0:0:0:0:
300,176,125519,1,0,0:0:0:0:
292,256,125652,1,0,0:0:0:0:
156,224,125785,1,8,0:0:0:0:
212,220,125918,1,8,0:0:0:0:
300,176,126051,1,0,0:0:0:0:
292,256,126184,1,0,0:0:0:0:
156,224,126318,1,8,0:0:0:0:
212,220,126451,1,8,0:0:0:0:
300,176,126584,1,0,0:0:0:0:
292,256,126717,1,0,0:0:0:0:
156,224,126850,1,8,0:0:0:0:
212,220,126983,1,8,0:0:0:0:
300,176,127116,1,0,0:0:0:0:
292,256,127249,1,0,0:0:0:0:
156,224,127382,1,8,0:0:0:0:
212,220,127515,1,8,0:0:0:0:
296,224,127649,1,0,0:0:0:0:
236,152,127715,1,0,0:0:0:0:
152,112,127782,1,0,0:0:0:0:
128,104,127848,1,0,0:0:0:0:
212,88,127915,1,8,0:0:0:0:
152,140,127981,1,0,0:0:0:0:
104,136,128048,1,8,0:0:0:0:
92,156,128114,1,8,0:0:0:0:
72,192,128181,1,0,0:0:0:0:
128,208,128247,1,8,0:0:0:0:
144,216,128314,1,0,0:0:0:0:
144,216,128381,1,0,0:0:0:0:
144,216,128447,1,8,0:0:0:0:
144,212,128514,1,0,0:0:0:0:
140,212,128580,1,8,0:0:0:0:
128,212,128647,1,8,0:0:0:0:
124,216,128713,1,0,0:0:0:0:
280,244,128846,1,0,0:0:0:0:
232,220,128979,1,8,0:0:0:0:
184,240,129113,1,0,0:0:0:0:
344,156,129246,1,8,0:0:0:0:
272,80,129312,1,8,0:0:0:0:
204,72,129379,1,8,0:0:0:0:
104,176,129512,1,0,0:0:0:0:
176,160,129645,1,8,0:0:0:0:
396,144,129712,1,8,0:0:0:0:
256,264,129778,1,0,0:0:0:0:
280,172,129845,1,0,0:0:0:0:
122,162,129911,1,0,0:0:0:0:
316,236,130044,1,8,0:0:0:0:
380,224,130111,1,8,0:0:0:0:
232,200,130177,1,8,0:0:0:0:
221,188,130310,1,0,0:0:0:0:
236,160,130444,1,8,0:0:0:0:
144,172,130510,1,8,0:0:0:0:
224,236,130577,1,0,0:0:0:0:
372,196,130643,1,0,0:0:0:0:
316,280,130710,1,8,0:0:0:0:
312,132,130843,1,8,0:0:0:0:
388,292,130909,1,8,0:0:0:0:
136,288,130976,1,0,0:0:0:0:
164,120,131109,1,8,0:0:0:0:
472,164,131176,1,0,0:0:0:0:
104,80,131242,1,8,0:0:0:0:
252,204,131375,1,0,0:0:0:0:
64,192,131442,1,0,0:0:0:0:
46,141,131508,1,8,0:0:0:0:
192,220,131575,1,8,0:0:0:0:
240,104,131641,1,0,0:0:0:0:
352,172,131775,1,8,0:0:0:0:
304,148,131908,1,0,0:0:0:0:
140,144,131974,1,0,0:0:0:0:
112,72,132041,1,8,0:0:0:0:
168,144,132107,1,8,0:0:0:0:
228,172,132174,1,0,0:0:0:0:
312,260,132240,1,0,0:0:0:0:
236,136,132307,1,8,0:0:0:0:
184,76,132373,1,8,0:0:0:0:
168,80,132440,1,0,0:0:0:0:
240,64,132507,1,8,0:0:0:0:
216,64,132573,1,8,0:0:0:0:
216,64,132640,1,8,0:0:0:0:
196,72,132706,1,0,0:0:0:0:
196,72,132773,1,8,0:0:0:0:
196,72,132839,1,8,0:0:0:0:
196,72,132906,1,8,0:0:0:0:
192,72,132972,1,0,0:0:0:0:
352,172,133105,1,0,0:0:0:0:
296,96,133239,1,8,0:0:0:0:
136,96,133372,1,8,0:0:0:0:
80,176,133415,1,0,0:0:0:0:
152,192,133460,1,0,0:0:0:0:
300,240,133505,1,8,0:0:0:0:
244,140,133638,1,8,0:0:0:0:
392,236,133771,1,8,0:0:0:0:
176,96,133904,1,0,0:0:0:0:
216,236,134037,1,0,0:0:0:0:
188,208,134104,1,8,0:0:0:0:
176,248,134170,1,0,0:0:0:0:
268,208,134236,1,0,0:0:0:0:
312,156,134303,1,8,0:0:0:0:
208,96,134436,1,0,0:0:0:0:
124,56,134503,1,0,0:0:0:0:
148,160,134569,1,8,0:0:0:0:
392,140,134702,1,8,0:0:0:0:
276,84,134769,1,8,0:0:0:0:
128,136,134835,1,0,0:0:0:0:
76,140,134902,1,0,0:0:0:0:
52,164,134969,1,8,0:0:0:0:
72,176,135035,1,8,0:0:0:0:
64,208,135102,1,0,0:0:0:0:
232,144,135368,1,12,0:0:0:0:
168,76,135501,1,4,0:0:0:0:
308,92,135767,1,12,0:0:0:0:
240,68,135900,1,4,0:0:0:0:
272,168,136166,1,12,0:0:0:0:
176,168,136300,1,4,0:0:0:0:
372,144,136566,1,12,0:0:0:0:
272,96,136699,1,4,0:0:0:0:
192,72,136965,1,8,0:0:0:0:
152,64,137032,1,8,0:0:0:0:
144,64,137098,1,8,0:0:0:0:
140,64,137165,1,8,0:0:0:0:
188,168,137231,1,0,0:0:0:0:
152,152,137298,1,0,0:0:0:0:
280,168,137364,1,8,0:0:0:0:
260,136,137431,1,8,0:0:0:0:
216,80,137497,1,8,0:0:0:0:
148,84,137564,1,8,0:0:0:0:
332,224,137630,1,0,0:0:0:0:
328,96,137697,1,8,0:0:0:0:
104,96,137764,1,8,0:0:0:0:
64,100,137830,1,8,0:0:0:0:
240,252,137897,1,0,0:0:0:0:
76,196,137963,1,8,0:0:0:0:
212,232,138030,1,0,0:0:0:0:
104,160,138096,1,0,0:0:0:0:
136,152,138163,1,0,0:0:0:0:
148,152,138229,1,0,0:0:0:0:
408,232,138296,1,8,0:0:0:0:
212,100,138363,1,8,0:0:0:0:
156,88,138429,1,0,0:0:0:0:
132,80,138496,1,0,0:0:0:0:
264,168,138562,1,8,0:0:0:0:
320,116,138629,1,0,0:0:0:0:
184,48,138695,1,0,0:0:0:0:
140,40,138762,1,0,0:0:0:0:
272,216,138828,1,8,0:0:0:0:
24,144,138895,1,0,0:0:0:0:
344,256,138961,1,8,0:0:0:0:
188,156,139028,1,0,0:0:0:0:
204,236,139095,1,8,0:0:0:0:
236,96,139161,1,8,0:0:0:0:
184,92,139228,1,8,0:0:0:0:
184,92,139294,1,8,0:0:0:0:
380,184,139361,1,0,0:0:0:0:
112,120,139427,1,8,0:0:0:0:
284,96,139494,1,8,0:0:0:0:
264,100,139560,1,8,0:0:0:0:
264,200,139627,1,0,0:0:0:0:
200,160,139693,1,8,0:0:0:0:
124,168,139760,1,0,0:0:0:0:
124,168,139827,1,8,0:0:0:0:
264,152,139893,1,0,0:0:0:0:
228,144,139960,1,8,0:0:0:0:
228,144,140026,1,8,0:0:0:0:
168,80,140093,1,8,0:0:0:0:
112,40,140159,1,0,0:0:0:0:
316,80,140226,1,8,0:0:0:0:
192,44,140292,1,8,0:0:0:0:
192,44,140359,1,8,0:0:0:0:
268,108,140426,1,0,0:0:0:0:
332,212,140492,1,0,0:0:0:0:
224,176,140559,1,0,0:0:0:0:
120,164,140625,1,0,0:0:0:0:
256,208,140692,1,8,0:0:0:0:
156,196,140758,1,8,0:0:0:0:
132,200,140825,1,0,0:0:0:0:
120,208,140891,1,8,0:0:0:0:
160,272,140958,1,0,0:0:0:0:
208,272,141024,1,8,0:0:0:0:
168,116,141091,1,8,0:0:0:0:
104,88,141158,1,8,0:0:0:0:
192,60,141224,1,0,0:0:0:0:
204,104,141291,1,8,0:0:0:0:
208,108,141357,1,0,0:0:0:0:
296,104,141424,1,8,0:0:0:0:
232,116,141490,1,0,0:0:0:0:
244,188,141557,1,0,0:0:0:0:
128,152,141623,1,8,0:0:0:0:
356,232,141690,1,8,0:0:0:0:
144,168,141756,1,8,0:0:0:0:
196,172,141823,1,8,0:0:0:0:
296,164,141890,1,0,0:0:0:0:
136,92,141956,1,0,0:0:0:0:
72,92,142023,1,8,0:0:0:0:
72,136,142089,1,8,0:0:0:0:
72,136,142156,1,8,0:0:0:0:
72,136,142222,1,8,0:0:0:0:
192,264,142289,1,0,0:0:0:0:
236,80,142355,1,0,0:0:0:0:
212,68,142422,1,8,0:0:0:0:
172,64,142489,1,8,0:0:0:0:
172,64,142555,1,0,0:0:0:0:
120,140,142622,1,8,0:0:0:0:
184,136,142688,1,8,0:0:0:0:
244,176,142755,1,8,0:0:0:0:
196,224,142821,1,0,0:0:0:0:
352,132,142888,1,0,0:0:0:0:
152,132,142954,1,8,0:0:0:0:
148,128,143021,1,8,0:0:0:0:
88,140,143087,1,0,0:0:0:0:
240,100,143154,1,8,0:0:0:0:
232,56,143221,1,0,0:0:0:0:
116,36,143287,1,8,0:0:0:0:
280,188,143354,1,0,0:0:0:0:
160,136,143420,1,0,0:0:0:0:
136,92,143487,1,0,0:0:0:0:
124,96,143553,1,0,0:0:0:0:
196,184,143620,1,8,0:0:0:0:
312,120,143686,1,8,0:0:0:0:
264,116,143753,1,8,0:0:0:0:
204,116,143819,1,8,0:0:0:0:
196,116,143886,1,0,0:0:0:0:
348,212,143953,1,8,0:0:0:0:
220,200,144019,1,0,0:0:0:0:
192,48,144086,1,8,0:0:0:0:
80,192,144152,1,0,0:0:0:0:
312,120,144219,1,8,0:0:0:0:
244,136,144285,1,8,0:0:0:0:
260,208,144352,1,8,0:0:0:0:
140,148,144418,1,0,0:0:0:0:
16,104,144485,1,0,0:0:0:0:
24,104,144552,1,0,0:0:0:0:
24,108,144618,1,0,0:0:0:0:
192,60,144685,1,8,0:0:0:0:
64,80,144751,1,8,0:0:0:0:
60,92,144818,1,0,0:0:0:0:
60,108,144884,1,0,0:0:0:0:
132,168,144951,1,8,0:0:0:0:
208,144,145017,1,8,0:0:0:0:
248,76,145084,1,0,0:0:0:0:
200,80,145150,1,0,0:0:0:0:
128,84,145217,1,8,0:0:0:0:
120,96,145284,1,8,0:0:0:0:
128,172,145350,1,0,0:0:0:0:
132,168,145417,1,0,0:0:0:0:
328,200,145483,1,8,0:0:0:0:
208,196,145550,1,8,0:0:0:0:
268,160,145616,1,0,0:0:0:0:
268,136,145683,1,0,0:0:0:0:
172,120,145749,1,8,0:0:0:0:
380,148,145816,1,8,0:0:0:0:
28,108,145882,1,8,0:0:0:0:
40,92,145949,1,8,0:0:0:0:
40,92,146016,1,0,0:0:0:0:
40,96,146082,1,8,0:0:0:0:
180,48,146149,1,0,0:0:0:0:
236,116,146215,1,8,0:0:0:0:
184,96,146282,1,8,0:0:0:0:
160,108,146348,1,8,0:0:0:0:
292,112,146415,1,0,0:0:0:0:
276,72,146481,1,8,0:0:0:0:
240,72,146548,1,8,0:0:0:0:
208,72,146615,1,8,0:0:0:0:
272,184,146681,1,0,0:0:0:0:
184,160,146748,1,8,0:0:0:0:
100,136,146814,1,0,0:0:0:0:
256,152,146881,1,0,0:0:0:0:
172,132,146947,1,0,0:0:0:0:
156,132,147014,1,0,0:0:0:0:
292,268,147080,1,8,0:0:0:0:
152,176,147147,1,0,0:0:0:0:
112,192,147213,1,0,0:0:0:0:
112,192,147280,1,0,0:0:0:0:
172,228,147347,1,8,0:0:0:0:
96,152,147413,1,0,0:0:0:0:
332,224,147480,1,8,0:0:0:0:
64,172,147546,1,0,0:0:0:0:
268,168,147613,1,8,0:0:0:0:
52,144,147679,1,8,0:0:0:0:
56,188,147746,1,0,0:0:0:0:
72,200,147812,1,0,0:0:0:0:
132,80,147879,1,8,0:0:0:0:
44,76,147945,1,8,0:0:0:0:
44,76,148012,1,8,0:0:0:0:
280,128,148079,1,8,0:0:0:0:
316,240,148145,1,0,0:0:0:0:
240,196,148212,1,0,0:0:0:0:
220,200,148278,1,0,0:0:0:0:
172,160,148345,1,0,0:0:0:0:
256,100,148411,1,8,0:0:0:0:
180,96,148500,1,8,0:0:0:0:
356,184,148588,1,8,0:0:0:0:
392,240,148678,1,0,0:0:0:0:
188,224,148766,1,0,0:0:0:0:
116,192,148855,1,0,0:0:0:0:
288,224,148944,1,8,0:0:0:0:
200,88,149010,1,0,0:0:0:0:
144,64,149077,1,8,0:0:0:0:
120,60,149143,1,0,0:0:0:0:
120,60,149210,1,8,0:0:0:0:
96,72,149276,1,0,0:0:0:0:
248,88,149343,1,8,0:0:0:0:
112,80,149410,1,8,0:0:0:0:
176,120,149476,1,0,0:0:0:0:
164,120,149543,1,8,0:0:0:0:
216,160,149609,1,0,0:0:0:0:
172,176,149676,1,0,0:0:0:0:
140,184,149742,1,8,0:0:0:0:
140,184,149809,1,0,0:0:0:0:
120,188,149875,1,8,0:0:0:0:
120,184,149942,1,8,0:0:0:0:
232,152,150008,1,0,0:0:0:0:
192,44,150075,1,8,0:0:0:0:
344,148,150142,1,8,0:0:0:0:
340,144,150208,1,8,0:0:0:0:
320,80,150275,1,8,0:0:0:0:
260,80,150341,1,8,0:0:0:0:
136,112,150408,1,0,0:0:0:0:
112,56,150474,1,8,0:0:0:0:
108,60,150541,1,8,0:0:0:0:
104,56,150607,1,8,0:0:0:0:
104,56,150674,1,0,0:0:0:0:
104,56,150741,1,8,0:0:0:0:
120,112,150807,1,0,0:0:0:0:
168,116,150874,1,8,0:0:0:0:
168,116,150940,1,0,0:0:0:0:
168,116,151007,1,8,0:0:0:0:
180,136,151073,1,0,0:0:0:0:
184,140,151140,1,8,0:0:0:0:
176,164,151206,1,8,0:0:0:0:
248,104,151273,1,8,0:0:0:0:
204,64,151339,1,0,0:0:0:0:
172,84,151406,1,8,0:0:0:0:
124,80,151473,1,8,0:0:0:0:
208,200,151539,1,8,0:0:0:0:
76,168,151606,1,0,0:0:0:0:
352,200,151672,1,8,0:0:0:0:
292,188,151739,1,0,0:0:0:0:
272,188,151805,1,8,0:0:0:0:
236,200,151872,1,0,0:0:0:0:
352,272,151938,1,0,0:0:0:0:
192,216,152005,1,0,0:0:0:0:
176,220,152071,1,0,0:0:0:0:
140,112,152138,1,8,0:0:0:0:
168,148,152226,1,8,0:0:0:0:
284,144,152315,1,8,0:0:0:0:
200,92,152404,1,0,0:0:0:0:
204,84,152493,1,0,0:0:0:0:
160,68,152581,1,0,0:0:0:0:
108,72,152670,1,8,0:0:0:0:
84,100,152759,1,8,0:0:0:0:
80,108,152848,1,8,0:0:0:0:
112,160,152936,1,0,0:0:0:0:
116,168,153025,1,0,0:0:0:0:
120,168,153114,1,0,0:0:0:0:
128,168,153202,1,8,0:0:0:0:
200,112,153269,1,0,0:0:0:0:
304,144,153336,1,0,0:0:0:0:
200,136,153402,1,0,0:0:0:0:
208,188,153469,1,0,0:0:0:0:
216,224,153535,1,0,0:0:0:0:
120,204,153602,1,0,0:0:0:0:
120,204,153668,1,0,0:0:0:0:
168,208,153735,1,8,0:0:0:0:
128,200,153801,1,8,0:0:0:0:
124,200,153868,1,8,0:0:0:0:
124,200,153935,1,8,0:0:0:0:
120,204,154001,1,8,0:0:0:0:
120,204,154068,1,8,0:0:0:0:
120,204,154134,1,8,0:0:0:0:
120,204,154201,1,8,0:0:0:0:
152,144,154267,1,0,0:0:0:0:
352,48,154334,1,8,0:0:0:0:
180,56,154400,1,0,0:0:0:0:
256,172,154533,1,8,0:0:0:0:
104,116,154600,1,0,0:0:0:0:
340,208,154667,1,0,0:0:0:0:
304,128,154800,1,8,0:0:0:0:
104,64,154866,1,8,0:0:0:0:
224,112,154933,1,0,0:0:0:0:
260,268,155066,1,8,0:0:0:0:
140,224,155132,1,0,0:0:0:0:
92,192,155199,1,0,0:0:0:0:
264,188,155332,1,0,0:0:0:0:
80,144,155399,1,0,0:0:0:0:
96,240,155465,1,0,0:0:0:0:
116,132,155598,1,8,0:0:0:0:
332,120,155731,1,0,0:0:0:0:
176,88,155864,1,0,0:0:0:0:
168,208,155931,1,0,0:0:0:0:
176,92,155998,1,0,0:0:0:0:
212,192,156131,1,8,0:0:0:0:
272,232,156264,1,8,0:0:0:0:
208,120,156397,1,0,0:0:0:0:
356,276,156663,1,8,0:0:0:0:
144,128,156929,1,0,0:0:0:0:
436,188,156996,1,0,0:0:0:0:
144,128,157062,1,0,0:0:0:0:
184,184,157195,1,8,0:0:0:0:
304,144,157462,1,0,0:0:0:0:
232,100,157528,1,0,0:0:0:0:
156,80,157595,1,0,0:0:0:0:
156,80,157661,1,0,0:0:0:0:
148,76,157728,1,8,0:0:0:0:
104,112,157794,1,8,0:0:0:0:
96,152,157861,1,0,0:0:0:0:
96,152,157927,1,0,0:0:0:0:
96,152,157994,1,8,0:0:0:0:
96,152,158061,1,8,0:0:0:0:
96,152,158127,1,8,0:0:0:0:
96,152,158194,1,8,0:0:0:0:
96,152,158260,1,0,0:0:0:0:
200,152,158327,1,0,0:0:0:0:
208,108,158393,1,8,0:0:0:0:
224,88,158460,1,8,0:0:0:0:
296,120,158526,1,0,0:0:0:0:
264,200,158593,1,8,0:0:0:0:
164,184,158659,1,0,0:0:0:0:
128,96,158793,1,8,0:0:0:0:
128,96,158859,1,0,0:0:0:0:
120,96,158926,1,0,0:0:0:0:
120,128,159059,1,8,0:0:0:0:
112,144,159125,1,8,0:0:0:0:
100,148,159192,1,0,0:0:0:0:
224,104,159325,1,8,0:0:0:0:
312,124,159392,1,0,0:0:0:0:
312,124,159458,1,0,0:0:0:0:
240,144,159591,1,0,0:0:0:0:
192,152,159658,1,0,0:0:0:0:
156,148,159724,1,0,0:0:0:0:
256,216,159857,1,8,0:0:0:0:
112,192,159990,1,0,0:0:0:0:
112,192,160124,1,0,0:0:0:0:
344,216,160190,1,0,0:0:0:0:
112,192,160257,1,0,0:0:0:0:
112,192,160390,1,8,0:0:0:0:
256,128,160523,1,8,0:0:0:0:
188,116,160656,1,0,0:0:0:0:
216,240,160922,1,8,0:0:0:0:
380,284,160989,1,0,0:0:0:0:
328,216,161055,1,8,0:0:0:0:
160,172,161188,1,0,0:0:0:0:
140,188,161255,1,0,0:0:0:0:
280,180,161321,1,0,0:0:0:0:
200,132,161455,1,8,0:0:0:0:
120,152,161721,1,0,0:0:0:0:
148,64,161787,1,0,0:0:0:0:
160,204,161854,1,0,0:0:0:0:
100,64,161920,1,0,0:0:0:0:
292,232,161987,1,8,0:0:0:0:
192,64,162053,1,0,0:0:0:0:
316,152,162120,1,0,0:0:0:0:
192,64,162187,1,0,0:0:0:0:
220,176,162253,1,8,0:0:0:0:
176,108,162320,1,8,0:0:0:0:
296,108,162386,1,0,0:0:0:0:
252,96,162453,1,0,0:0:0:0:
248,92,162519,1,8,0:0:0:0:
216,88,162586,1,8,0:0:0:0:
216,88,162652,1,8,0:0:0:0:
216,88,162719,1,8,0:0:0:0:
208,96,162785,1,0,0:0:0:0:
172,164,162852,1,8,0:0:0:0:
108,168,162919,1,0,0:0:0:0:
304,184,163052,1,8,0:0:0:0:
232,164,163118,1,0,0:0:0:0:
212,172,163185,1,0,0:0:0:0:
204,176,163318,1,8,0:0:0:0:
192,188,163384,1,8,0:0:0:0:
168,192,163451,1,0,0:0:0:0:
168,192,163584,1,8,0:0:0:0:
120,212,163651,1,0,0:0:0:0:
120,212,163717,1,0,0:0:0:0:
120,212,163850,1,0,0:0:0:0:
120,212,163917,1,0,0:0:0:0:
120,212,163983,1,0,0:0:0:0:
280,160,164116,1,8,0:0:0:0:
152,116,164250,1,0,0:0:0:0:
224,96,164383,1,0,0:0:0:0:
248,192,164449,1,0,0:0:0:0:
148,72,164516,1,8,0:0:0:0:
148,72,164649,1,8,0:0:0:0:
316,240,164782,1,0,0:0:0:0:
124,208,164915,1,0,0:0:0:0:
128,144,165181,1,8,0:0:0:0:
252,124,165447,1,0,0:0:0:0:
200,92,165514,1,0,0:0:0:0:
200,92,165581,1,0,0:0:0:0:
260,196,165714,1,8,0:0:0:0:
356,184,165980,1,0,0:0:0:0:
324,128,166046,1,0,0:0:0:0:
300,120,166113,1,8,0:0:0:0:
160,124,166246,1,0,0:0:0:0:
76,132,166379,1,0,0:0:0:0:
76,132,166446,1,0,0:0:0:0:
164,204,166512,1,8,0:0:0:0:
256,156,166645,1,0,0:0:0:0:
208,96,166778,1,8,0:0:0:0:
160,76,166845,1,8,0:0:0:0:
100,96,166911,1,0,0:0:0:0:
312,224,167045,1,8,0:0:0:0:
184,168,167111,1,8,0:0:0:0:
120,172,167178,1,0,0:0:0:0:
252,120,167311,1,8,0:0:0:0:
232,84,167377,1,0,0:0:0:0:
200,80,167444,1,0,0:0:0:0:
144,88,167577,1,8,0:0:0:0:
144,88,167644,1,8,0:0:0:0:
128,136,167710,1,0,0:0:0:0:
204,160,167843,1,8,0:0:0:0:
176,176,167910,1,0,0:0:0:0:
176,176,167976,1,0,0:0:0:0:
316,188,168109,1,0,0:0:0:0:
208,100,168376,1,8,0:0:0:0:
112,72,168509,1,0,0:0:0:0:
84,124,168642,1,0,0:0:0:0:
92,128,168775,1,0,0:0:0:0:
168,172,168908,1,8,0:0:0:0:
312,220,169174,1,0,0:0:0:0:
372,176,169440,1,8,0:0:0:0:
216,160,169707,1,0,0:0:0:0:
104,136,169840,1,0,0:0:0:0:
136,184,169973,1,8,0:0:0:0:
304,104,170239,1,0,0:0:0:0:
184,76,170372,1,8,0:0:0:0:
156,128,170505,1,0,0:0:0:0:
168,168,170638,1,0,0:0:0:0:
336,204,170771,1,0,0:0:0:0:
408,172,170838,1,8,0:0:0:0:
400,144,170904,1,8,0:0:0:0:
296,112,170971,1,8,0:0:0:0:
288,120,171037,1,8,0:0:0:0:
240,124,171104,1,8,0:0:0:0:
240,124,171171,1,8,0:0:0:0:
196,128,171237,1,8,0:0:0:0:
256,192,171304,12,0,174099,0:0:0:0:
280,212,174232,5,8,0:0:0:0:
