osu file format v14

[General]
AudioFilename: audio.mp3
AudioLeadIn: 0
PreviewTime: 73337
Countdown: 1
SampleSet: None
StackLeniency: 0.2
Mode: 0
LetterboxInBreaks: 0
WidescreenStoryboard: 1

[Editor]
Bookmarks: 0,5548,16380,29818,73722,93391,112982,121438,122659
DistanceSpacing: 2.5
BeatDivisor: 4
GridSize: 16
TimelineZoom: 3.399999

[Metadata]
Title:San Diego (Nightcore Mix)
TitleUnicode:San Diego (Nightcore Mix)
Artist:Blink-182
ArtistUnicode:Blink-182
Creator:Lilynn
Version:Normal
Source:
Tags:Punk Rock Blink 182 Jump Technical Big Gamer Big Money
BeatmapID:1551822
BeatmapSetID:735080

[Difficulty]
HPDrainRate:5.2
CircleSize:3.8
OverallDifficulty:9.2
ApproachRate:9.6
SliderMultiplier:2.3
SliderTickRate:1

[Events]
//Background and Video events
0,0,"kBHW4Id.jpg",0,0
//Break Periods
//Storyboard Layer 0 (Background)
//Storyboard Layer 1 (Fail)
//Storyboard Layer 2 (Pass)
//Storyboard Layer 3 (Foreground)
//Storyboard Sound Samples

[TimingPoints]
500,305.399462496946,4,3,2,30,1,0
76554,-100,4,3,2,30,0,0
83568,-133.333333333333,4,3,2,30,0,0
93952,-133.333333333333,4,3,2,30,0,0
110138,-153.846153846154,4,3,2,30,0,0
110749,-100,4,3,2,30,0,0
112887,-80,4,3,2,30,0,0
122659,-100,4,3,2,30,0,1
122888,-100,4,3,2,30,0,0
122965,-100,4,3,2,30,0,1
131210,-100,4,3,2,30,0,0
131821,-100,4,3,2,30,0,1
131974,-100,4,3,2,30,0,0
132127,-100,4,3,2,30,0,1
132279,-100,4,3,2,30,0,0
132432,-100,4,3,2,30,0,1
141594,-100,4,3,2,30,0,0

[Colours]
Combo1 : 198,255,198
Combo2 : 255,187,255
Combo3 : 213,213,234
Combo4 : 193,244,253

[HitObjects]
248,344,73795,6,0,B|209:261|256:253|217:170,1,172.5,10|0,0:0|0:0,0:0:0:0:
82,88,74101,6,0,P|75:143|106:190,1,115,4|2,0:0|0:0,0:0:0:0:
368,200,74406,1,8,0:0:0:0:
150,126,74558,1,2,0:0:0:0:
433,238,74712,6,0,P|387:273|333:267,1,115,8|2,0:0|0:0,0:0:0:0:
353,31,75017,6,0,P|345:117|368:200,1,172.5,12|0,0:0|0:0,0:0:0:0:
258,318,75322,2,0,P|202:311|148:279,1,115,4|0,0:0|0:0,0:0:0:0:
88,156,75628,5,4,0:0:0:0:
114,384,75780,1,2,0:0:0:0:
137,95,75933,6,0,P|79:78|31:101,1,115,4|0,0:0|0:0,0:0:0:0:
207,227,76239,5,8,0:0:0:0:
181,1,76391,1,2,0:0:0:0:
276,274,76544,6,0,P|287:217|261:168,1,115,4|2,0:0|0:0,0:0:0:0:
203,327,76849,6,0,L|370:282,1,172.5,8|0,0:0|0:0,0:0:0:0:
442,134,77155,2,0,P|391:113|329:117,1,115,4|2,0:0|0:0,0:0:0:0:
504,275,77460,1,8,0:0:0:0:
503,44,77613,1,2,0:0:0:0:
332,117,77766,6,0,B|377:187|325:204|372:286,1,172.5,4|0,0:0|0:0,0:0:0:0:
226,206,78071,6,0,P|168:195|110:201,1,115,8|2,0:0|0:0,0:0:0:0:
77,220,78300,5,0,0:0:0:0:
112,200,78376,1,0,0:0:0:0:
140,172,78452,1,0,0:0:0:0:
160,136,78529,1,0,0:0:0:0:
161,95,78605,1,0,0:0:0:0:
87,50,78682,6,0,P|166:73|269:74,1,172.5,2|0,0:0|0:0,0:0:0:0:
416,40,78987,2,0,P|405:96|363:164,1,115,4|2,0:0|0:0,0:0:0:0:
256,155,79293,5,8,0:0:0:0:
482,189,79445,1,2,0:0:0:0:
177,145,79598,2,0,P|202:95|255:75,1,115,4|0,0:0|0:0,0:0:0:0:
262,249,79903,6,0,P|178:258|95:291,1,172.5,10|0,0:0|0:0,0:0:0:0:
177,145,80209,2,0,P|236:164|294:159,1,115,6|0,0:0|0:0,0:0:0:0:
369,74,80514,6,0,L|392:260,1,172.5,12|0,0:0|0:0,0:0:0:0:
244,362,80820,6,0,L|263:230,1,115,8|2,0:0|0:0,0:0:0:0:
167,297,81125,5,4,0:0:0:0:
391,246,81278,1,2,0:0:0:0:
244,70,81430,5,4,0:0:0:0:
464,176,81583,1,2,0:0:0:0:
177,145,81736,2,0,P|236:164|294:159,1,115,4|2,0:0|0:0,0:0:0:0:
124,62,82041,6,0,L|134:257,1,172.5,6|0,0:0|0:0,0:0:0:0:
168,312,82347,1,4,0:0:0:0:
194,300,82423,1,0,0:0:0:0:
221,292,82499,1,2,0:0:0:0:
250,287,82576,1,0,0:0:0:0:
278,286,82652,5,4,0:0:0:0:
307,286,82728,1,0,0:0:0:0:
335,281,82805,1,2,0:0:0:0:
361,269,82881,1,0,0:0:0:0:
384,252,82957,6,0,P|392:216|392:184,1,57.5,4|0,0:0|0:0,0:0:0:0:
245,80,83110,6,0,P|269:107|296:125,1,57.5,8|0,0:0|0:0,0:0:0:0:
315,128,83263,1,4,0:0:0:0:
343,128,83339,1,0,0:0:0:0:
371,120,83415,1,2,0:0:0:0:
391,100,83492,1,0,0:0:0:0:
408,67,83568,2,0,L|391:203,1,129.375004935265,4|0,0:0|0:0,0:0:0:0:
308,200,83874,2,0,P|264:190|222:163,1,86.2500032901765,4|0,0:0|0:0,0:0:0:0:
176,108,84179,5,0,0:0:0:0:
200,244,84332,1,0,0:0:0:0:
72,196,84484,1,0,0:0:0:0:
184,100,84637,1,0,0:0:0:0:
40,260,84790,6,0,L|28:124,1,129.375004935265,4|0,0:0|0:0,0:0:0:0:
100,79,85095,2,0,P|141:85|201:108,1,86.2500032901765,4|0,0:0|0:0,0:0:0:0:
256,148,85401,5,0,0:0:0:0:
280,284,85554,1,0,0:0:0:0:
152,236,85706,1,0,0:0:0:0:
264,140,85859,1,0,0:0:0:0:
76,220,86011,6,0,P|109:169|174:161,1,129.375004935265,4|0,0:0|0:0,0:0:0:0:
265,115,86317,2,0,P|309:122|356:116,1,86.2500032901765,4|0,0:0|0:0,0:0:0:0:
420,55,86622,1,0,0:0:0:0:
402,192,86775,1,0,0:0:0:0:
428,42,86928,6,0,P|441:85|439:135,1,86.2500032901765,4|8,0:0|0:0,0:0:0:0:
402,192,87233,2,4,L|411:277,1,86.2500032901765,4|12,0:0|0:0,0:0:0:0:
345,328,87538,5,0,0:0:0:0:
483,321,87691,1,0,0:0:0:0:
281,280,87844,6,0,P|267:318|277:369,1,86.2500032901765,6|8,0:0|0:0,0:0:0:0:
354,225,88149,5,0,0:0:0:0:
199,248,88302,1,0,0:0:0:0:
376,149,88455,6,0,P|317:154|275:208,1,129.375004935265,4|0,0:0|0:0,0:0:0:0:
199,248,88760,6,0,L|113:238,1,86.2500032901765,4|0,0:0|0:0,0:0:0:0:
23,233,89065,5,0,0:0:0:0:
154,166,89218,1,0,0:0:0:0:
133,313,89371,1,0,0:0:0:0:
144,167,89523,1,0,0:0:0:0:
62,340,89676,6,0,P|64:277|113:237,1,129.375004935265,4|0,0:0|0:0,0:0:0:0:
212,205,89982,2,0,P|225:163|211:122,1,86.2500032901765,4|0,0:0|0:0,0:0:0:0:
111,96,90287,5,0,0:0:0:0:
288,120,90440,1,0,0:0:0:0:
147,170,90592,1,0,0:0:0:0:
183,27,90745,1,0,0:0:0:0:
363,146,90898,6,0,P|324:191|257:193,1,129.375004935265,4|0,0:0|0:0,0:0:0:0:
147,170,91203,2,0,L|200:320,1,129.375004935265,4|0,0:0|0:0,0:0:0:0:
267,323,91509,5,4,0:0:0:0:
267,323,91661,1,4,0:0:0:0:
288,120,91814,1,6,0:0:0:0:
341,264,91967,1,0,0:0:0:0:
329,50,92119,6,0,P|364:100|352:164,1,129.375004935265,4|0,0:0|0:0,0:0:0:0:
257,193,92425,6,0,L|110:173,1,129.375004935265,4|0,0:0|0:0,0:0:0:0:
148,189,92730,5,4,0:0:0:0:
122,57,92883,1,4,0:0:0:0:
242,99,93036,1,0,0:0:0:0:
148,189,93188,1,0,0:0:0:0:
261,15,93341,6,0,L|288:228,1,215.625008225441,4|0,0:0|0:0,0:0:0:0:
349,118,93799,5,0,0:0:0:0:
194,138,93952,2,0,P|133:116|70:101,1,129.375004935265
36,57,94257,6,0,L|46:146,1,86.2500032901765
52,224,94563,6,0,L|95:217,3,43.1250016450883
95,218,94868,2,0,P|151:187|194:139,1,129.375004935265
229,49,95173,6,0,P|297:61|351:92,1,129.375004935265
387,181,95479,2,0,B|363:93|411:93|387:5,1,172.500006580353
463,133,95937,5,0,0:0:0:0:
356,256,96090,2,0,P|419:253|462:208,1,129.375004935265
463,133,96395,6,0,L|488:336,1,172.500006580353
384,368,96853,5,0,0:0:0:0:
356,256,97006,6,0,L|372:196,3,43.1250016450883
356,256,97311,6,0,P|293:273|225:270,1,129.375004935265
180,323,97617,6,0,L|194:195,1,129.375004935265
141,130,97922,2,0,B|197:120|197:120|254:134|254:134|327:119,1,172.500006580353
416,96,98380,5,0,0:0:0:0:
393,208,98533,6,0,P|336:179|309:122,1,129.375004935265
368,44,98838,6,0,L|236:32,1,129.375004935265
114,4,99144,2,0,P|114:47|149:145,1,129.375004935265,0|8,0:0|0:0,0:0:0:0:
193,196,99449,2,0,P|195:260|180:323,1,129.375004935265,4|0,0:0|0:0,0:0:0:0:
144,344,99754,6,0,L|328:296,1,172.500006580353,4|0,0:0|0:0,0:0:0:0:
380,216,100212,5,0,0:0:0:0:
297,146,100365,6,0,P|272:234|326:311,1,172.500006580353
380,216,100823,1,0,0:0:0:0:
380,216,100976,2,0,P|418:171|477:133,1,129.375004935265
490,133,101281,6,0,P|420:129|367:104,1,129.375004935265,4|0,0:0|0:0,0:0:0:0:
321,36,101587,6,0,L|193:57,1,129.375004935265
81,105,101892,6,0,L|124:113,3,43.1250016450883
124,113,102198,6,0,P|153:173|168:248,1,129.375004935265,4|0,0:0|0:0,0:0:0:0:
156,318,102503,5,0,0:0:0:0:
156,318,102656,1,0,0:0:0:0:
241,273,102808,6,0,L|426:309,1,172.500006580353
494,82,103419,6,0,P|434:98|368:102,1,129.375004935265,0|4,0:0|0:0,0:0:0:0:
289,62,103725,2,0,P|227:72|166:97,1,129.375004935265,4|0,0:0|0:0,0:0:0:0:
112,165,104030,6,0,L|127:14,1,129.375004935265
10,32,104335,6,0,L|27:71,3,43.1250016450883
26,69,104641,2,0,P|50:107|119:169,1,129.375004935265,4|0,0:0|0:0,0:0:0:0:
223,177,104946,6,0,L|423:191,1,172.500006580353
442,122,105404,1,0,0:0:0:0:
376,73,105557,2,0,P|361:128|397:190,1,129.375004935265
460,259,105862,6,0,P|407:232|325:216,1,129.375004935265,0|4,0:0|0:0,0:0:0:0:
251,213,106168,2,0,B|184:218|125:245,1,129.375004935265,4|0,0:0|0:0,0:0:0:0:
78,316,106473,6,0,L|80:171,1,129.375004935265
115,78,106779,6,0,L|132:117,3,43.1250016450883,4|0|0|0,0:0|0:0|0:0|0:0,0:0:0:0:
132,117,107084,6,0,P|190:95|256:92,1,129.375004935265
319,46,107389,6,0,P|328:126|257:170,1,172.500006580353,4|4,0:0|0:0,0:0:0:0:
457,275,108000,6,0,P|433:205|443:125,1,129.375004935265
490,82,108306,5,0,0:0:0:0:
490,82,108458,1,0,0:0:0:0:
396,74,108611,6,0,L|266:92,1,129.375004935265
166,108,108916,5,0,0:0:0:0:
358,119,109069,1,0,0:0:0:0:
288,191,109222,2,0,L|298:244,3,43.1250016450883,4|0|0|0,0:0|0:0|0:0|0:0,0:0:0:0:
295,233,109527,2,0,P|236:259|172:269,1,129.375004935265,4|0,0:0|0:0,0:0:0:0:
110,329,109833,6,0,L|129:174,1,129.375004935265
199,156,110138,2,0,L|177:9,1,149.499993156433
448,48,110749,2,0,B|384:59|384:59|336:59|336:59|273:70,1,172.5
200,152,111054,2,0,P|200:240|240:312,1,172.5,4|0,0:0|0:0,0:0:0:0:
336,376,111360,2,0,L|120:352,1,172.5
96,296,111665,6,0,P|112:216|96:128,1,172.5,4|0,0:0|0:0,0:0:0:0:
32,56,111970,5,4,0:0:0:0:
69,40,112047,1,4,0:0:0:0:
108,36,112123,1,4,0:0:0:0:
146,46,112199,1,4,0:0:0:0:
173,75,112276,5,4,0:0:0:0:
194,108,112352,1,4,0:0:0:0:
228,128,112428,1,4,0:0:0:0:
267,137,112505,1,4,0:0:0:0:
306,134,112581,5,4,0:0:0:0:
342,117,112657,1,4,0:0:0:0:
372,89,112734,1,4,0:0:0:0:
385,51,112810,1,4,0:0:0:0:
386,9,112887,6,0,L|408:156,1,143.75,8|0,0:0|0:0,0:0:0:0:
148,282,113192,6,0,P|140:214|196:164,1,143.75,6|2,0:0|0:0,0:0:0:0:
407,151,113497,1,2,0:0:0:0:
211,240,113650,1,0,0:0:0:0:
342,117,113803,6,0,P|415:117|485:144,1,143.75,6|8,0:0|0:0,0:0:0:0:
278,201,114108,5,2,0:0:0:0:
386,9,114261,1,0,0:0:0:0:
333,257,114413,6,0,P|267:278|210:239,1,143.75,6|2,0:0|0:0,0:0:0:0:
400,152,114719,1,2,0:0:0:0:
347,362,114872,1,0,0:0:0:0:
335,106,115024,6,0,P|390:73|462:102,1,143.75,6|8,0:0|0:0,0:0:0:0:
278,200,115330,5,2,0:0:0:0:
325,3,115482,1,0,0:0:0:0:
212,239,115635,6,0,P|211:163|263:124,1,143.75,6|2,0:0|0:0,0:0:0:0:
487,191,115940,1,2,0:0:0:0:
278,200,116093,1,0,0:0:0:0:
472,112,116246,2,0,B|483:187|435:178|446:253,1,143.75,6|8,3:0|0:0,0:0:0:0:
245,300,116551,5,2,0:0:0:0:
456,344,116704,1,0,0:0:0:0:
200,384,116857,6,0,L|212:228,1,143.75,6|2,0:0|0:0,0:0:0:0:
269,110,117162,6,0,P|240:129|196:136,1,71.875,6|0,0:0|0:0,0:0:0:0:
106,116,117315,5,8,0:0:0:0:
142,108,117391,1,0,0:0:0:0:
176,116,117467,1,6,0:0:0:0:
204,138,117544,1,0,0:0:0:0:
222,170,117620,1,2,0:0:0:0:
224,206,117696,1,0,0:0:0:0:
211,240,117773,6,0,P|267:200|340:208,1,143.75,6|2,0:0|0:0,0:0:0:0:
395,283,118078,5,0,0:0:0:0:
360,72,118231,1,0,0:0:0:0:
314,335,118384,6,0,P|301:266|339:206,1,143.75,6|2,0:0|0:0,0:0:0:0:
436,128,118689,5,0,0:0:0:0:
222,170,118842,1,0,0:0:0:0:
452,49,118994,6,0,B|456:96|456:96|476:136|476:136|480:188,1,143.75,6|2,0:0|0:0,0:0:0:0:
244,94,119300,5,0,0:0:0:0:
449,128,119453,1,0,0:0:0:0:
177,54,119605,6,0,P|171:124|223:171,1,143.75,6|2,0:0|0:0,0:0:0:0:
388,312,119911,5,0,0:0:0:0:
340,108,120063,1,0,0:0:0:0:
296,340,120216,2,0,B|368:324|368:360|440:344,1,143.75,6|2,0:0|0:0,0:0:0:0:
224,304,120521,5,0,0:0:0:0:
245,89,120674,1,0,0:0:0:0:
172,360,120827,6,0,P|148:296|188:236,1,143.75,6|2,0:0|0:0,0:0:0:0:
312,188,121132,5,4,0:0:0:0:
100,156,121285,1,8,0:0:0:0:
432,276,121438,1,0,0:0:0:0:
412,244,121514,1,0,0:0:0:0:
404,208,121590,1,0,0:0:0:0:
412,172,121667,1,0,0:0:0:0:
420,136,121743,6,0,P|426:99|412:56,1,71.875,8|0,0:0|0:0,0:0:0:0:
188,80,121896,2,0,P|214:105|250:123,1,71.875,8|0,0:0|0:0,0:0:0:0:
280,128,122048,5,0,0:0:0:0:
318,119,122125,1,0,0:0:0:0:
351,102,122201,1,0,0:0:0:0:
336,136,122278,1,0,0:0:0:0:
326,173,122354,1,0,0:0:0:0:
319,211,122430,1,0,0:0:0:0:
326,250,122507,1,0,0:0:0:0:
342,285,122583,1,0,0:0:0:0:
407,327,122659,6,0,B|437:246|373:247|404:159,1,172.5,10|0,0:0|0:0,0:0:0:0:
279,50,122965,2,0,P|224:73|204:126,1,115,6|8,0:0|0:0,0:0:0:0:
207,332,123270,5,0,0:0:0:0:
280,128,123423,1,8,0:0:0:0:
154,274,123575,2,0,P|130:328|144:378,1,115,8|8,0:0|0:0,0:0:0:0:
375,317,123881,6,0,P|289:309|206:332,1,172.5,10|0,0:0|0:0,0:0:0:0:
68,248,124186,2,0,P|127:246|173:218,1,115,4|8,0:0|0:0,0:0:0:0:
256,108,124492,1,2,0:0:0:0:
206,331,124644,1,10,0:0:0:0:
232,30,124797,6,0,P|188:66|180:122,1,115,4|8,0:0|0:0,0:0:0:0:
206,331,125102,1,2,0:0:0:0:
96,128,125255,1,10,0:0:0:0:
281,357,125408,2,0,P|279:300|241:259,1,115,4|8,0:0|0:0,0:0:0:0:
37,329,125713,2,0,B|128:312|128:352|213:329,1,172.5,10|0,0:0|0:0,0:0:0:0:
316,174,126019,2,0,P|356:206|417:220,1,115,4|8,0:0|0:0,0:0:0:0:
448,48,126324,5,0,0:0:0:0:
486,295,126477,1,8,0:0:0:0:
316,174,126629,2,0,P|234:178|144:204,1,172.5,4|0,0:0|0:0,0:0:0:0:
68,56,126935,2,0,P|117:89|173:103,1,115,10|8,3:0|0:0,0:0:0:0:
209,92,127164,5,0,0:0:0:0:
246,75,127240,1,0,0:0:0:0:
287,71,127317,1,0,0:0:0:0:
326,86,127393,1,0,0:0:0:0:
356,113,127469,1,0,0:0:0:0:
400,172,127546,6,0,L|372:-8,1,172.5,10|0,0:0|0:0,0:0:0:0:
504,96,127851,2,0,P|488:156|492:208,1,115,6|8,0:0|0:0,0:0:0:0:
332,272,128156,2,0,P|289:230|232:220,1,115,6|8,0:0|0:0,0:0:0:0:
252,320,128462,5,4,0:0:0:0:
264,108,128615,1,12,0:0:0:0:
76,260,128767,2,0,P|158:261|241:213,1,172.5,6|0,0:0|0:0,0:0:0:0:
224,36,129073,2,0,P|187:85|189:138,1,115,10|8,0:0|0:0,0:0:0:0:
433,121,129378,2,0,B|342:90|343:137|257:105,1,172.5,4|0,0:0|0:0,0:0:0:0:
109,59,129683,2,0,P|82:115|30:138,1,115,10|8,0:0|0:0,0:0:0:0:
263,107,129989,5,8,0:0:0:0:
30,59,130142,1,0,0:0:0:0:
108,273,130294,1,8,0:0:0:0:
106,14,130447,1,0,0:0:0:0:
55,331,130600,6,0,P|107:351|163:327,1,115,4|0,0:0|0:0,0:0:0:0:
376,264,130905,1,2,0:0:0:0:
108,273,131058,1,10,0:0:0:0:
410,181,131210,2,0,L|398:317,1,115,4|0,0:0|0:0,0:0:0:0:
376,264,131440,5,4,0:0:0:0:
340,244,131516,1,4,0:0:0:0:
300,244,131592,1,4,0:0:0:0:
260,256,131669,1,4,0:0:0:0:
228,280,131745,1,4,0:0:0:0:
204,312,131821,2,0,P|172:324|148:328,1,57.5,12|0,0:0|0:0,0:0:0:0:
104,108,131974,6,0,P|132:127|149:144,1,57.5,10|0,0:0|0:0,0:0:0:0:
160,184,132127,1,4,0:0:0:0:
152,224,132203,1,4,0:0:0:0:
124,252,132279,1,4,0:0:0:0:
84,264,132356,1,4,0:0:0:0:
40,264,132432,2,0,P|124:276|204:312,1,172.5,4|0,0:0|0:0,0:0:0:0:
284,248,132737,2,0,P|364:208|456:200,1,172.5,4|0,0:0|0:0,0:0:0:0:
507,107,133043,5,2,0:0:0:0:
507,107,133196,1,10,0:0:0:0:
408,44,133348,6,0,L|272:68,1,115,6|0,0:0|0:0,0:0:0:0:
242,93,133654,2,0,L|458:29,1,172.5,6|0,0:0|0:0,0:0:0:0:
183,43,133959,2,0,P|171:123|239:171,1,172.5,6|0,0:0|0:0,0:0:0:0:
368,136,134264,5,2,0:0:0:0:
222,289,134417,1,10,0:0:0:0:
242,93,134570,1,6,0:0:0:0:
411,200,134723,1,2,0:0:0:0:
156,244,134875,6,0,P|240:236|324:272,1,172.5,6|0,0:0|0:0,0:0:0:0:
471,148,135181,2,0,P|420:121|366:136,1,115,4|8,0:0|0:0,0:0:0:0:
224,316,135486,1,8,0:0:0:0:
432,216,135639,1,8,0:0:0:0:
141,129,135791,2,0,L|157:253,1,115,6|8,0:0|0:0,0:0:0:0:
224,328,136097,5,0,0:0:0:0:
228,52,136250,1,10,0:0:0:0:
120,316,136402,1,6,0:0:0:0:
404,260,136555,1,10,0:0:0:0:
156,16,136708,6,0,P|152:76|184:120,1,115,4|8,0:0|0:0,0:0:0:0:
448,36,137013,5,2,0:0:0:0:
236,52,137166,1,10,0:0:0:0:
404,260,137318,6,0,P|384:172|384:88,1,172.5,6|0,0:0|0:0,0:0:0:0:
308,200,137624,6,0,P|256:220|188:228,1,115,4|8,0:0|0:0,0:0:0:0:
128,136,137929,5,0,0:0:0:0:
172,340,138082,1,10,0:0:0:0:
172,340,138235,1,2,0:0:0:0:
172,340,138387,1,10,0:0:0:0:
80,76,138540,6,0,P|52:148|112:212,1,172.5,6|0,0:0|0:0,0:0:0:0:
288,77,138845,6,0,P|200:118|110:136,1,172.5,6|0,0:0|0:0,0:0:0:0:
81,75,139151,5,2,0:0:0:0:
81,75,139304,1,10,0:0:0:0:
81,75,139456,1,2,0:0:0:0:
260,204,139609,1,0,0:0:0:0:
7,229,139762,6,0,P|39:167|110:211,1,172.5,6|0,0:0|0:0,0:0:0:0:
70,320,140067,6,0,P|119:280|233:306,1,172.5,6|0,0:0|0:0,0:0:0:0:
281,358,140372,5,2,0:0:0:0:
281,358,140525,1,10,0:0:0:0:
281,358,140678,1,2,0:0:0:0:
237,130,140831,1,8,0:0:0:0:
450,247,140983,6,0,P|392:256|336:236,1,115,0|8,0:0|0:0,0:0:0:0:
237,130,141289,1,0,0:0:0:0:
157,364,141441,1,8,0:0:0:0:
193,162,141594,6,8,L|225:30,1,115
229,90,141823,1,0,0:0:0:0:
237,130,141899,1,12,0:0:0:0:
244,168,141976,1,0,0:0:0:0:
252,208,142052,1,12,0:0:0:0:
260,248,142129,1,0,0:0:0:0:
228,324,142205,5,6,0:0:0:0:
