osu file format v14

[General]
AudioFilename: All The Small Things.mp3
AudioLeadIn: 0
PreviewTime: 130094
Countdown: 0
SampleSet: Soft
StackLeniency: 0.7
Mode: 0
LetterboxInBreaks: 0
WidescreenStoryboard: 0

[Editor]
Bookmarks: 117336
DistanceSpacing: 0.8
BeatDivisor: 4
GridSize: 4
TimelineZoom: 2.3

[Metadata]
Title:All The Small Things
TitleUnicode:All The Small Things
Artist:blink-182
ArtistUnicode:blink-182
Creator:Krisom
Version:Normal
Source:
Tags:Blink182 blink 182 Donkey Konga Enema of the State Pop Punk Rock English luigihann Babycakes-Buttermuffin
BeatmapID:93858
BeatmapSetID:27996

[Difficulty]
HPDrainRate:3.9
CircleSize:3
OverallDifficulty:3.9
ApproachRate:4.5
SliderMultiplier:1.4
SliderTickRate:1

[Events]
//Background and Video events
0,0,"BG.jpg",0,0
//Break Periods
2,58836,70478
2,104476,116062
//Storyboard Layer 0 (Background)
//Storyboard Layer 1 (Fail)
//Storyboard Layer 2 (Pass)
//Storyboard Layer 3 (Foreground)
//Storyboard Layer 4 (Overlay)
//Storyboard Sound Samples

[TimingPoints]
673,402.684563758389,4,2,1,70,1,0
6089,408.163265306122,4,2,1,60,1,0
6497,410.958904109589,4,2,1,60,1,0
7115,400,4,2,1,70,1,0
7915,410.958904109589,4,2,1,70,1,0
11202,409.276944065484,4,2,1,70,1,0
12020,402.684563758389,4,2,1,70,1,0
12825,408.163265306122,4,2,1,60,1,0
13641,397.350993377483,4,2,1,70,1,0
17614,405.405405405405,4,2,1,70,1,0
18424,405.405405405405,4,2,1,70,1,0
24911,382.165605095541,4,2,1,70,1,0
25675,380.469245402663,4,2,1,70,1,0
26435,397.350993377483,4,2,1,70,1,0
30412,402.684563758389,4,2,1,70,1,0
31217,402.684563758389,4,2,1,70,1,0
35244,410.958904109589,4,2,1,70,1,0
36065,402.684563758389,4,2,1,70,1,0
37675,400,4,2,1,70,1,0
39275,413.793103448276,4,2,1,70,1,0
39280,-125,4,2,1,100,0,0
39584,-125,4,1,0,80,0,0
40394,-125,4,2,1,100,0,0
40930,402.684563758389,4,2,1,70,1,0
41104,-125,4,1,0,80,0,0
41509,-125,4,2,1,100,0,0
42138,-125,4,1,0,80,0,0
42219,-125,4,1,0,60,0,0
42540,-125,4,2,1,100,0,0
42923,-125,4,1,0,80,0,0
43623,-125,4,2,1,100,0,0
44130,397.350993377483,4,2,1,70,1,0
44130,-125,4,1,1,80,0,0
44823,-125,4,2,1,100,0,0
45223,-125,4,1,0,80,0,0
45423,-125,4,1,0,60,0,0
45698,408.163265306122,4,2,1,88,1,1
45698,-90.9090909090909,4,2,1,88,0,1
47338,404.040404040404,4,2,1,88,1,1
48752,-90.9090909090909,4,2,1,88,0,1
52194,402.684563758389,4,2,1,88,1,1
55415,406.091370558376,4,2,1,88,1,1
57039,405.405405405405,4,2,1,88,1,1
57647,400,4,2,1,88,1,1
58247,389.61038961039,4,2,1,88,1,1
58636,397.350993377483,4,2,1,70,1,0
59430,408.163265306122,4,2,1,70,1,0
60250,410.958904109589,4,2,1,70,1,0
63536,413.793103448276,4,2,1,70,1,0
64336,428.571428571429,4,2,1,60,1,0
65167,405.405405405405,4,2,1,70,1,0
66788,419.58041958042,4,2,1,70,1,0
67615,408.163265306122,4,2,1,70,1,0
68431,434.782608695652,4,2,1,70,1,0
69264,425.531914893617,4,2,1,70,1,0
70097,422.535211267606,4,2,1,70,1,0
70902,428.571428571429,4,2,1,70,1,0
71738,408.163265306122,4,2,1,70,1,0
84799,410.958904109589,4,2,1,70,1,0
84817,-125,4,2,1,100,0,0
85225,-125,4,1,0,80,0,0
85921,-125,4,2,1,100,0,0
86653,-125,4,1,0,80,0,0
87146,-125,4,2,1,100,0,0
87776,-125,4,1,0,60,0,0
88064,-125,4,2,1,100,0,0
88487,-125,4,1,0,80,0,0
89186,-125,4,2,1,100,0,0
89697,397.350993377483,4,2,1,70,1,0
89697,-125,4,1,0,80,0,0
90311,-125,4,2,1,100,0,0
90818,-125,4,1,0,80,0,0
91021,-125,4,1,0,60,0,0
91286,408.163265306122,4,2,1,88,1,1
91286,-90.9090909090909,4,2,1,88,0,1
94546,-90.9090909090909,4,2,1,88,0,1
94750,-100,4,2,1,88,0,1
95158,-90.9090909090909,4,2,1,88,0,1
95974,-100,4,2,1,88,0,1
96382,-90.9090909090909,4,2,1,88,0,1
97000,406.2288422478,4,2,1,88,1,1
97812,400,4,2,1,88,1,1
97812,-90.9090909090909,4,2,1,88,0,1
100216,410.958904109589,4,2,1,88,1,1
101037,400,4,2,1,88,1,1
101037,-90.9090909090909,4,2,1,88,0,1
101837,419.58041958042,4,2,1,88,1,1
101837,-90.9090909090909,4,2,1,88,0,1
102676,400,4,2,1,88,1,1
104276,434.782608695652,4,2,1,70,1,0
104710,422.535211267606,4,2,1,70,1,0
105937,441.176470588235,4,2,1,70,1,0
106378,408.163265306122,4,2,1,70,1,0
106786,397.350993377483,4,2,1,70,1,0
107576,425.531914893617,4,2,1,70,1,0
109236,408.163265306122,4,2,1,70,1,0
114118,402.684563758389,4,2,1,70,1,0
117322,408.163265306122,4,2,1,50,1,0
117322,-125,4,2,1,100,0,0
118134,410.958904109589,4,2,1,50,1,0
118935,413.793103448276,4,2,1,50,1,0
118935,-125,4,2,1,100,0,0
120560,405.405405405405,4,2,1,50,1,0
120560,-125,4,2,1,100,0,0
122165,405.405405405405,4,2,1,50,1,0
122165,-125,4,2,1,100,0,0
123760,397.350993377483,4,2,1,60,1,0
128528,388.349514563107,4,2,1,60,1,0
129304,391.517128874388,4,2,1,60,1,0
129700,-100,4,1,0,80,0,0
130087,405.405405405405,4,2,1,90,1,1
130087,-90.9090909090909,4,2,1,90,0,1
131708,408.163265306122,4,2,1,90,1,1
131708,-90.9090909090909,4,2,1,90,0,1
133340,413.793103448276,4,2,1,90,1,1
133340,-90.9090909090909,4,2,1,90,0,1
134995,419.58041958042,4,2,1,90,1,1
134995,-90.9090909090909,4,2,1,90,0,1
135834,410.958904109589,4,2,1,90,1,1
136655,410.958904109589,4,2,1,90,1,1
136655,-90.9090909090909,4,2,1,90,0,1
137065,400,4,2,1,90,1,1
137465,410.958904109589,4,2,1,100,1,1
138295,411.918165591103,4,2,1,100,1,1
138295,-90.9090909090909,4,2,1,90,0,1
139736,-90.9090909090909,4,2,1,90,0,1
143135,-90.9090909090909,4,2,1,90,0,0
143238,-88.4955752212389,4,2,1,90,0,1
144885,405.405405405405,4,2,1,90,1,1
146405,-88.4955752212389,4,2,1,90,0,1
148140,405.405405405405,4,2,1,90,1,1
149766,408.163265306122,4,2,1,90,1,1
149797,-90.9090909090909,4,2,1,90,0,1
151398,413.793103448276,4,2,1,90,1,1
153053,401.33779264214,4,2,1,90,1,1
153855,404.040404040404,4,2,1,90,1,1
154663,400,4,2,1,90,1,1
154663,-90.9090909090909,4,2,1,90,0,1
157763,-100,4,2,1,100,0,0
157863,-100,4,2,1,100,0,1
157963,-100,4,2,1,100,0,0
158661,-100,4,2,1,90,0,0
159461,-100,4,2,1,80,0,0
160261,-100,4,2,1,70,0,0
160661,-100,4,2,1,60,0,0
161061,-100,4,2,1,50,0,0
161461,-100,4,2,1,40,0,0
161861,-100,4,2,1,30,0,0
162261,-100,4,2,1,20,0,0
162661,-100,4,2,1,10,0,0
163061,-100,4,2,1,5,0,0

[Colours]
Combo1 : 46,218,27
Combo2 : 226,14,14
Combo3 : 245,209,5
SliderBorder : 58,58,58

[HitObjects]
40,336,13641,5,4,0:0:0:0:
40,208,14038,1,8,0:0:0:0:
40,80,14436,1,2,0:0:0:0:
40,80,14833,2,0,B|172:-2|304:80,1,280,8|8,0:0|0:0,0:0:0:0:
376,168,16025,1,2,0:0:0:0:
376,168,16422,2,0,B|244:250|112:168,1,280,8|8,0:0|0:0,0:0:0:0:
40,80,17614,5,2,0:0:0:0:
40,80,18019,2,0,B|192:80|192:80|268:80|312:32,1,280,8|8,0:0|0:0,0:0:0:0:
372,152,19235,1,2,0:0:0:0:
372,152,19641,2,0,B|220:152|220:152|144:152|100:200,1,280,8|8,0:0|0:0,0:0:0:0:
60,300,20857,5,2,0:0:0:0:
60,300,21262,2,0,B|132:300|132:300|196:300|196:268|196:236|260:236|260:236|324:236,1,280,8|8,0:0|0:0,0:0:0:0:
428,240,22478,1,2,0:0:0:0:
428,240,22884,2,0,B|356:240|356:240|292:240|292:208|292:176|228:176|228:176|164:176,1,280,8|8,0:0|0:0,0:0:0:0:
76,236,24100,5,2,0:0:0:0:
152,320,24505,1,8,0:0:0:0:
256,264,24911,2,0,B|256:184,2,70,2|8|8,0:0|0:0|0:0,0:0:0:0:
356,320,25675,2,0,B|376:360|420:352,2,70,2|0|8,0:0|0:0|0:0,0:0:0:0:
436,236,26435,5,4,0:0:0:0:
408,128,26832,1,8,0:0:0:0:
308,76,27229,2,0,B|260:136|164:112,1,140,2|8,0:0|0:0,0:0:0:0:
124,168,27825,1,0,0:0:0:0:
68,220,28024,1,0,0:0:0:0:
112,352,28421,1,8,0:0:0:0:
256,340,28819,2,0,B|304:276|388:300,1,140,2|8,0:0|0:0,0:0:0:0:
428,236,29415,1,0,0:0:0:0:
472,172,29613,5,0,0:0:0:0:
424,32,30011,1,8,0:0:0:0:
320,112,30412,2,0,B|256:160|192:112,2,140,2|8|0,0:0|0:0|0:0,0:0:0:0:
384,240,31620,1,8,0:0:0:0:
256,240,32022,1,2,0:0:0:0:
128,240,32425,1,8,0:0:0:0:
256,20,33230,5,8,0:0:0:0:
384,36,33633,1,2,0:0:0:0:
384,36,34036,2,0,B|448:172|388:308,1,280,8|8,0:0|0:0,0:0:0:0:
256,364,35244,1,2,0:0:0:0:
123,306,35654,2,0,B|64:172|128:36,1,277,8|8,0:0|0:0,0:0:0:0:
256,52,36870,5,2,0:0:0:0:
184,156,37273,2,0,B|176:216|208:256|256:252|256:252|304:256|336:216|328:156,1,279,8|8,0:0|0:0,0:0:0:0:
256,52,38475,1,2,0:0:0:0:
256,52,38875,1,8,0:0:0:0:
156,52,39275,5,4,0:0:0:0:
216,248,40102,2,0,B|160:280|92:248,2,112,0|8|0,0:0|0:0|0:0,0:0:0:0:
296,60,41735,2,0,B|348:28|416:60,2,112,8|0|4,0:0|0:0|0:0,0:0:0:0:
344,260,43346,5,0,0:0:0:0:
256,312,43748,1,8,0:0:0:0:
168,260,44130,1,0,0:0:0:0:
204,60,44924,1,8,0:0:0:0:
308,60,45322,1,0,0:0:0:0:
400,108,45698,6,0,B|492:108|492:216|408:216|408:216|368:216|348:216,2,230.999993115664,4|2|8,0:0|0:0|0:0,0:0:0:0:
328,108,47126,1,2,0:0:0:0:
184,108,47540,1,2,0:0:0:0:
148,176,47742,1,8,0:0:0:0:
256,268,48146,1,0,0:0:0:0:
364,176,48550,1,8,0:0:0:0:
364,312,48954,6,0,B|328:312|328:312|296:344|256:360|216:344|184:312|184:312|148:312,2,230.999993115664,4|2|8,0:0|0:0|0:0,0:0:0:0:
333,240,50368,2,0,B|161:240,1,153.999995410442,2|2,0:0|0:0,0:0:0:0:
184,168,50974,1,8,0:0:0:0:
328,168,51378,1,2,0:0:0:0:
256,56,51782,1,8,0:0:0:0:
112,108,52194,6,0,B|20:108|20:216|104:216|104:216|152:216,2,210,4|2|8,0:0|0:0|0:0,0:0:0:0:
184,108,53603,1,2,0:0:0:0:
328,108,54006,1,2,0:0:0:0:
364,176,54207,1,8,0:0:0:0:
256,268,54610,1,0,0:0:0:0:
148,176,55012,1,8,0:0:0:0:
156,320,55415,6,0,B|180:320|180:320|216:344|256:356|296:344|332:320|332:320|356:320,2,210,4|2|8,0:0|0:0|0:0,0:0:0:0:
180,241,56836,2,0,B|328:240,1,140,2|2,0:0|0:0,0:0:0:0:
328,168,57444,1,8,0:0:0:0:
184,168,57847,1,8,0:0:0:0:
256,56,58247,1,8,0:0:0:0:
256,56,58636,1,4,0:0:0:0:
444,36,71738,37,4,0:0:0:0:
444,164,72146,1,8,0:0:0:0:
444,292,72554,2,0,B|364:288|324:204,1,140,2|8,0:0|0:0,0:0:0:0:
68,164,73778,1,8,0:0:0:0:
68,292,74186,2,0,B|160:284|192:204,1,140,2|8,0:0|0:0,0:0:0:0:
384,36,75411,5,8,0:0:0:0:
256,36,75819,1,2,0:0:0:0:
128,36,76227,1,8,0:0:0:0:
192,288,77044,2,0,B|256:336|320:288,2,140,8|2|8,0:0|0:0|0:0,0:0:0:0:
168,212,78064,1,0,0:0:0:0:
156,136,78268,6,0,B|256:80|356:136,1,210,0|2,0:0|0:0,0:0:0:0:
356,212,79084,1,2,0:0:0:0:
256,292,79493,1,8,0:0:0:0:
156,212,79901,1,0,0:0:0:0:
256,132,80309,1,8,0:0:0:0:
326,31,80717,6,0,B|188:30,1,140,2|8,0:0|0:0,0:0:0:0:
168,104,81329,2,0,B|208:156|256:168|304:156|344:104,1,210,0|8,0:0|0:0,0:0:0:0:
452,184,82350,1,2,0:0:0:0:
448,316,82758,1,8,0:0:0:0:
324,304,83166,6,0,B|256:332|188:304,1,140,8|8,0:0|0:0,0:0:0:0:
188,228,83778,1,0,0:0:0:0:
188,152,83982,2,0,B|256:124|324:152,1,140,8|8,0:0|0:0,0:0:0:0:
324,304,84799,5,4,0:0:0:0:
296,104,85620,2,0,B|380:104|380:104|388:100|388:100|392:108|392:108|400:104|400:104|428:104,2,112,0|8|0,0:0|0:0|0:0,0:0:0:0:
216,280,87264,2,0,B|132:280|132:280|124:284|124:284|120:276|120:276|112:280|112:280|88:280,2,112,8|0|4,0:0|0:0|0:0,0:0:0:0:
356,132,88908,5,0,0:0:0:0:
356,236,89319,1,8,0:0:0:0:
356,340,89697,1,0,0:0:0:0:
156,340,90491,1,8,0:0:0:0:
156,236,90889,1,0,0:0:0:0:
156,132,91286,6,0,B|64:144|52:228|52:228|16:252|16:252|36:288|36:288|24:316,2,230.999993115664,4|2|8,0:0|0:0|0:0,0:0:0:0:
184,60,92714,1,2,0:0:0:0:
328,60,93122,1,2,0:0:0:0:
356,132,93326,1,8,0:0:0:0:
256,232,93734,1,0,0:0:0:0:
156,132,94143,1,8,0:0:0:0:
180,260,94551,6,0,B|200:344|256:348|312:344|332:260,2,230.999993115664,4|2|8,0:0|0:0|0:0,0:0:0:0:
180,184,95979,1,2,0:0:0:0:
324,184,96388,1,2,0:0:0:0:
324,108,96592,1,8,0:0:0:0:
188,108,97000,1,2,0:0:0:0:
256,4,97406,1,8,0:0:0:0:
356,132,97812,6,0,B|448:144|460:228|460:228|496:252|496:252|476:288|476:288|488:316,2,230.999993115664,4|2|8,0:0|0:0|0:0,0:0:0:0:
328,60,99212,1,2,0:0:0:0:
184,60,99612,1,2,0:0:0:0:
156,132,99812,1,8,0:0:0:0:
256,232,100216,1,0,0:0:0:0:
356,132,100626,1,8,0:0:0:0:
332,260,101037,6,0,B|312:344|256:352|200:344|180:260,1,231.000007049561,4|2,0:0|0:0,0:0:0:0:
180,184,101837,2,0,B|256:172|256:172|332:184,1,154.000004699707,0|2,3:0|0:0,0:0:0:0:
324,104,102466,1,2,0:0:0:0:
188,104,102876,1,2,0:0:0:0:
116,72,103076,1,8,0:0:0:0:
256,8,103476,1,8,0:0:0:0:
396,72,103876,1,8,0:0:0:0:
256,96,104276,1,4,0:0:0:0:
368,76,117322,38,0,B|140:76,1,223,10|0,0:0|0:0,0:0:0:0:
56,148,118544,1,0,0:0:0:0:
152,184,118935,2,0,B|76:360,2,168,8|0|0,0:0|0:0|0:0,0:0:0:0:
144,76,120560,6,0,B|372:76,1,224,10|0,0:0|0:0,0:0:0:0:
456,148,121776,1,0,0:0:0:0:
360,184,122165,2,0,B|436:360,2,168,8|0|0,0:0|0:0|0:0,0:0:0:0:
256,104,123760,5,8,0:0:0:0:
164,192,124157,1,0,0:0:0:0:
256,280,124554,1,8,0:0:0:0:
348,192,124952,1,0,0:0:0:0:
256,76,125349,5,8,0:0:0:0:
140,192,125746,1,8,0:0:0:0:
256,308,126144,1,8,0:0:0:0:
372,192,126541,1,8,0:0:0:0:
256,76,126938,6,0,B|176:80,2,70,8|0|8,0:0|0:0|0:0,0:0:0:0:
140,192,127733,2,0,B|136:272,2,70,8|0|8,0:0|0:0|0:0,0:0:0:0:
256,308,128528,6,0,B|332:312,2,70,8|0|8,0:0|0:0|0:0,0:0:0:0:
372,192,129304,2,0,B|389:162|389:162|388:120,3,70,8|8|0|0,0:0|0:0|0:0|0:0,0:0:0:0:
380,36,130087,5,4,0:0:0:0:
256,100,130492,1,8,0:0:0:0:
132,36,130897,2,0,B|68:116|132:192,1,153.999995410442,2|8,0:0|0:0,0:0:0:0:
188,328,131708,2,0,B|256:264|324:328,1,153.999995410442,0|8,0:0|0:0,0:0:0:0:
428,280,132524,2,0,B|496:344,2,76.9999977052212,2|0|8,0:0|0:0|0:0,0:0:0:0:
336,176,133340,6,0,B|296:100|196:136,1,153.999995410442,4|8,0:0|0:0,0:0:0:0:
84,92,134167,2,0,B|12:156,2,76.9999977052212,2|0|8,0:0|0:0|0:0,0:0:0:0:
184,196,134995,2,0,B|256:248|328:196,1,153.999995410442,0|8,0:0|0:0,0:0:0:0:
428,284,135834,2,0,B|492:224,2,70,2|8|8,0:0|0:0|0:0,0:0:0:0:
256,272,136655,5,4,0:0:0:0:
184,152,137065,1,8,0:0:0:0:
328,152,137465,2,0,B|392:104,2,70,2|0|8,0:0|0:0|0:0,0:0:0:0:
184,152,138295,2,0,B|136:240|36:200,1,153.999995410442,0|8,0:0|0:0,0:0:0:0:
132,300,139118,2,0,B|72:368,2,76.9999977052212,2|0|8,0:0|0:0|0:0,0:0:0:0:
256,364,139942,6,0,B|284:272|400:292,1,153.999995410442,4|8,0:0|0:0,0:0:0:0:
412,220,140560,1,0,0:0:0:0:
436,148,140766,2,0,B|344:116,2,76.9999977052212,2|0|8,0:0|0:0|0:0,0:0:0:0:
376,288,141590,2,0,B|284:328|224:256,1,153.999995410442,0|8,0:0|0:0,0:0:0:0:
204,192,142208,1,0,0:0:0:0:
180,120,142414,2,0,B|88:144,2,76.9999977052212,2|8|8,0:0|0:0|0:0,0:0:0:0:
336,116,143238,5,4,0:0:0:0:
474,140,143649,1,8,0:0:0:0:
450,278,144061,1,2,0:0:0:0:
312,253,144473,2,0,B|274:282|227:294|187:267|168:224,1,158.19999792552,8|0,0:0|0:0,0:0:0:0:
48,256,145290,1,8,0:0:0:0:
88,132,145695,2,0,B|56:88|4:112,2,70,2|0|8,0:0|0:0|0:0,0:0:0:0:
188,24,146506,6,0,B|216:56|256:76|296:56|324:24,1,158.19999792552,4|8,0:0|0:0,0:0:0:0:
424,132,147317,2,0,B|456:88|508:112,2,79.09999896276,2|0|8,0:0|0:0|0:0,0:0:0:0:
324,232,148140,2,0,B|396:284,2,70,0|0|12,0:0|0:0|0:0,0:0:0:0:
188,232,148950,2,0,B|116:284,2,70,0|0|12,0:0|0:0|0:0,0:0:0:0:
128,100,149766,5,4,0:0:0:0:
256,36,150174,1,8,0:0:0:0:
384,100,150582,1,2,0:0:0:0:
256,160,150990,1,8,0:0:0:0:
186,273,151398,2,0,B|326:273,1,140,0|8,0:0|0:0,0:0:0:0:
384,136,152225,2,0,B|455:163,2,70,2|0|8,0:0|0:0|0:0,0:0:0:0:
256,76,153053,6,0,B|199:136|115:120,1,140,4|8,0:0|0:0,0:0:0:0:
124,260,153855,2,0,B|44:286,2,70,2|0|8,0:0|0:0|0:0,0:0:0:0:
296,368,154663,6,0,B|296:320|296:320|324:256|324:256|296:232,1,153.999995410442,0|12,0:0|0:0,0:0:0:0:
80,232,155463,2,0,B|128:232|128:232|192:260|192:260|216:232,1,153.999995410442,0|12,0:0|0:0,0:0:0:0:
216,16,156263,2,0,B|216:64|216:64|188:128|188:128|216:152,1,153.999995410442,0|12,0:0|0:0,0:0:0:0:
432,152,157063,2,0,B|384:152|384:152|320:124|320:124|296:152,1,153.999995410442,0|12,0:0|0:0,0:0:0:0:
256,344,157863,5,4,0:0:0:0:
256,192,158063,12,0,164263,0:0:0:0:
