osu file format v14

[General]
AudioFilename: audio.mp3
AudioLeadIn: 0
PreviewTime: 75066
Countdown: 0
SampleSet: Soft
StackLeniency: 0.7
Mode: 0
LetterboxInBreaks: 0
WidescreenStoryboard: 1

[Editor]
Bookmarks: 15223,30223,45223,60223,75223,97723,112723,127723,146473,161473,183973,206473,228973,243973,254285,269285,291785,314285,325058
DistanceSpacing: 1.3
BeatDivisor: 4
GridSize: 32
TimelineZoom: 0.9999999

[Metadata]
Title:Nightfall
TitleUnicode:Nightfall
Artist:Blind Guardian
ArtistUnicode:Blind Guardian
Creator:Hinsvar
Version:Hard
Source:
Tags:English Metal Nightfall in Middle-Earth symphonic metal Featured Artist FA Mappers' Guild MG MPG
BeatmapID:4292394
BeatmapSetID:2054445

[Difficulty]
HPDrainRate:4
CircleSize:3.6
OverallDifficulty:6
ApproachRate:8
SliderMultiplier:1.28
SliderTickRate:1

[Events]
//Background and Video events
0,0,"BG.jpg",0,0
//Break Periods
2,47298,57598
2,127923,141660
//Storyboard Layer 0 (Background)
//Storyboard Layer 1 (Fail)
//Storyboard Layer 2 (Pass)
//Storyboard Layer 3 (Foreground)
//Storyboard Layer 4 (Overlay)
//Storyboard Sound Samples

[TimingPoints]
223,312.5,3,2,1,40,1,0
15223,-125,3,2,1,40,0,0
30223,-100,3,2,1,70,0,0
45223,-111.111111111111,3,2,1,50,0,0
59285,-100,3,2,1,60,0,0
60223,-100,3,2,1,70,0,0
75223,-83.3333333333333,3,2,1,80,0,1
78816,-90.9090909090909,3,2,1,80,0,1
82723,-83.3333333333333,3,2,1,80,0,1
86316,-90.9090909090909,3,2,1,80,0,1
90223,-83.3333333333333,3,2,1,80,0,1
93816,-90.9090909090909,3,2,1,80,0,1
97723,-100,3,2,1,70,0,0
127723,-111.111111111111,3,2,1,50,0,0
146473,-100,3,2,1,70,0,0
161473,-83.3333333333333,3,2,1,80,0,1
165066,-90.9090909090909,3,2,1,80,0,1
168973,-83.3333333333333,3,2,1,80,0,1
172566,-90.9090909090909,3,2,1,80,0,1
176473,-83.3333333333333,3,2,1,80,0,1
180066,-90.9090909090909,3,2,1,80,0,1
183973,-100,3,2,1,70,0,0
243973,-100,3,2,1,60,0,0
254285,312.5,3,2,1,70,1,0
269285,-83.3333333333333,3,2,1,80,0,1
272878,-90.9090909090909,3,2,1,80,0,1
276785,-83.3333333333333,3,2,1,80,0,1
280378,-90.9090909090909,3,2,1,80,0,1
284285,-83.3333333333333,3,2,1,80,0,1
287878,-90.9090909090909,3,2,1,80,0,1
291785,-100,3,2,1,60,0,0
299285,-111.111111111111,3,2,1,50,0,0
315847,319.148936170213,3,2,1,50,1,8
315847,-111.111111111111,3,2,1,50,0,0
316166,342.857142857143,3,2,1,50,1,8
316166,-111.111111111111,3,2,1,50,0,0
317194,357.142857142857,3,2,1,50,1,8
317194,-111.111111111111,3,2,1,50,0,0
317551,379.746835443038,3,2,1,50,1,8
317551,-111.111111111111,3,2,1,50,0,0
317930,413.793103448276,3,2,1,50,1,8
317930,-111.111111111111,3,2,1,50,0,0
318343,444.444444444444,3,2,1,40,1,0
318343,-125,3,2,1,40,0,0
318787,413.793103448276,3,2,1,40,1,8
318787,-125,3,2,1,40,0,0
318993,504.201680672269,3,2,1,40,1,8
318993,-125,3,2,1,40,0,0
319245,468.75,3,2,1,40,1,8
319245,-125,3,2,1,40,0,0
320182,491.803278688524,3,2,1,40,1,8
320182,-125,3,2,1,40,0,0
320673,571.42857142857,3,2,1,40,1,8
320673,-125,3,2,1,40,0,0
321244,571.42857142857,3,2,1,40,1,0
321244,-125,3,2,1,40,0,0
321815,521.739130434782,3,2,1,40,1,8
321815,-125,3,2,1,40,0,0
322336,555.555555555554,3,2,1,40,1,8
322336,-125,3,2,1,40,0,0
322613,618.556701030926,3,2,1,40,1,8
322613,-125,3,2,1,40,0,0
322922,606.060606060604,3,2,1,40,1,8
322922,-125,3,2,1,40,0,0
323225,521.739130434782,3,2,1,40,1,8
323225,-125,3,2,1,40,0,0
323485,689.655172413792,3,2,1,40,1,8
323485,-125,3,2,1,40,0,0
324174,816.326530612243,3,2,1,40,1,8
324174,-125,3,2,1,40,0,0
324582,952.38095238095,3,2,1,40,1,8
324582,-125,3,2,1,40,0,0
325058,952.38095238095,3,2,1,40,1,0
325058,-125,3,2,1,40,0,0
325296,-125,3,2,1,30,0,0
327915,-125,3,2,1,20,0,0
330772,-125,3,2,1,10,0,0
333629,-125,3,2,1,5,0,0

[Colours]
Combo1 : 233,167,184
Combo2 : 128,167,200
Combo3 : 239,174,160
Combo4 : 208,155,232

[HitObjects]
312,225,14910,5,2,0:0:0:0:
312,225,15223,2,0,P|263:145|288:32,1,204.8,2|0,3:2|0:0,0:0:0:0:
444,16,16160,2,0,P|493:96|468:209,1,204.8,8|0,0:0|3:0,0:0:0:0:
414,351,17098,1,2,3:2:0:0:
254,377,17410,2,0,P|223:377|201:361,2,51.2,2|2|2,0:0|0:0|0:0,0:0:0:0:
312,225,18035,2,0,L|286:15,1,204.8,8|0,0:0|3:0,0:0:0:0:
123,36,18973,6,0,P|111:137|20:123,1,204.8,2|0,0:0|0:0,0:0:0:0:
54,303,19910,2,0,P|147:262|180:348,1,204.8,8|0,0:0|0:0,0:0:0:0:
320,230,20848,2,0,P|197:138|284:30,1,307.2,2|8,0:0|0:0,0:0:0:0:
428,22,22098,1,2,0:0:0:0:
490,174,22410,1,0,3:0:0:0:
364,279,22723,6,0,B|365:212|319:192|309:206|250:182|234:128,1,204.8,2|0,3:2|0:0,0:0:0:0:
112,26,23660,2,0,B|53:58|59:108|76:110|84:173|46:214,1,204.8,8|0,0:0|3:0,0:0:0:0:
19,371,24598,2,0,B|47:388|67:373|64:365|89:345|116:352,2,102.4,2|0|0,3:2|0:0|0:0,0:0:0:0:
50,208,25535,1,8,0:0:0:0:
340,359,26160,1,0,3:0:0:0:
497,312,26473,6,0,P|484:213|405:145,1,204.8,2|0,3:2|0:0,0:0:0:0:
302,270,27410,2,0,P|254:286|208:266,2,102.4,8|0|0,0:0|0:0|3:0,0:0:0:0:
231,121,28348,5,2,3:2:0:0:
108,13,28660,1,0,3:0:0:0:
0,136,28973,1,0,3:0:0:0:
123,244,29285,1,0,3:0:0:0:
246,352,29598,1,0,3:0:0:0:
354,229,29910,1,0,3:0:0:0:
462,105,30223,6,0,P|430:59|359:55,1,128,6|0,3:2|3:0,0:0:0:0:
310,117,30691,1,2,3:2:0:0:
284,37,30848,1,0,3:0:0:0:
118,28,31160,2,0,P|89:46|55:47,1,64,2|0,1:2|0:0,0:0:0:0:
9,114,31473,2,0,P|45:172|47:240,1,128,0|0,3:0|3:0,0:0:0:0:
115,281,31941,1,2,0:0:0:0:
134,199,32098,6,0,P|182:156|312:152,1,192,0|0,3:0|3:0,0:0:0:0:
335,226,32723,1,2,0:0:0:0:
482,302,33035,2,0,P|450:330|363:333,1,128,0|0,1:0|3:0,0:0:0:0:
285,321,33504,1,2,0:0:0:0:
221,267,33660,2,0,P|204:301|208:343,1,64,0|0,3:0|0:0,0:0:0:0:
122,346,33973,6,0,L|54:336,1,64,2|0,3:2|0:0,0:0:0:0:
62,253,34285,2,0,L|36:189,1,64,2|0,0:0|0:0,0:0:0:0:
112,154,34598,2,0,L|154:100,1,64,0|0,3:0|0:0,0:0:0:0:
222,147,34910,2,0,P|286:153|343:98,1,128,2|0,1:2|3:0,0:0:0:0:
355,35,35379,1,2,0:0:0:0:
413,94,35535,1,0,3:0:0:0:
501,234,35848,6,0,B|510:266|499:300|494:296|480:319|490:366,1,128,6|0,3:2|1:0,0:0:0:0:
407,342,36316,1,0,0:0:0:0:
329,373,36473,2,0,B|333:352|326:341|323:343|318:326|322:310,1,64,2|0,3:2|3:0,0:0:0:0:
324,227,36785,1,0,3:0:0:0:
178,146,37098,2,0,L|115:127,1,64,6|0,3:2|0:0,0:0:0:0:
34,141,37410,2,0,L|49:205,1,64,4|0,3:2|0:0,0:0:0:0:
102,269,37723,6,0,P|149:238|232:238,1,128,6|0,3:2|3:0,0:0:0:0:
279,290,38191,1,2,3:2:0:0:
199,315,38348,1,0,3:0:0:0:
355,371,38660,2,0,P|386:370|413:353,1,64,2|0,1:2|0:0,0:0:0:0:
496,363,38973,2,0,P|494:299|461:245,1,128,0|0,3:0|3:0,0:0:0:0:
470,163,39441,1,2,0:0:0:0:
423,93,39598,6,0,B|386:106|359:81|364:76|344:50|301:63,1,128,0|0,3:0|0:0,0:0:0:0:
235,106,40066,1,0,3:0:0:0:
162,68,40223,1,0,3:0:0:0:
15,145,40535,2,0,L|90:152,1,64,0|0,1:0|0:0,0:0:0:0:
116,226,40848,2,0,L|100:377,1,128,4|0,3:2|3:0,0:0:0:0:
271,364,41473,6,0,B|258:318|267:301|269:305|280:283|267:231,1,128,2|0,3:2|3:0,0:0:0:0:
265,154,41941,1,0,3:0:0:0:
236,75,42098,2,0,B|259:68|267:73|265:74|276:79|302:73,1,64,2|0,3:2|0:0,0:0:0:0:
369,29,42410,2,0,P|432:31|484:74,1,128,2|0,1:2|3:0,0:0:0:0:
456,149,42879,1,0,3:0:0:0:
456,232,43035,2,0,P|424:231|398:209,1,64,2|0,3:2|0:0,0:0:0:0:
348,145,43348,5,6,3:2:0:0:
182,138,43660,6,0,L|173:83,2,42.6666666666667,0|0|0,3:0|3:0|3:0,0:0:0:0:
190,193,43973,1,2,3:2:0:0:
303,314,44285,5,6,3:2:0:0:
469,321,44598,6,0,L|478:376,2,42.6666666666667,0|0|0,3:0|3:0|3:0,0:0:0:0:
461,266,44910,1,2,3:2:0:0:
442,117,45223,5,6,3:2:0:0:
256,192,45379,12,2,47098,0:0:0:0:
92,29,58348,5,0,3:0:0:0:
256,48,58660,1,0,3:0:0:0:
420,67,58973,1,0,3:0:0:0:
488,218,59285,6,0,L|414:225,1,64,0|0,3:0|3:0,0:0:0:0:
351,265,59598,2,0,L|277:272,1,64,0|0,3:0|3:0,0:0:0:0:
214,312,59910,2,0,L|140:319,1,64,0|0,3:0|3:0,0:0:0:0:
77,359,60223,6,0,P|31:336|22:253,1,128,6|0,3:2|3:0,0:0:0:0:
92,233,60691,1,2,0:0:0:0:
124,158,60848,1,0,3:0:0:0:
285,194,61160,2,0,P|309:225|341:252,1,64,2|0,1:2|0:0,0:0:0:0:
336,324,61473,2,0,P|296:329|257:343,1,64,4|0,3:2|0:0,0:0:0:0:
197,303,61785,2,0,P|211:266|219:224,1,64,4|0,3:2|0:0,0:0:0:0:
206,159,62098,6,0,B|229:119|218:94|214:98|202:74|223:29,1,128,6|0,3:2|3:0,0:0:0:0:
302,15,62566,1,0,3:0:0:0:
359,76,62723,1,0,3:0:0:0:
489,178,63035,2,0,L|421:183,1,64,0|0,1:0|0:0,0:0:0:0:
384,255,63348,2,0,L|316:250,1,64,4|0,3:2|0:0,0:0:0:0:
279,322,63660,2,0,L|211:327,1,64,4|0,3:2|0:0,0:0:0:0:
131,332,63973,1,6,3:2:0:0:
126,165,64285,6,0,P|143:148|164:147,2,42.6666666666667,0|0|0,3:0|3:0|3:0,0:0:0:0:
71,156,64598,6,0,P|60:134|65:112,2,42.6666666666667,0|0|0,3:0|3:0|3:0,0:0:0:0:
45,205,64910,5,4,3:2:0:0:
202,266,65223,2,0,P|215:299|217:333,1,64,6|0,3:2|0:0,0:0:0:0:
289,368,65535,2,0,P|322:354|356:352,1,64,4|0,3:2|0:0,0:0:0:0:
391,281,65848,1,6,3:2:0:0:
464,131,66160,2,0,L|504:104,3,32,0|0|0|0,3:0|3:0|3:0|3:0,0:0:0:0:
506,85,66473,2,0,L|479:44,3,32,0|0|0|0,3:0|3:0|3:0|3:0,0:0:0:0:
458,43,66785,2,0,P|431:50|389:38,1,64,4|0,1:2|0:0,0:0:0:0:
314,30,67098,2,0,P|287:23|245:35,1,64,4|0,1:2|0:0,0:0:0:0:
170,43,67410,2,0,P|143:50|101:38,1,64,4|0,3:2|0:0,0:0:0:0:
25,30,67723,6,0,P|-2:86|32:145,1,128,6|0,3:2|3:0,0:0:0:0:
107,126,68191,1,0,3:0:0:0:
161,191,68348,1,0,1:0:0:0:
325,166,68660,2,0,B|379:152|415:195|410:198|444:244|506:223,1,192,6|0,3:2|3:0,0:0:0:0:
497,225,69207,1,0,3:0:0:0:
497,225,69285,1,0,1:0:0:0:
347,298,69598,6,0,B|293:284|257:326|262:329|228:375|166:354,1,192,6|0,3:2|3:0,0:0:0:0:
131,285,70223,1,0,1:0:0:0:
59,328,70379,1,0,3:0:0:0:
56,244,70535,2,0,P|33:222|17:177,1,64,2|0,3:2|0:0,0:0:0:0:
2,111,70848,2,0,P|32:102|79:110,1,64,4|0,3:2|0:0,0:0:0:0:
144,130,71160,2,0,P|136:160|105:197,1,64,4|0,3:2|0:0,0:0:0:0:
56,244,71473,1,4,3:2:0:0:
215,290,71785,6,0,L|221:342,2,42.6666666666667,2|0|0,3:2|3:0|3:0,0:0:0:0:
257,253,72098,6,0,L|251:201,2,42.6666666666667,2|0|0,3:2|3:0|3:0,0:0:0:0:
306,278,72410,5,2,1:2:0:0:
449,363,72723,2,0,P|472:350|488:308,1,64,4|0,3:2|0:0,0:0:0:0:
488,233,73035,2,0,P|475:210|433:194,1,64,4|0,3:2|0:0,0:0:0:0:
436,110,73348,6,0,P|383:109|313:166,1,128,6|0,3:2|3:0,0:0:0:0:
247,113,73816,1,0,3:0:0:0:
188,172,73973,2,0,L|123:190,1,64,0|0,3:0|0:0,0:0:0:0:
105,108,74285,2,0,L|169:89,2,64,6|0|0,3:2|0:0|3:0,0:0:0:0:
24,129,74754,1,0,3:0:0:0:
45,210,74910,1,0,1:0:0:0:
170,343,75223,6,0,P|398:330|500:220,1,383.99998828125,6|0,3:2|0:0,0:0:0:0:
435,156,76160,2,0,P|351:28|254:6,1,230.39999296875,4|0,1:2|0:0,0:0:0:0:
243,90,76785,1,2,0:0:0:0:
73,17,77098,6,0,B|-17:82|9:197|114:160|141:260|40:350,1,383.99998828125,2|0,3:2|0:0,0:0:0:0:
133,367,78035,2,0,B|176:307|252:324|228:394|295:412|355:345,1,230.39999296875,2|0,1:2|0:0,0:0:0:0:
427,371,78660,1,2,0:0:0:0:
482,299,78816,5,0,3:0:0:0:
482,299,78894,1,0,3:0:0:0:
482,299,78973,2,0,P|474:224|481:85,1,211.200006445313,2|2,3:2|3:2,0:0:0:0:
307,44,79754,5,0,3:0:0:0:
307,44,79910,2,0,P|276:30|233:35,1,70.4000021484376,0|0,1:0|3:0,0:0:0:0:
150,10,80223,2,0,P|136:41|141:84,1,70.4000021484376,2|0,2:0|3:0,0:0:0:0:
116,167,80535,2,0,P|147:181|190:176,1,70.4000021484376,2|0,0:0|3:0,0:0:0:0:
273,201,80848,6,0,B|307:202|333:242|329:241|354:276|404:273,1,140.800004296875,6|0,3:2|1:0,0:0:0:0:
480,267,81316,1,0,3:0:0:0:
485,358,81473,1,2,3:2:0:0:
394,363,81629,1,0,3:0:0:0:
303,368,81785,6,0,L|229:357,1,70.4000021484376,6|0,3:2|0:0,0:0:0:0:
147,323,82098,2,0,L|193:264,1,70.4000021484376,4|0,3:2|0:0,0:0:0:0:
263,210,82410,2,0,L|290:279,1,70.4000021484376,4|0,3:2|0:0,0:0:0:0:
376,249,82723,6,0,P|498:149|355:28,1,383.99998828125,6|0,3:2|0:0,0:0:0:0:
277,49,83660,2,0,P|188:15|168:126,1,230.39999296875,2|0,1:2|0:0,0:0:0:0:
255,135,84285,1,2,0:0:0:0:
424,208,84598,6,0,B|331:176|257:255|302:329|218:398|112:349,1,383.99998828125,2|0,3:2|0:0,0:0:0:0:
110,257,85535,2,0,B|129:201|81:156|37:183|-4:133|25:69,1,230.39999296875,2|0,1:2|0:0,0:0:0:0:
113,37,86160,1,2,0:0:0:0:
167,122,86316,5,0,3:0:0:0:
167,122,86394,1,0,3:0:0:0:
167,122,86473,2,0,P|257:56|361:77,1,211.200006445313,2|2,3:2|3:2,0:0:0:0:
294,247,87254,5,0,3:0:0:0:
294,247,87410,2,0,L|308:323,1,70.4000021484376,0|0,1:0|3:0,0:0:0:0:
374,377,87723,2,0,L|450:362,1,70.4000021484376,2|0,0:0|3:0,0:0:0:0:
504,297,88035,2,0,L|489:220,1,70.4000021484376,2|0,0:0|3:0,0:0:0:0:
424,167,88348,1,6,3:2:0:0:
271,66,88660,6,0,L|273:20,2,46.933334765625,0|0|0,1:0|1:0|1:0,0:0:0:0:
271,113,88973,1,2,1:2:0:0:
95,61,89285,6,0,P|57:65|24:100,1,70.4000021484376,6|0,3:2|0:0,0:0:0:0:
6,173,89598,2,0,P|10:210|45:243,1,70.4000021484376,4|0,3:2|0:0,0:0:0:0:
118,262,89910,1,0,3:0:0:0:
201,228,90066,1,0,3:0:0:0:
288,255,90223,6,0,P|369:362|482:209,1,383.99998828125,6|0,3:2|0:0,0:0:0:0:
422,141,91160,2,0,P|373:76|305:168,1,230.39999296875,2|0,1:2|0:0,0:0:0:0:
288,255,91785,1,2,0:0:0:0:
132,355,92098,6,0,B|196:255|145:158|53:218|-1:116|66:24,1,383.99998828125,2|0,3:2|0:0,0:0:0:0:
156,20,93035,2,0,B|188:83|254:85|250:20|320:22|347:85,1,230.39999296875,2|0,1:2|0:0,0:0:0:0:
438,69,93660,1,2,0:0:0:0:
417,157,93816,5,0,3:0:0:0:
417,157,93894,1,0,3:0:0:0:
417,157,93973,2,0,P|499:227|493:334,1,211.200006445313,2|0,3:2|3:0,0:0:0:0:
414,362,94598,2,0,P|386:338|388:303,1,70.4000021484376,2|0,0:0|3:0,0:0:0:0:
349,228,94910,1,2,1:2:0:0:
349,228,95066,2,0,P|277:228|202:212,1,140.800004296875,0|0,3:0|3:0,0:0:0:0:
153,287,95535,2,0,P|153:323|145:360,1,70.4000021484376,2|0,0:0|3:0,0:0:0:0:
55,372,95848,6,0,P|12:325|32:246,1,140.800004296875,6|0,3:2|1:0,0:0:0:0:
103,207,96316,1,0,3:0:0:0:
74,120,96473,1,0,3:0:0:0:
164,139,96629,1,0,3:0:0:0:
135,52,96785,6,0,B|161:23|205:48|202:52|236:75|273:50,1,140.800004296875,6|0,3:2|1:0,0:0:0:0:
353,85,97254,2,0,B|351:65|369:56|370:59|392:46|386:27,2,70.4000021484376,0|0|0,3:0|3:0|3:0,0:0:0:0:
282,143,97723,6,0,P|290:173|295:213,1,64,4|0,3:2|0:0,0:0:0:0:
376,216,98035,1,0,3:0:0:0:
383,301,98191,2,0,P|387:332|395:363,2,64,2|0|0,3:2|3:0|0:0,0:0:0:0:
465,289,98660,2,0,P|491:267|489:229,1,64,4|0,3:2|0:0,0:0:0:0:
489,155,98973,2,0,P|482:121|449:104,1,64,4|0,3:2|0:0,0:0:0:0:
384,67,99285,1,6,3:2:0:0:
226,121,99598,6,0,P|212:132|213:150,3,32,0|0|0|0,3:0|3:0|3:0|3:0,0:0:0:0:
186,164,99910,2,0,P|169:158|154:168,3,32,2|0|0|0,3:2|3:0|3:0|3:0,0:0:0:0:
128,150,100223,2,0,P|124:132|108:124,3,32,0|0|0|0,3:0|3:0|3:0|3:0,0:0:0:0:
111,92,100535,6,0,L|42:91,1,64,4|0,1:2|0:0,0:0:0:0:
1,160,100848,2,0,L|0:229,1,64,4|0,3:2|0:0,0:0:0:0:
69,270,101160,2,0,L|138:271,1,64,4|0,3:2|0:0,0:0:0:0:
179,202,101473,5,2,1:2:0:0:
247,249,101629,1,0,1:0:0:0:
200,317,101785,1,0,3:0:0:0:
283,324,101941,2,0,P|298:355|311:393,2,64,2|0|0,3:2|3:0|3:0,0:0:0:0:
330,255,102410,1,0,3:0:0:0:
318,88,102723,2,0,P|344:65|377:43,1,64,0|0,1:0|1:0,0:0:0:0:
450,61,103035,2,0,P|472:87|494:120,1,64,0|0,1:0|1:0,0:0:0:0:
477,192,103348,1,4,3:2:0:0:
365,315,103660,6,0,L|375:364,2,42.6666666666667,2|0|0,3:2|3:0|3:0,0:0:0:0:
313,294,103973,6,0,L|275:327,2,42.6666666666667,2|0|0,3:2|3:0|3:0,0:0:0:0:
304,238,104285,6,0,P|307:207|330:173,1,64,4|0,3:2|0:0,0:0:0:0:
260,123,104598,2,0,P|231:135|190:132,1,64,0|0,3:0|0:0,0:0:0:0:
182,217,104910,2,0,P|206:235|224:272,1,64,4|0,3:2|0:0,0:0:0:0:
144,295,105223,6,0,L|137:364,2,64,4|2|0,3:2|0:0|3:0,0:0:0:0:
86,235,105691,1,2,0:0:0:0:
28,174,105848,2,0,L|35:105,1,64,0|0,3:0|3:0,0:0:0:0:
43,27,106160,1,2,1:2:0:0:
206,59,106473,2,0,P|239:57|278:42,1,64,4|0,0:0|0:0,0:0:0:0:
341,87,106785,2,0,P|326:116|319:157,1,64,0|0,3:0|0:0,0:0:0:0:
249,189,107098,6,0,P|230:161|198:135,2,64,4|2|0,3:2|0:0|3:0,0:0:0:0:
198,254,107566,1,2,0:0:0:0:
147,320,107723,2,0,P|165:347|197:373,1,64,0|0,3:0|3:0,0:0:0:0:
271,360,108035,1,2,1:2:0:0:
436,376,108348,2,0,L|472:310,1,64,4|0,0:0|0:0,0:0:0:0:
464,236,108660,2,0,L|424:171,1,64,0|0,3:0|0:0,0:0:0:0:
381,113,108973,1,6,3:2:0:0:
227,50,109285,6,0,L|224:8,2,42.6666666666667,2|0|0,3:2|3:0|3:0,0:0:0:0:
184,86,109598,6,0,L|187:128,2,42.6666666666667,2|0|0,3:2|3:0|3:0,0:0:0:0:
134,60,109910,5,2,1:2:0:0:
58,209,110223,2,0,P|37:235|-1:246,1,64,4|0,3:2|0:0,0:0:0:0:
4,328,110535,2,0,P|37:333|65:360,1,64,4|0,3:2|0:0,0:0:0:0:
122,296,110848,6,0,P|115:280|120:261,3,32,0|0|0|0,3:0|3:0|3:0|3:0,0:0:0:0:
136,239,111160,1,6,1:2:0:0:
302,245,111473,1,0,1:0:0:0:
299,328,111629,1,2,0:0:0:0:
373,290,111785,2,0,L|418:293,3,32,0|0|0|0,3:0|3:0|3:0|3:0,0:0:0:0:
437,295,112098,2,0,L|443:205,1,64,0|0,1:0|0:0,0:0:0:0:
479,157,112410,2,0,L|485:67,1,64,2|0,1:2|0:0,0:0:0:0:
422,35,112723,6,0,B|370:27|335:70|337:78|296:121|234:97,1,192,2|0,3:2|3:0,0:0:0:0:
165,94,113348,2,0,P|170:61|159:20,1,64,2|0,0:0|0:0,0:0:0:0:
80,32,113660,2,0,P|24:76|17:194,1,192,2|0,1:2|0:0,0:0:0:0:
98,178,114285,1,2,0:0:0:0:
263,159,114598,2,0,P|417:223|436:373,1,320,2|0,3:2|0:0,0:0:0:0:
357,361,115535,6,0,P|335:338|294:322,1,64,0|0,1:0|0:0,0:0:0:0:
269,249,115848,2,0,P|238:240|194:246,1,64,4|0,3:2|0:0,0:0:0:0:
136,196,116160,2,0,P|105:203|70:231,1,64,4|0,3:2|0:0,0:0:0:0:
9,268,116473,5,2,0:0:0:0:
8,100,116785,2,0,P|101:86|172:16,1,192,2|0,0:0|0:0,0:0:0:0:
234,72,117410,2,0,P|273:120|337:138,2,128,0|2|0,1:0|0:0|0:0,0:0:0:0:
394,28,118348,2,0,L|458:25,1,64,0|2,3:0|0:0,0:0:0:0:
498,97,118660,2,0,L|510:353,1,256,2|0,0:0|1:0,0:0:0:0:
344,371,119598,5,0,1:0:0:0:
263,350,119754,1,0,3:0:0:0:
321,290,119910,2,0,P|354:289|385:264,1,64,2|0,3:2|3:0,0:0:0:0:
401,191,120223,6,0,P|310:163|257:234,1,192,6|0,3:2|0:0,0:0:0:0:
174,221,120848,2,0,P|139:214|102:210,1,64,2|0,0:0|0:0,0:0:0:0:
44,259,121160,2,0,B|6:221|33:167|37:166|61:114|27:67,1,192,2|0,1:2|0:0,0:0:0:0:
102,29,121785,1,2,0:0:0:0:
266,53,122098,2,0,B|218:116|258:202|265:204|310:294|246:357,1,320,2|0,3:2|0:0,0:0:0:0:
179,307,123035,2,0,B|153:287|119:303|118:306|82:324|57:299,2,128,0|0|2,1:0|0:0|0:0,0:0:0:0:
331,374,123973,6,0,P|404:360|475:196,1,256,6|0,3:2|0:0,0:0:0:0:
457,44,124910,2,0,P|384:58|313:222,1,256,2|0,1:2|0:0,0:0:0:0:
176,310,125848,6,0,P|123:359|64:359,2,128,6|0|2,3:2|0:0|0:0,0:0:0:0:
59,192,126785,1,0,1:0:0:0:
70,23,127098,2,0,P|132:28|176:74,1,128,2|0,0:0|0:0,0:0:0:0:
248,192,127723,1,6,3:2:0:0:
293,33,142410,5,0,1:0:0:0:
293,33,142723,2,0,P|210:90|97:44,1,230.39999296875,2|0,1:2|1:0,0:0:0:0:
12,187,143660,2,0,P|102:230|119:351,1,230.39999296875,2|0,1:2|1:0,0:0:0:0:
286,354,144598,2,0,P|282:303|330:266,2,115.199996484375,2|0|0,1:2|1:0|1:0,0:0:0:0:
450,331,145535,6,0,L|485:322,3,28.7999991210938,0|0|0|0,1:0|3:0|3:0|3:0,0:0:0:0:
497,302,145848,2,0,L|488:266,3,28.7999991210938,0|0|0|0,1:0|3:0|3:0|3:0,0:0:0:0:
468,255,146160,1,2,1:2:0:0:
387,235,146316,5,0,3:0:0:0:
387,235,146394,1,0,3:0:0:0:
387,235,146473,2,0,B|346:247|325:220|328:214|312:191|261:200,2,128,6|0|0,3:2|0:0|3:0,0:0:0:0:
469,90,147410,1,2,1:2:0:0:
389,65,147566,1,0,3:0:0:0:
389,65,147879,2,0,B|347:72|331:49|334:43|313:16|272:28,1,128,0|0,3:0|0:0,0:0:0:0:
194,54,148348,5,6,3:2:0:0:
39,25,148660,1,0,3:0:0:0:
39,25,148738,1,0,3:0:0:0:
39,25,148816,2,0,L|41:166,1,128,0|0,3:0|0:0,0:0:0:0:
80,226,149285,1,6,3:2:0:0:
243,205,149598,2,0,L|242:240,2,32,0|0|0,3:0|3:0|3:0,0:0:0:0:
245,121,149910,1,0,3:0:0:0:
385,30,150223,6,0,P|480:112|484:313,1,320,6|0,3:2|0:0,0:0:0:0:
432,355,151160,2,0,B|382:391|302:360|324:334|242:295|189:335,1,256,2|0,1:2|3:0,0:0:0:0:
41,288,152098,5,2,1:2:0:0:
41,288,152176,1,0,3:0:0:0:
41,288,152254,1,0,3:0:0:0:
32,205,152410,2,0,L|0:184,2,32,2|0|0,3:2|3:0|3:0,0:0:0:0:
77,135,152723,2,0,L|69:97,2,32,0|0|0,3:0|3:0|3:0,0:0:0:0:
158,158,153035,6,0,P|182:73|274:44,1,192,6|0,1:2|0:0,0:0:0:0:
285,126,153660,2,0,P|277:154|246:163,1,64,6|0,3:2|0:0,0:0:0:0:
203,235,153973,6,0,B|235:248|259:270|255:275|281:294|326:303,1,128,6|0,3:2|3:0,0:0:0:0:
368,360,154441,1,0,3:0:0:0:
391,279,154598,2,0,B|388:261|392:246|395:246|397:230|389:208,1,64,0|0,3:0|3:0,0:0:0:0:
403,132,154910,6,0,P|401:74|333:38,1,128,6|0,0:0|3:0,0:0:0:0:
286,96,155379,1,0,3:0:0:0:
204,111,155535,2,0,P|205:140|239:158,1,64,0|0,3:0|3:0,0:0:0:0:
263,235,155848,6,0,L|233:369,1,128,6|0,3:2|3:0,0:0:0:0:
156,337,156316,2,0,L|169:273,2,64,0|0|0,3:0|3:0|3:0,0:0:0:0:
76,314,156785,5,2,3:2:0:0:
10,262,156941,1,0,3:0:0:0:
65,199,157098,1,0,3:0:0:0:
33,121,157254,1,0,3:0:0:0:
112,94,157410,2,0,L|119:28,1,64,2|0,3:2|3:0,0:0:0:0:
201,18,157723,6,0,P|330:50|442:3,1,256,6|0,3:2|3:0,0:0:0:0:
506,156,158660,2,0,P|413:251|398:372,1,256,6|0,1:2|3:0,0:0:0:0:
233,351,159598,6,0,P|228:334|216:325,3,32,2|0|0|0,3:2|3:0|3:0|3:0,0:0:0:0:
190,307,159910,2,0,P|201:295|203:280,3,32,0|0|0|0,3:0|3:0|3:0|3:0,0:0:0:0:
206,247,160223,2,0,P|222:251|236:245,3,32,0|0|0|0,3:0|3:0|3:0|3:0,0:0:0:0:
265,230,160535,2,0,P|288:172|256:112,1,128,6|0,1:2|3:0,0:0:0:0:
179,134,161004,1,0,1:0:0:0:
98,153,161160,2,0,P|84:124|95:95,1,64,0|0,3:0|3:0,0:0:0:0:
172,47,161473,6,0,P|381:41|481:178,1,383.99998828125,6|0,3:2|0:0,0:0:0:0:
434,248,162410,2,0,P|374:358|273:369,1,230.39999296875,2|0,1:2|0:0,0:0:0:0:
248,283,163035,1,2,0:0:0:0:
101,368,163348,6,0,P|21:259|44:17,1,383.99998828125,2|0,3:2|0:0,0:0:0:0:
133,16,164285,2,0,P|181:81|167:226,1,230.39999296875,2|0,1:2|0:0,0:0:0:0:
182,315,164910,1,2,0:0:0:0:
261,263,165066,5,0,3:0:0:0:
261,263,165144,1,0,3:0:0:0:
261,263,165223,2,0,B|320:242|358:274|358:281|403:312|470:277,1,211.200006445313,6|2,3:2|3:2,0:0:0:0:
491,101,166004,5,0,3:0:0:0:
491,101,166160,2,0,L|444:35,1,70.4000021484376,0|0,1:0|3:0,0:0:0:0:
359,27,166473,2,0,L|293:74,1,70.4000021484376,2|0,0:0|3:0,0:0:0:0:
285,159,166785,2,0,L|332:225,1,70.4000021484376,2|0,0:0|3:0,0:0:0:0:
417,233,167098,6,0,B|420:282|395:299|390:296|365:314|357:372,1,140.800004296875,6|0,3:2|1:0,0:0:0:0:
269,369,167566,1,0,3:0:0:0:
233,284,167723,1,2,3:2:0:0:
159,228,167879,1,0,3:0:0:0:
245,198,168035,6,0,P|263:169|262:117,1,70.4000021484376,6|0,3:2|0:0,0:0:0:0:
224,51,168348,2,0,P|195:33|143:34,1,70.4000021484376,4|0,3:2|0:0,0:0:0:0:
77,72,168660,2,0,P|59:101|60:153,1,70.4000021484376,4|0,3:2|0:0,0:0:0:0:
98,219,168973,6,0,P|143:327|362:267,1,383.99998828125,6|0,3:2|0:0,0:0:0:0:
441,316,169910,2,0,P|505:288|469:157,1,230.39999296875,2|0,1:2|0:0,0:0:0:0:
381,168,170535,1,2,0:0:0:0:
479,11,170848,6,0,B|423:-34|297:-8|326:94|208:131|130:60,1,383.99998828125,2|0,3:2|0:0,0:0:0:0:
46,31,171785,2,0,B|19:64|34:140|95:122|118:193|75:240,1,230.39999296875,2|0,3:2|0:0,0:0:0:0:
8,300,172410,1,2,0:0:0:0:
81,361,172566,5,0,3:0:0:0:
81,361,172644,1,0,3:0:0:0:
81,361,172723,2,0,P|147:370|286:329,1,211.200006445313,6|2,3:2|3:2,0:0:0:0:
200,182,173504,5,0,3:0:0:0:
200,182,173660,2,0,L|146:133,1,70.4000021484376,0|0,1:0|3:0,0:0:0:0:
96,60,173973,2,0,L|167:38,1,70.4000021484376,2|0,0:0|3:0,0:0:0:0:
254,30,174285,2,0,L|239:103,1,70.4000021484376,2|0,0:0|3:0,0:0:0:0:
296,172,174598,1,6,3:2:0:0:
420,58,174910,6,0,L|410:12,2,46.933334765625,0|0|0,3:0|3:0|3:0,0:0:0:0:
428,104,175223,1,2,3:2:0:0:
510,253,175535,6,0,P|486:281|473:315,1,70.4000021484376,6|0,3:2|0:0,0:0:0:0:
383,328,175848,1,0,3:0:0:0:
350,243,176004,1,0,3:0:0:0:
265,276,176160,1,0,3:0:0:0:
298,361,176316,1,0,3:0:0:0:
207,347,176473,6,0,P|90:356|41:137,1,383.99998828125,6|0,3:2|0:0,0:0:0:0:
114,85,177410,2,0,P|184:79|213:211,1,230.39999296875,2|0,1:2|0:0,0:0:0:0:
144,271,178035,1,2,0:0:0:0:
307,357,178348,6,0,B|262:229|376:185|394:237|495:195|457:51,1,383.99998828125,2|0,3:2|0:0,0:0:0:0:
368,37,179285,2,0,B|314:98|257:52|279:27|227:-12|163:50,1,230.39999296875,2|0,1:2|0:0,0:0:0:0:
223,123,179910,1,2,0:0:0:0:
132,137,180066,5,0,3:0:0:0:
132,137,180144,1,0,3:0:0:0:
132,137,180223,2,0,P|115:235|116:368,1,211.200006445313,2|0,1:2|3:2,0:0:0:0:
201,374,180848,2,0,P|208:332|207:277,1,70.4000021484376,2|0,0:0|3:0,0:0:0:0:
217,213,181160,1,6,1:2:0:0:
217,213,181316,2,0,L|359:164,1,140.800004296875,0|0,3:0|3:0,0:0:0:0:
405,240,181785,2,0,L|461:289,1,70.4000021484376,2|0,0:0|3:0,0:0:0:0:
507,208,182098,6,0,P|494:143|500:48,1,140.800004296875,6|0,1:2|0:0,0:0:0:0:
405,76,182566,2,0,P|406:40|399:6,2,70.4000021484376,0|2|0,3:0|0:0|3:0,0:0:0:0:
317,48,183035,5,2,1:2:0:0:
228,69,183191,1,0,1:0:0:0:
138,90,183348,2,0,L|62:65,1,70.4000021484376,0|0,3:0|3:0,0:0:0:0:
2,128,183660,2,0,L|18:206,1,70.4000021484376,2|0,3:2|3:0,0:0:0:0:
103,227,183973,6,0,P|158:181|235:182,2,128,6|2|0,3:2|0:0|3:0,0:0:0:0:
35,276,184754,1,2,0:0:0:0:
109,312,184910,1,0,1:0:0:0:
269,356,185223,2,0,L|345:347,1,64,4|0,3:2|0:0,0:0:0:0:
391,289,185535,2,0,L|382:213,1,64,6|0,3:2|0:0,0:0:0:0:
350,148,185848,5,0,3:0:0:0:
403,83,186004,2,0,L|398:45,2,32,0|0|0,3:0|3:0|3:0,0:0:0:0:
247,24,186473,1,2,3:2:0:0:
97,95,186785,1,4,3:2:0:0:
137,179,186941,1,0,3:0:0:0:
137,179,187019,1,0,3:0:0:0:
137,179,187098,2,0,P|189:192|261:168,1,128,2|0,3:2|3:0,0:0:0:0:
273,335,187723,6,0,P|332:313|394:326,1,128,4|2,3:2|3:2,0:0:0:0:
476,339,188191,2,0,L|484:381,2,32,0|0|2,3:0|3:0|3:2,0:0:0:0:
451,262,188504,1,0,3:0:0:0:
451,262,188582,1,0,3:0:0:0:
451,262,188660,1,0,1:0:0:0:
482,98,188973,2,0,L|398:114,1,64,4|0,3:2|0:0,0:0:0:0:
352,159,189285,2,0,L|276:144,1,64,6|0,3:2|0:0,0:0:0:0:
219,100,189598,5,0,3:0:0:0:
142,131,189754,2,0,L|110:105,2,32,0|0|0,3:0|3:0|3:0,0:0:0:0:
263,245,190223,1,2,3:2:0:0:
104,293,190535,1,6,3:2:0:0:
48,354,190691,1,0,3:0:0:0:
48,354,190769,1,0,3:0:0:0:
48,354,190848,2,0,P|22:302|49:229,1,128,0|4,3:0|3:2,0:0:0:0:
14,73,191473,6,0,L|148:59,1,128,6|0,3:2|3:0,0:0:0:0:
208,10,191941,2,0,L|269:37,1,64,2|0,3:2|3:0,0:0:0:0:
283,117,192254,1,0,3:0:0:0:
225,176,192410,2,0,P|214:241|247:296,1,128,0|2,1:0|3:2,0:0:0:0:
316,252,192879,2,0,P|321:219|305:192,2,64,0|2|0,3:0|0:0|3:0,0:0:0:0:
313,335,193348,6,0,L|320:374,2,32,0|0|2,3:0|3:0|0:0,0:0:0:0:
396,334,193660,1,0,3:0:0:0:
440,264,193816,2,0,P|471:265|502:272,2,64,0|2|0,3:0|0:0|3:0,0:0:0:0:
424,181,194285,1,0,1:0:0:0:
271,114,194598,2,0,L|231:167,1,64,6|0,3:2|0:0,0:0:0:0:
165,212,194910,2,0,L|138:151,1,64,4|0,3:2|0:0,0:0:0:0:
133,71,195223,6,0,P|177:66|244:11,1,128,0|2,3:0|3:2,0:0:0:0:
318,44,195691,1,0,3:0:0:0:
401,37,195848,2,0,P|403:59|431:92,1,64,2|0,0:0|3:0,0:0:0:0:
450,170,196160,2,0,B|407:159|385:189|390:190|368:211|321:198,1,128,0|2,1:0|3:2,0:0:0:0:
247,190,196629,1,0,3:0:0:0:
164,181,196785,2,0,B|153:183|147:176|149:176|143:170|131:174,2,32,0|0|2,3:0|3:0|0:0,0:0:0:0:
198,257,197098,6,0,P|160:286|131:380,1,128,0|2,3:0|3:2,0:0:0:0:
47,361,197566,1,0,3:0:0:0:
36,278,197723,2,0,P|32:254|0:218,1,64,2|0,0:0|3:0,0:0:0:0:
0,140,198035,1,0,1:0:0:0:
117,22,198348,2,0,P|139:31|187:20,1,64,2|0,3:2|0:0,0:0:0:0:
216,99,198660,2,0,P|197:113|182:160,1,64,0|0,3:0|0:0,0:0:0:0:
232,215,198973,6,0,P|270:187|300:93,2,128,4|2|2,3:2|0:0|2:0,0:0:0:0:
296,367,199910,2,0,P|382:275|506:249,1,256,2|0,1:2|2:0,0:0:0:0:
412,110,200848,2,0,P|319:88|256:17,1,192,2|0,1:2|2:0,0:0:0:0:
178,47,201473,2,0,P|181:79|173:118,1,64,2|0,0:0|0:0,0:0:0:0:
99,141,201785,5,2,1:2:0:0:
39,82,201941,1,0,1:0:0:0:
18,164,202098,2,0,L|38:230,1,64,0|0,1:0|1:0,0:0:0:0:
57,305,202410,2,0,L|123:285,1,64,0|0,3:0|3:0,0:0:0:0:
198,266,202723,6,0,B|165:224|189:205|194:208|218:186|186:143,2,128,6|2|2,3:2|0:0|0:0,0:0:0:0:
338,354,203660,2,0,B|424:317|404:255|392:255|370:198|469:158,1,256,2|0,1:2|0:0,0:0:0:0:
319,82,204598,5,2,1:2:0:0:
267,17,204754,1,0,1:0:0:0:
190,47,204910,1,0,1:0:0:0:
195,130,205066,1,0,1:0:0:0:
275,150,205223,2,0,L|269:218,1,64,2|0,3:2|3:0,0:0:0:0:
197,256,205535,6,0,P|172:284|125:287,1,64,2|0,3:2|3:0,0:0:0:0:
73,330,205848,2,0,P|59:293|80:251,1,64,2|0,3:2|3:0,0:0:0:0:
69,186,206160,2,0,P|105:192|131:231,1,64,0|0,3:0|3:0,0:0:0:0:
194,165,206473,6,0,B|247:131|294:168|286:173|334:207|379:170,1,192,4|2,3:2|3:2,0:0:0:0:
457,161,207098,2,0,P|448:132|451:89,1,64,0|0,3:0|3:0,0:0:0:0:
441,15,207410,2,0,P|412:24|369:21,1,64,2|0,1:2|0:0,0:0:0:0:
312,74,207723,2,0,B|270:84|256:62|259:58|240:29|186:36,1,128,2|0,3:2|3:0,0:0:0:0:
123,75,208191,1,0,3:0:0:0:
48,36,208348,6,0,P|11:122|76:205,1,192,2|2,3:2|0:0,0:0:0:0:
120,257,208973,2,0,P|108:285|73:290,2,64,0|0|2,3:0|3:0|1:2,0:0:0:0:
278,200,209598,2,0,L|289:287,1,64,6|0,3:2|0:0,0:0:0:0:
332,332,209910,2,0,L|401:278,1,64,4|0,3:2|0:0,0:0:0:0:
420,220,210223,6,0,P|363:182|353:125,1,128,4|2,3:2|0:0,0:0:0:0:
282,82,210691,1,2,0:0:0:0:
340,22,210848,2,0,P|372:14|407:19,1,64,0|2,3:0|0:0,0:0:0:0:
485,17,211160,2,0,P|501:81|491:151,1,128,2|0,1:2|3:0,0:0:0:0:
504,312,211785,1,2,3:2:0:0:
504,312,211941,1,2,3:2:0:0:
431,354,212098,6,0,B|398:332|389:305|391:303|381:277|334:248,1,128,0|2,3:0|3:2,0:0:0:0:
280,305,212566,2,0,B|263:314|258:327|259:328|255:342|238:353,2,64,2|0|0,0:0|3:0|0:0,0:0:0:0:
275,221,213035,2,0,P|213:195|168:154,1,128,2|0,1:2|1:0,0:0:0:0:
85,161,213504,1,0,1:0:0:0:
16,114,213660,2,0,P|12:82|19:51,1,64,0|0,1:0|3:0,0:0:0:0:
96,20,213973,6,0,L|173:32,1,64,4|0,1:2|3:0,0:0:0:0:
232,69,214285,2,0,L|309:81,1,64,2|0,0:0|3:0,0:0:0:0:
368,118,214598,2,0,L|445:130,1,64,2|0,0:0|3:0,0:0:0:0:
454,207,214910,6,0,L|377:219,1,64,0|0,1:0|3:0,0:0:0:0:
318,256,215223,2,0,L|241:268,1,64,2|0,0:0|3:0,0:0:0:0:
182,305,215535,2,0,L|105:317,1,64,2|0,0:0|3:0,0:0:0:0:
53,271,215848,5,0,3:0:0:0:
53,271,216004,2,0,P|34:247|34:199,2,64,0|2|0,3:0|0:0|3:0,0:0:0:0:
129,236,216473,2,0,P|125:204|106:179,1,64,2|0,0:0|3:0,0:0:0:0:
52,115,216785,5,0,3:0:0:0:
52,115,216941,2,0,L|-1:72,2,64,0|2|0,3:0|0:0|3:0,0:0:0:0:
134,100,217410,2,0,L|197:75,1,64,2|0,0:0|3:0,0:0:0:0:
273,52,217723,6,0,P|318:90|319:160,1,128,0|2,1:0|0:0,0:0:0:0:
379,214,218191,2,0,P|359:236|324:237,1,64,0|2,3:0|0:0,0:0:0:0:
250,205,218504,1,0,3:0:0:0:
262,287,218660,1,2,1:2:0:0:
101,330,218973,2,0,P|57:290|55:220,1,128,2|0,0:0|0:0,0:0:0:0:
96,63,219598,6,0,L|135:53,3,32,2|0|0|0,1:2|1:0|3:0|3:0,0:0:0:0:
157,63,219910,2,0,L|196:73,3,32,2|0|0|0,3:2|3:0|3:0|3:0,0:0:0:0:
219,63,220223,2,0,L|258:53,3,32,0|0|0|0,3:0|3:0|3:0|3:0,0:0:0:0:
280,63,220535,1,6,1:2:0:0:
440,17,220848,2,0,P|471:25|503:43,1,64,0|0,3:0|3:0,0:0:0:0:
510,122,221160,2,0,P|502:153|484:185,1,64,0|0,3:0|3:0,0:0:0:0:
405,192,221473,6,0,B|358:199|340:179|343:179|326:157|261:165,1,128,4|2,1:2|0:0,0:0:0:0:
204,189,221941,1,0,3:0:0:0:
266,244,222098,1,2,0:0:0:0:
105,284,222410,2,0,P|69:288|42:264,1,64,2|0,1:2|3:0,0:0:0:0:
6,199,222723,2,0,P|35:132|103:109,1,128,2|0,0:0|3:0,0:0:0:0:
235,44,223348,6,0,B|229:94|248:108|253:107|281:120|261:187,1,128,2|0,3:2|1:0,0:0:0:0:
212,226,223816,1,2,0:0:0:0:
294,240,223973,1,0,1:0:0:0:
413,355,224285,2,0,L|485:337,1,64,2|0,0:0|3:0,0:0:0:0:
501,260,224598,2,0,L|483:188,2,64,2|0|0,1:2|3:0|3:0,0:0:0:0:
369,158,225223,6,0,P|352:96|378:29,1,128,4|2,1:2|0:0,0:0:0:0:
293,9,225691,1,0,3:0:0:0:
223,55,225848,1,2,0:0:0:0:
60,18,226160,2,0,P|68:49|55:82,1,64,2|0,1:2|3:0,0:0:0:0:
98,151,226473,2,0,P|160:134|227:160,1,128,2|0,0:0|3:0,0:0:0:0:
280,209,226941,1,0,3:0:0:0:
263,291,227098,1,2,3:2:0:0:
107,350,227410,6,0,L|27:329,1,64,6|0,1:2|0:0,0:0:0:0:
20,253,227723,2,0,L|100:232,1,64,0|0,1:2|0:0,0:0:0:0:
124,165,228035,1,2,1:2:0:0:
52,123,228191,1,2,1:2:0:0:
69,42,228348,1,2,3:2:0:0:
152,33,228504,1,0,3:0:0:0:
186,109,228660,2,0,P|221:122|250:146,1,64,0|0,3:0|3:0,0:0:0:0:
304,193,228973,6,0,P|350:294|361:407,1,192,6|2,0:0|0:0,0:0:0:0:
443,354,229598,2,0,P|453:291|481:233,1,128,0|0,3:0|1:0,0:0:0:0:
496,67,230223,2,0,L|426:52,1,64,4|0,3:2|0:0,0:0:0:0:
360,14,230535,2,0,L|290:29,1,64,2|0,0:0|0:0,0:0:0:0:
224,67,230848,6,0,B|169:93|132:52|135:49|96:5|32:30,1,192,6|0,0:0|0:0,0:0:0:0:
6,99,231473,2,0,B|39:122|27:157|25:156|12:193|48:222,1,128,2|0,0:0|1:0,0:0:0:0:
143,272,232098,2,0,P|151:238|165:200,1,64,6|0,3:2|0:0,0:0:0:0:
239,236,232410,2,0,P|231:270|217:308,1,64,4|0,3:2|0:0,0:0:0:0:
161,356,232723,6,0,P|242:381|336:330,1,192,6|2,0:0|0:0,0:0:0:0:
389,275,233348,1,0,1:0:0:0:
462,125,233660,2,0,P|381:100|287:151,1,192,2|2,3:2|0:0,0:0:0:0:
234,206,234285,1,4,1:2:0:0:
67,214,234598,6,0,B|22:171|38:124|55:128|74:74|34:30,1,192,6|0,3:2|0:0,0:0:0:0:
118,10,235223,2,0,P|136:18|161:21,3,32,0|0|0|0,1:0|3:0|3:0|3:0,0:0:0:0:
165,47,235535,2,0,P|184:50|209:46,3,32,2|0|0|0,3:2|3:0|3:0|3:0,0:0:0:0:
217,75,235848,2,0,P|236:74|260:66,3,32,2|0|0|0,3:2|3:0|3:0|3:0,0:0:0:0:
273,93,236160,1,4,1:2:0:0:
424,24,236473,6,0,P|461:73|436:135,1,128,4|0,3:2|3:0,0:0:0:0:
365,166,236941,2,0,P|340:184|309:172,2,64,0|0|0,3:0|3:0|3:0,0:0:0:0:
439,214,237410,5,2,1:2:0:0:
439,214,237566,1,2,0:0:0:0:
457,295,237723,2,0,P|446:327|441:358,1,64,4|0,3:2|0:0,0:0:0:0:
361,332,238035,2,0,P|372:300|377:269,1,64,4|0,3:2|0:0,0:0:0:0:
294,258,238348,6,0,B|247:247|206:284|215:286|161:327|107:318,1,192,6|0,3:2|0:0,0:0:0:0:
80,244,238973,2,0,B|64:247|51:235|53:234|35:220|17:223,1,64,2|0,3:2|0:0,0:0:0:0:
10,145,239285,5,0,1:0:0:0:
10,145,239441,1,0,1:0:0:0:
82,103,239598,2,0,P|85:70|80:34,1,64,0|0,3:0|3:0,0:0:0:0:
164,39,239910,2,0,P|196:42|233:37,1,64,0|0,3:0|3:0,0:0:0:0:
228,121,240223,6,0,P|225:153|333:251,1,192,4|2,3:2|0:0,0:0:0:0:
414,249,240848,1,0,3:0:0:0:
510,114,241160,1,0,1:0:0:0:
461,46,241316,1,2,0:0:0:0:
378,33,241473,2,0,P|356:31|291:102,1,128,4|0,3:2|3:0,0:0:0:0:
171,218,242098,6,0,L|102:196,1,64,6|0,0:0|0:0,0:0:0:0:
26,206,242410,2,0,L|4:274,1,64,0|0,3:0|0:0,0:0:0:0:
15,349,242723,2,0,L|83:370,1,64,0|0,3:0|0:0,0:0:0:0:
158,363,243035,1,4,3:2:0:0:
324,364,243348,5,2,1:2:0:0:
403,338,243504,1,0,1:0:0:0:
403,255,243660,1,0,1:0:0:0:
324,229,243816,1,0,1:0:0:0:
275,296,243973,6,0,P|211:275|174:161,1,192,6|0,3:2|0:0,0:0:0:0:
203,87,244598,1,2,0:0:0:0:
355,154,244910,2,0,P|401:113|396:51,2,128,2|2|0,1:2|0:0|0:0,0:0:0:0:
443,295,245848,5,0,3:0:0:0:
393,362,246004,1,2,0:0:0:0:
310,351,246160,2,0,B|264:358|249:338|250:333|234:310|183:318,2,128,2|2|0,0:0|0:0|1:0,0:0:0:0:
286,19,247410,6,0,P|252:22|221:48,1,64,0|0,3:0|0:0,0:0:0:0:
166,95,247723,2,0,P|126:39|50:11,2,128,2|2|0,3:2|0:0|0:0,0:0:0:0:
295,199,248660,2,0,P|237:311|132:383,1,256,2|0,1:2|0:0,0:0:0:0:
53,356,249441,1,2,0:0:0:0:
117,302,249598,6,0,B|128:256|110:235|106:236|90:218|101:161,2,128,2|2|0,3:2|0:0|0:0,0:0:0:0:
277,347,250535,2,0,B|255:255|291:213|299:215|331:179|309:65,1,256,2|0,1:2|3:0,0:0:0:0:
454,10,251473,6,0,P|510:63|507:185,1,192,6|0,3:2|3:0,0:0:0:0:
493,253,252098,1,0,1:0:0:0:
365,359,252410,2,0,P|291:380|186:317,1,192,6|0,3:2|3:0,0:0:0:0:
135,271,253035,1,0,1:0:0:0:
107,106,253348,6,0,P|119:56|190:16,1,128,2|0,1:2|3:0,0:0:0:0:
233,82,253816,1,0,3:0:0:0:
310,112,253973,2,0,P|303:136|268:156,1,64,2|0,3:2|3:0,0:0:0:0:
189,158,254285,1,6,0:0:0:0:
256,192,254441,12,0,257722,3:0:0:0:
374,77,258035,6,0,P|432:35|499:58,2,128,2|0|0,3:2|0:0|0:0,0:0:0:0:
316,236,258972,1,2,1:2:0:0:
316,236,259128,1,0,1:0:0:0:
364,304,259285,2,0,P|334:324|301:313,1,64,0|0,3:0|3:0,0:0:0:0:
235,279,259597,2,0,P|219:311|184:318,1,64,0|0,3:0|3:0,0:0:0:0:
110,321,259910,6,0,P|56:342|6:299,2,128,0|0|2,3:0|3:0|3:2,0:0:0:0:
9,188,260847,2,0,P|13:159|44:148,1,64,2|0,3:2|3:0,0:0:0:0:
127,152,261160,2,0,P|149:170|143:202,1,64,0|0,3:0|3:0,0:0:0:0:
188,277,261472,1,0,3:0:0:0:
188,277,261628,1,0,3:0:0:0:
264,233,261785,1,6,3:2:0:0:
256,192,261941,12,0,265222,3:0:0:0:
466,270,265535,6,0,B|454:227|475:206|479:213|498:192|485:146,1,128,2|0,3:2|0:0,0:0:0:0:
427,89,266003,2,0,B|411:104|397:101|399:97|385:94|368:111,1,64,0|2,3:0|0:0,0:0:0:0:
346,191,266316,1,0,3:0:0:0:
265,211,266472,2,0,P|192:205|127:182,2,128,0|0|0,1:0|0:0|3:0,0:0:0:0:
371,82,267410,6,0,L|376:40,2,32,2|0|0,3:2|3:0|3:0,0:0:0:0:
288,88,267722,2,0,L|161:71,1,128,4|6,1:2|1:2,0:0:0:0:
60,203,268347,2,0,L|54:244,2,32,2|0|0,3:2|3:0|3:0,0:0:0:0:
143,194,268660,2,0,L|269:210,1,128,6|4,1:2|1:2,0:0:0:0:
364,368,269285,6,0,P|494:267|405:96,1,383.99998828125,6|0,3:2|0:0,0:0:0:0:
318,108,270222,2,0,P|257:30|154:83,1,230.39999296875,2|0,1:2|0:0,0:0:0:0:
161,174,270847,1,2,0:0:0:0:
13,283,271160,6,0,B|95:219|197:276|162:363|269:416|349:332,1,383.99998828125,2|0,1:2|0:0,0:0:0:0:
313,249,272097,2,0,B|362:210|423:244|402:297|466:328|514:278,1,230.39999296875,2|0,1:2|0:0,0:0:0:0:
495,189,272722,1,2,0:0:0:0:
416,147,272878,5,0,3:0:0:0:
416,147,272956,1,0,3:0:0:0:
416,147,273035,2,0,P|314:116|244:19,1,211.200006445313,2|2,1:2|3:2,0:0:0:0:
434,10,273816,5,0,3:0:0:0:
434,10,273972,2,0,L|504:43,1,70.4000021484376,0|0,1:0|3:0,0:0:0:0:
512,133,274285,2,0,L|479:203,1,70.4000021484376,2|0,0:0|3:0,0:0:0:0:
389,211,274597,2,0,L|319:178,1,70.4000021484376,2|0,0:0|3:0,0:0:0:0:
233,190,274910,5,2,1:2:0:0:
146,218,275066,1,0,1:0:0:0:
146,310,275222,1,0,1:0:0:0:
233,338,275378,1,0,1:0:0:0:
287,264,275535,1,0,1:0:0:0:
278,81,275847,6,0,P|250:57|232:19,1,70.4000021484376,2|0,1:2|3:0,0:0:0:0:
143,39,276160,2,0,P|136:75|112:109,1,70.4000021484376,0|0,3:0|3:0,0:0:0:0:
31,115,276472,1,0,3:0:0:0:
31,115,276628,1,0,3:0:0:0:
84,184,276785,6,0,B|167:164|264:243|206:316|310:386|395:345,1,383.99998828125,6|0,3:2|0:0,0:0:0:0:
484,325,277722,2,0,B|448:287|460:213|515:222|521:146|474:115,1,230.39999296875,2|0,1:2|0:0,0:0:0:0:
407,179,278347,1,2,0:0:0:0:
224,206,278660,6,0,P|106:107|261:56,1,383.99998828125,2|0,1:2|0:0,0:0:0:0:
349,72,279597,2,0,P|408:1|439:94,1,230.39999296875,2|0,1:2|0:0,0:0:0:0:
373,158,280222,1,2,0:0:0:0:
454,207,280378,5,0,3:0:0:0:
454,207,280456,1,0,3:0:0:0:
454,207,280535,2,0,B|398:225|390:282|416:311|406:371|349:379,1,211.200006445313,2|2,1:2|3:2,0:0:0:0:
191,371,281316,5,0,3:0:0:0:
191,371,281472,2,0,P|166:348|160:308,1,70.4000021484376,0|0,1:0|3:0,0:0:0:0:
68,298,281785,2,0,P|75:264|107:239,1,70.4000021484376,2|0,0:0|3:0,0:0:0:0:
69,154,282097,2,0,P|101:143|139:158,1,70.4000021484376,2|0,0:0|3:0,0:0:0:0:
194,222,282410,6,0,P|249:209|339:172,1,140.800004296875,2|0,1:2|3:0,0:0:0:0:
408,137,282878,1,0,3:0:0:0:
329,89,283035,1,2,0:0:0:0:
165,6,283347,6,0,P|156:33|150:81,1,70.4000021484376,2|0,1:2|0:0,0:0:0:0:
110,157,283660,2,0,P|101:184|95:232,1,70.4000021484376,4|0,1:2|0:0,0:0:0:0:
55,308,283972,2,0,P|46:335|40:383,1,70.4000021484376,4|0,1:2|0:0,0:0:0:0:
131,363,284285,6,0,B|160:260|299:280|275:392|398:407|447:306,1,383.99998828125,6|0,3:2|0:0,0:0:0:0:
500,230,285222,2,0,B|482:168|399:180|413:247|339:256|310:195,1,230.39999296875,2|0,1:2|0:0,0:0:0:0:
376,130,285847,1,2,0:0:0:0:
222,26,286160,6,0,P|76:30|8:240,1,383.99998828125,2|0,1:2|0:0,0:0:0:0:
95,226,287097,2,0,P|97:313|223:354,1,230.39999296875,2|0,1:2|0:0,0:0:0:0:
252,271,287722,1,2,0:0:0:0:
195,200,287878,5,0,3:0:0:0:
195,200,287956,1,0,3:0:0:0:
195,200,288035,2,0,P|188:108|259:7,1,211.200006445313,2|0,1:2|3:2,0:0:0:0:
342,20,288660,2,0,P|372:17|406:41,1,70.4000021484376,2|0,0:0|3:0,0:0:0:0:
348,112,288972,1,6,1:2:0:0:
348,112,289128,2,0,B|386:120|402:154|396:154|416:187|472:193,1,140.800004296875,0|0,3:0|3:0,0:0:0:0:
501,272,289597,2,0,B|488:286|469:284|470:282|451:282|434:305,1,70.4000021484376,2|0,0:0|3:0,0:0:0:0:
346,293,289910,6,0,P|354:277|347:247,3,35.2000010742188,2|0|0|0,1:2|1:0|3:0|3:0,0:0:0:0:
333,231,290222,2,0,P|317:223|287:230,3,35.2000010742188,0|0|0|0,3:0|3:0|3:0|3:0,0:0:0:0:
271,244,290535,1,2,1:2:0:0:
92,281,290847,6,0,P|84:297|91:327,3,35.2000010742188,2|0|0|0,3:2|3:0|3:0|3:0,0:0:0:0:
105,343,291160,2,0,P|121:351|151:344,3,35.2000010742188,0|0|0|0,3:0|3:0|3:0|3:0,0:0:0:0:
167,330,291472,1,6,1:2:0:0:
148,164,291785,6,0,P|238:32|406:40,1,320,2|0,0:0|0:0,0:0:0:0:
460,65,292722,2,0,P|487:122|451:179,2,128,2|0|0,1:2|0:0|3:0,0:0:0:0:
298,109,293660,2,0,P|297:170|309:237,1,128,2|0,3:2|0:0,0:0:0:0:
166,322,294285,2,0,P|106:215|18:111,1,256,2|0,0:0|1:0,0:0:0:0:
166,31,295222,2,0,L|238:45,1,64,4|0,3:2|0:0,0:0:0:0:
308,18,295535,6,0,L|452:46,2,128,4|0|0,0:0|0:0|0:0,0:0:0:0:
341,180,296472,2,0,L|466:204,1,128,2|0,1:2|0:0,0:0:0:0:
374,342,297097,1,0,3:0:0:0:
374,342,297410,2,0,L|248:317,1,128,2|0,3:2|0:0,0:0:0:0:
237,150,298035,2,0,B|170:137|113:175|122:211|74:242|-5:231,1,256,2|0,0:0|3:0,0:0:0:0:
5,232,298972,1,0,3:0:0:0:
17,66,299285,6,0,P|118:23|237:64,1,230.39999296875,4|0,0:0|0:0,0:0:0:0:
128,189,300222,2,0,P|235:223|339:180,1,230.39999296875,2|0,0:0|3:0,0:0:0:0:
499,224,301160,2,0,P|516:170|494:118,2,115.199996484375,2|0|0,3:2|0:0|0:0,0:0:0:0:
341,178,302097,2,0,P|319:125|336:72,1,115.199996484375,2|2,0:0|0:0,0:0:0:0:
178,19,302722,1,0,3:0:0:0:
125,176,303035,6,0,B|93:182|68:160|74:158|41:133|3:136,2,115.199996484375,0|2|0,3:0|0:0|0:0,0:0:0:0:
215,315,303972,2,0,B|204:257|243:212|247:223|292:163|286:95,1,230.39999296875,2|2,0:0|3:2,0:0:0:0:
451,122,304910,2,0,B|456:93|437:70|435:76|412:46|415:12,2,115.199996484375,0|2|0,3:0|0:0|0:0,0:0:0:0:
451,122,305847,5,2,0:0:0:0:
440,287,306160,1,2,0:0:0:0:
275,276,306472,1,0,3:0:0:0:
285,110,306785,6,0,B|238:113|211:82|213:78|181:44|126:43,1,172.799994726563,4|0,3:2|0:0,0:0:0:0:
48,58,307410,1,2,0:0:0:0:
55,223,307722,2,0,B|54:256|31:278|29:276|8:294|10:326,2,115.199996484375,2|0|0,1:2|0:0|3:0,0:0:0:0:
220,216,308660,2,0,B|253:217|275:240|273:242|291:263|323:261,1,115.199996484375,2|0,3:2|0:0,0:0:0:0:
457,358,309285,1,2,0:0:0:0:
457,358,309910,2,0,L|461:292,1,57.5999982421876,0|0,1:0|0:0,0:0:0:0:
433,222,310222,2,0,L|437:156,1,57.5999982421876,2|0,3:2|0:0,0:0:0:0:
491,101,310535,6,0,P|446:38|350:33,1,172.799994726563,4|0,3:2|0:0,0:0:0:0:
278,60,311160,1,2,0:0:0:0:
121,113,311472,2,0,P|65:110|31:65,2,115.199996484375,2|0|0,1:2|0:0|3:0,0:0:0:0:
245,222,312410,2,0,P|270:271|248:323,1,115.199996484375,2|0,3:2|0:0,0:0:0:0:
86,282,313035,1,2,0:0:0:0:
86,282,313660,2,0,P|58:273|38:248,1,57.5999982421876,4|0,3:0|0:0,0:0:0:0:
84,182,313972,2,0,P|64:160|59:128,1,57.5999982421876,4|0,3:0|0:0,0:0:0:0:
132,94,314285,6,0,P|165:45|317:62,1,230.39999296875,4|2,0:0|0:0,0:0:0:0:
471,121,315222,2,0,P|496:174|406:297,1,230.39999296875,2|0,0:0|0:0,0:0:0:0:
265,364,316166,6,0,P|256:309|265:236,2,115.199996484375,2|0|0,3:2|0:0|0:0,0:0:0:0:
106,379,317194,1,2,0:0:0:0:
43,233,317551,1,2,0:0:0:0:
162,127,317930,1,2,0:0:0:0:
299,207,318343,6,0,P|346:225|410:221,1,102.4,2|0,3:2|3:0,0:0:0:0:
412,144,318993,1,0,3:0:0:0:
412,144,319245,2,0,P|365:126|301:130,2,102.4,2|0|0,3:2|3:0|3:0,0:0:0:0:
425,301,320673,1,2,3:2:0:0:
268,314,321244,5,2,3:2:0:0:
268,314,321815,1,0,3:0:0:0:
191,354,322075,1,0,3:0:0:0:
126,303,322336,1,0,3:0:0:0:
203,263,322613,1,0,3:0:0:0:
280,223,322922,6,0,L|273:171,1,51.2,0|2,3:0|0:0,0:0:0:0:
192,164,323485,2,0,L|185:112,1,51.2,0|2,3:0|0:0,0:0:0:0:
104,105,324174,1,0,3:0:0:0:
104,105,324582,1,2,0:0:0:0:
266,88,325058,5,6,3:2:0:0:
256,192,325296,12,0,333629,0:0:0:0:
