osu file format v14

[General]
AudioFilename: audio.mp3
AudioLeadIn: 0
PreviewTime: 93712
Countdown: 0
SampleSet: Normal
StackLeniency: 0.7
Mode: 1
LetterboxInBreaks: 0
WidescreenStoryboard: 0

[Editor]
DistanceSpacing: 2.3
BeatDivisor: 4
GridSize: 32
TimelineZoom: 2.999999

[Metadata]
Title:A Voice in the Dark
TitleUnicode:A Voice in the Dark
Artist:Blind Guardian
ArtistUnicode:Blind Guardian
Creator:frukoyurdakul
Version:Hell Oni
Source:
Tags:at the edge of time power metal stream marathon
BeatmapID:1301568
BeatmapSetID:617257

[Difficulty]
HPDrainRate:4
CircleSize:2
OverallDifficulty:6.5
ApproachRate:10
SliderMultiplier:1.4
SliderTickRate:1

[Events]
//Background and Video events
0,0,"BG.jpg",0,80
//Break Periods
//Storyboard Layer 0 (Background)
//Storyboard Layer 1 (Fail)
//Storyboard Layer 2 (Pass)
//Storyboard Layer 3 (Foreground)
//Storyboard Sound Samples

[TimingPoints]
131,326.066956521739,4,1,0,90,1,0
62409,-102.040816326531,4,1,0,90,0,0
62491,-105.263157894737,4,1,0,90,0,0
62572,-107.52688172043,4,1,0,90,0,0
62654,-111.111111111111,4,1,0,90,0,0
62735,-114.942528735632,4,1,0,90,0,0
67952,-89.2857142857143,4,1,0,90,0,0
68278,-114.942528735632,4,1,0,90,0,0
69094,-89.2857142857143,4,1,0,90,0,0
69583,-114.942528735632,4,1,0,90,0,0
70561,-89.2857142857143,4,1,0,90,0,0
70887,-114.942528735632,4,1,0,90,0,0
71702,-89.2857142857143,4,1,0,90,0,0
72191,-114.942528735632,4,1,0,90,0,0
72843,-111.111111111111,4,1,0,90,0,0
72925,-107.52688172043,4,1,0,90,0,0
73006,-104.166666666667,4,1,0,90,0,0
73169,-100,4,1,0,90,0,0
92815,-99.009900990099,4,1,0,90,0,0
92897,-98.0392156862745,4,1,0,90,0,0
92978,-97.0873786407767,4,1,0,90,0,0
93060,-96.1538461538461,4,1,0,90,0,0
93141,-95.2380952380952,4,1,0,90,0,0
93223,-94.3396226415094,4,1,0,90,0,0
93304,-93.4579439252336,4,1,0,90,0,0
93386,-92.5925925925926,4,1,0,90,0,0
93467,-91.743119266055,4,1,0,90,0,0
93549,-90.9090909090909,4,1,0,90,0,0
93630,-90.0900900900901,4,1,0,90,0,0
93712,-89.2857142857143,4,1,0,90,0,0
93793,-88.4955752212389,4,1,0,90,0,0
93875,-87.719298245614,4,1,0,90,0,0
94038,-86.9565217391304,4,1,0,100,0,1
113765,-87.719298245614,4,1,0,100,0,1
113846,-88.4955752212389,4,1,0,100,0,1
113928,-89.2857142857143,4,1,0,100,0,1
114009,-90.0900900900901,4,1,0,100,0,1
114091,-90.9090909090909,4,1,0,100,0,1
114172,-91.743119266055,4,1,0,100,0,1
114254,-92.5925925925926,4,1,0,100,0,1
114335,-93.4579439252336,4,1,0,100,0,1
114417,-94.3396226415094,4,1,0,100,0,1
114498,-95.2380952380952,4,1,0,100,0,1
114580,-96.1538461538461,4,1,0,100,0,1
114662,-97.0873786407767,4,1,0,100,0,1
114743,-98.0392156862745,4,1,0,100,0,1
114906,-100,4,1,0,90,0,0
135774,326.066956521739,4,1,0,90,1,8
135783,326.066956521739,4,1,0,90,1,0
155835,-101.010101010101,4,1,0,90,0,0
155917,-102.040816326531,4,1,0,90,0,0
155999,-103.092783505155,4,1,0,90,0,0
156080,-104.166666666667,4,1,0,90,0,0
156162,-106.382978723404,4,1,0,90,0,0
156243,-107.52688172043,4,1,0,90,0,0
156325,-108.695652173913,4,1,0,90,0,0
156406,-111.111111111111,4,1,0,90,0,0
156489,-112.359550561798,4,1,0,90,0,0
156651,-114.942528735632,4,1,0,90,0,0
166107,-113.636363636364,4,1,0,90,0,0
166188,-112.359550561798,4,1,0,90,0,0
166270,-111.111111111111,4,1,0,90,0,0
166351,-109.89010989011,4,1,0,90,0,0
166433,-108.695652173913,4,1,0,90,0,0
166514,-107.52688172043,4,1,0,90,0,0
166596,-106.382978723404,4,1,0,90,0,0
166678,-105.263157894737,4,1,0,90,0,0
166759,-104.166666666667,4,1,0,90,0,0
166840,-103.092783505155,4,1,0,90,0,0
166922,-102.040816326531,4,1,0,90,0,0
167085,-100,4,1,0,90,0,0
186730,-99.009900990099,4,1,0,90,0,0
186812,-98.0392156862745,4,1,0,90,0,0
186893,-97.0873786407767,4,1,0,90,0,0
186975,-96.1538461538461,4,1,0,90,0,0
187057,-95.2380952380952,4,1,0,90,0,0
187138,-94.3396226415094,4,1,0,90,0,0
187220,-93.4579439252336,4,1,0,90,0,0
187301,-92.5925925925926,4,1,0,90,0,0
187383,-91.743119266055,4,1,0,90,0,0
187464,-90.9090909090909,4,1,0,90,0,0
187546,-90.0900900900901,4,1,0,90,0,0
187627,-89.2857142857143,4,1,0,90,0,0
187709,-88.4955752212389,4,1,0,90,0,0
187790,-87.719298245614,4,1,0,90,0,0
187953,-86.9565217391304,4,1,0,100,0,1
207599,-87.719298245614,4,1,0,100,0,1
207680,-88.4955752212389,4,1,0,100,0,1
207762,-89.2857142857143,4,1,0,100,0,1
207843,-90.0900900900901,4,1,0,100,0,1
207925,-90.9090909090909,4,1,0,100,0,1
208007,-91.743119266055,4,1,0,100,0,1
208088,-92.5925925925926,4,1,0,100,0,1
208169,-93.4579439252336,4,1,0,100,0,1
208251,-94.3396226415094,4,1,0,100,0,1
208332,-95.2380952380952,4,1,0,100,0,1
208414,-96.1538461538461,4,1,0,100,0,1
208495,-97.0873786407767,4,1,0,100,0,1
208577,-98.0392156862745,4,1,0,100,0,1
208658,-99.009900990099,4,1,0,100,0,1
208821,-100,4,1,0,90,0,0
262623,-101.010101010101,4,1,0,90,0,0
262704,-102.040816326531,4,1,0,90,0,0
262786,-103.092783505155,4,1,0,90,0,0
262867,-104.166666666667,4,1,0,90,0,0
262949,-105.263157894737,4,1,0,90,0,0
263031,-106.382978723404,4,1,0,90,0,0
263112,-107.52688172043,4,1,0,90,0,0
263193,-108.695652173913,4,1,0,90,0,0
263275,-109.89010989011,4,1,0,90,0,0
263356,-111.111111111111,4,1,0,90,0,0
263438,-112.359550561798,4,1,0,90,0,0
263601,-114.942528735632,4,1,0,90,0,0
273057,-112.359550561798,4,1,0,90,0,0
273220,-109.89010989011,4,1,0,90,0,0
273383,-108.695652173913,4,1,0,90,0,0
273464,-107.52688172043,4,1,0,90,0,0
273546,-106.382978723404,4,1,0,90,0,0
273627,-105.263157894737,4,1,0,90,0,0
273709,-104.166666666667,4,1,0,90,0,0
273790,-103.092783505155,4,1,0,90,0,0
273872,-102.040816326531,4,1,0,90,0,0
274034,-100,4,1,0,90,0,0
283246,-99.009900990099,4,1,0,90,0,0
283328,-98.0392156862745,4,1,0,90,0,0
283409,-97.0873786407767,4,1,0,90,0,0
283491,-96.1538461538461,4,1,0,90,0,0
283572,-95.2380952380952,4,1,0,90,0,0
283654,-94.3396226415094,4,1,0,90,0,0
283735,-93.4579439252336,4,1,0,90,0,0
283816,-92.5925925925926,4,1,0,90,0,0
283898,-91.743119266055,4,1,0,90,0,0
283980,-90.9090909090909,4,1,0,90,0,0
284061,-90.0900900900901,4,1,0,90,0,0
284143,-89.2857142857143,4,1,0,90,0,0
284224,-88.4955752212389,4,1,0,90,0,0
284306,-87.719298245614,4,1,0,90,0,0
284464,326.066956521739,4,1,0,100,1,8
284471,326.066956521739,4,1,0,100,1,1
284471,-86.9565217391304,4,1,0,100,0,1
304198,-87.719298245614,4,1,0,100,0,1
304279,-88.4955752212389,4,1,0,100,0,1
304361,-89.2857142857143,4,1,0,100,0,1
304442,-90.0900900900901,4,1,0,100,0,1
304524,-90.9090909090909,4,1,0,100,0,1
304605,-91.743119266055,4,1,0,100,0,1
304687,-92.5925925925926,4,1,0,100,0,1
304768,-93.4579439252336,4,1,0,100,0,1
304850,-94.3396226415094,4,1,0,100,0,1
304931,-95.2380952380952,4,1,0,100,0,1
305013,-96.1538461538461,4,1,0,100,0,1
305094,-97.0873786407767,4,1,0,100,0,1
305176,-98.0392156862745,4,1,0,100,0,1
305339,-100,4,1,0,90,0,0

[HitObjects]
160,96,131,5,0,0:0:0:0:
160,96,294,1,0,0:0:0:0:
352,96,457,1,8,0:0:0:0:
352,96,538,1,8,0:0:0:0:
352,96,620,1,8,0:0:0:0:
160,96,783,1,0,0:0:0:0:
160,96,946,1,0,0:0:0:0:
352,96,1109,1,8,0:0:0:0:
352,96,1190,1,8,0:0:0:0:
352,96,1272,1,8,0:0:0:0:
160,96,1435,1,0,0:0:0:0:
160,96,1598,1,0,0:0:0:0:
352,96,1761,1,8,0:0:0:0:
352,96,1842,1,8,0:0:0:0:
352,96,1924,1,8,0:0:0:0:
160,96,2087,1,0,0:0:0:0:
352,288,2250,1,12,0:0:0:0:
352,288,2576,1,12,0:0:0:0:
160,96,2739,1,0,0:0:0:0:
160,96,2902,1,0,0:0:0:0:
352,96,3065,1,8,0:0:0:0:
352,96,3147,1,8,0:0:0:0:
352,96,3228,1,8,0:0:0:0:
160,96,3391,1,0,0:0:0:0:
160,96,3554,1,0,0:0:0:0:
352,96,3717,1,8,0:0:0:0:
352,96,3799,1,8,0:0:0:0:
352,96,3880,1,8,0:0:0:0:
160,96,4043,1,0,0:0:0:0:
160,96,4206,1,0,0:0:0:0:
352,96,4369,1,8,0:0:0:0:
352,96,4451,1,8,0:0:0:0:
352,96,4532,1,8,0:0:0:0:
160,96,4695,1,0,0:0:0:0:
352,288,4858,1,12,0:0:0:0:
352,288,5185,1,12,0:0:0:0:
160,96,5348,1,0,0:0:0:0:
160,96,5511,1,0,0:0:0:0:
352,96,5674,1,8,0:0:0:0:
160,96,5755,1,0,0:0:0:0:
352,96,5837,1,8,0:0:0:0:
160,96,6000,1,0,0:0:0:0:
160,96,6081,1,0,0:0:0:0:
160,96,6163,1,0,0:0:0:0:
352,96,6326,1,8,0:0:0:0:
352,96,6407,1,8,0:0:0:0:
352,96,6489,1,8,0:0:0:0:
160,96,6652,1,0,0:0:0:0:
160,96,6815,1,0,0:0:0:0:
352,96,6978,1,8,0:0:0:0:
160,96,7059,1,0,0:0:0:0:
352,96,7141,1,8,0:0:0:0:
160,96,7304,1,0,0:0:0:0:
160,96,7385,1,0,0:0:0:0:
352,96,7467,1,8,0:0:0:0:
352,96,7549,1,8,0:0:0:0:
160,96,7630,1,0,0:0:0:0:
160,96,7712,1,0,0:0:0:0:
352,96,7793,1,8,0:0:0:0:
160,96,7956,1,0,0:0:0:0:
160,96,8038,1,0,0:0:0:0:
160,96,8119,1,0,0:0:0:0:
352,96,8282,1,8,0:0:0:0:
160,96,8364,1,0,0:0:0:0:
352,96,8445,1,8,0:0:0:0:
160,96,8608,1,0,0:0:0:0:
160,96,8690,1,0,0:0:0:0:
160,96,8771,1,0,0:0:0:0:
352,96,8934,1,8,0:0:0:0:
352,96,9016,1,8,0:0:0:0:
352,96,9097,1,8,0:0:0:0:
160,96,9260,1,0,0:0:0:0:
160,96,9342,1,0,0:0:0:0:
160,96,9423,1,0,0:0:0:0:
352,96,9586,1,8,0:0:0:0:
160,96,9668,1,0,0:0:0:0:
352,96,9749,1,8,0:0:0:0:
352,96,9913,1,8,0:0:0:0:
352,96,9994,1,8,0:0:0:0:
352,96,10076,1,8,0:0:0:0:
352,96,10157,1,8,0:0:0:0:
352,96,10239,1,8,0:0:0:0:
352,96,10320,1,8,0:0:0:0:
352,96,10402,1,8,0:0:0:0:
160,288,10565,1,4,0:0:0:0:
160,96,10728,1,0,0:0:0:0:
352,96,10891,1,8,0:0:0:0:
160,96,10972,1,0,0:0:0:0:
352,96,11054,1,8,0:0:0:0:
352,96,11217,1,8,0:0:0:0:
160,96,11380,1,0,0:0:0:0:
352,96,11543,1,8,0:0:0:0:
352,96,11624,1,8,0:0:0:0:
352,96,11706,1,8,0:0:0:0:
352,96,11869,1,8,0:0:0:0:
160,96,12032,1,0,0:0:0:0:
352,96,12195,1,8,0:0:0:0:
160,96,12276,1,0,0:0:0:0:
352,96,12358,1,8,0:0:0:0:
160,96,12521,1,0,0:0:0:0:
352,288,12684,1,12,0:0:0:0:
352,288,13010,1,12,0:0:0:0:
160,288,13173,1,4,0:0:0:0:
160,96,13336,1,0,0:0:0:0:
352,96,13499,1,8,0:0:0:0:
160,96,13581,1,0,0:0:0:0:
352,96,13662,1,8,0:0:0:0:
352,96,13825,1,8,0:0:0:0:
160,96,13907,1,0,0:0:0:0:
160,96,13988,1,0,0:0:0:0:
352,96,14151,1,8,0:0:0:0:
352,96,14233,1,8,0:0:0:0:
352,96,14314,1,8,0:0:0:0:
352,96,14477,1,8,0:0:0:0:
352,96,14559,1,8,0:0:0:0:
160,96,14640,1,0,0:0:0:0:
352,96,14804,1,8,0:0:0:0:
160,96,14885,1,0,0:0:0:0:
352,96,14967,1,8,0:0:0:0:
160,96,15130,1,0,0:0:0:0:
352,288,15293,1,12,0:0:0:0:
352,288,15619,1,12,0:0:0:0:
160,288,15782,1,4,0:0:0:0:
160,96,15945,1,0,0:0:0:0:
160,96,16026,1,0,0:0:0:0:
352,96,16108,1,8,0:0:0:0:
160,96,16189,1,0,0:0:0:0:
352,96,16271,1,8,0:0:0:0:
352,96,16434,1,8,0:0:0:0:
160,96,16597,1,0,0:0:0:0:
160,96,16678,1,0,0:0:0:0:
352,96,16760,1,8,0:0:0:0:
352,96,16841,1,8,0:0:0:0:
352,96,16923,1,8,0:0:0:0:
352,96,17086,1,8,0:0:0:0:
160,96,17249,1,0,0:0:0:0:
160,96,17331,1,0,0:0:0:0:
352,96,17412,1,8,0:0:0:0:
160,96,17494,1,0,0:0:0:0:
352,96,17575,1,8,0:0:0:0:
352,96,17738,1,8,0:0:0:0:
160,96,17820,1,0,0:0:0:0:
352,96,17901,1,8,0:0:0:0:
352,96,17983,1,8,0:0:0:0:
160,96,18064,1,0,0:0:0:0:
160,96,18146,1,0,0:0:0:0:
352,96,18227,1,8,0:0:0:0:
352,96,18390,1,8,0:0:0:0:
160,96,18472,1,0,0:0:0:0:
160,96,18553,1,0,0:0:0:0:
160,96,18635,1,0,0:0:0:0:
352,96,18716,1,8,0:0:0:0:
160,96,18798,1,0,0:0:0:0:
352,96,18879,1,8,0:0:0:0:
352,96,19042,1,8,0:0:0:0:
160,96,19124,1,0,0:0:0:0:
160,96,19205,1,0,0:0:0:0:
160,96,19287,1,0,0:0:0:0:
352,96,19368,1,8,0:0:0:0:
352,96,19450,1,8,0:0:0:0:
352,96,19531,1,8,0:0:0:0:
352,96,19695,1,8,0:0:0:0:
352,96,19776,1,8,0:0:0:0:
352,96,19858,1,8,0:0:0:0:
352,96,19939,1,8,0:0:0:0:
160,96,20021,1,0,0:0:0:0:
160,96,20102,1,0,0:0:0:0:
160,96,20184,1,0,0:0:0:0:
160,96,20265,1,0,0:0:0:0:
160,96,20347,1,0,0:0:0:0:
160,96,20428,1,0,0:0:0:0:
352,96,20510,1,8,0:0:0:0:
352,96,20591,1,8,0:0:0:0:
160,96,20673,1,0,0:0:0:0:
160,96,20754,1,0,0:0:0:0:
160,96,20836,1,0,0:0:0:0:
352,96,20999,1,8,0:0:0:0:
160,96,21080,1,0,0:0:0:0:
160,96,21162,1,0,0:0:0:0:
160,96,21243,1,0,0:0:0:0:
352,96,21325,1,8,0:0:0:0:
160,96,21488,1,0,0:0:0:0:
352,96,21651,1,8,0:0:0:0:
352,96,21732,1,8,0:0:0:0:
160,96,21814,1,0,0:0:0:0:
160,96,21895,1,0,0:0:0:0:
352,96,21977,1,8,0:0:0:0:
160,96,22140,1,0,0:0:0:0:
352,96,22303,1,8,0:0:0:0:
160,96,22385,1,0,0:0:0:0:
160,96,22466,1,0,0:0:0:0:
160,96,22548,1,0,0:0:0:0:
352,96,22629,1,8,0:0:0:0:
160,96,22792,1,0,0:0:0:0:
352,96,22955,1,8,0:0:0:0:
160,96,23037,1,0,0:0:0:0:
352,96,23118,1,8,0:0:0:0:
160,96,23281,1,0,0:0:0:0:
352,96,23444,1,8,0:0:0:0:
352,96,23607,1,8,0:0:0:0:
352,96,23689,1,8,0:0:0:0:
160,96,23770,1,0,0:0:0:0:
160,96,23852,1,0,0:0:0:0:
352,96,23933,1,8,0:0:0:0:
160,96,24096,1,0,0:0:0:0:
352,96,24259,1,8,0:0:0:0:
352,96,24341,1,8,0:0:0:0:
352,96,24422,1,8,0:0:0:0:
160,96,24504,1,0,0:0:0:0:
352,96,24586,1,8,0:0:0:0:
160,96,24749,1,0,0:0:0:0:
352,96,24912,1,8,0:0:0:0:
352,96,24993,1,8,0:0:0:0:
160,96,25075,1,0,0:0:0:0:
160,96,25156,1,0,0:0:0:0:
352,96,25238,1,8,0:0:0:0:
160,96,25401,1,0,0:0:0:0:
352,96,25564,1,8,0:0:0:0:
160,96,25645,1,0,0:0:0:0:
352,96,25727,1,8,0:0:0:0:
160,96,25808,1,0,0:0:0:0:
160,96,25890,1,0,0:0:0:0:
160,96,25971,1,0,0:0:0:0:
352,96,26053,1,8,0:0:0:0:
352,96,26216,1,8,0:0:0:0:
352,96,26297,1,8,0:0:0:0:
160,96,26379,1,0,0:0:0:0:
160,96,26460,1,0,0:0:0:0:
352,96,26542,1,8,0:0:0:0:
160,96,26705,1,0,0:0:0:0:
352,96,26868,1,8,0:0:0:0:
160,96,26950,1,0,0:0:0:0:
352,96,27031,1,8,0:0:0:0:
352,96,27113,1,8,0:0:0:0:
352,96,27194,1,8,0:0:0:0:
160,96,27357,1,0,0:0:0:0:
352,96,27520,1,8,0:0:0:0:
352,96,27602,1,8,0:0:0:0:
160,96,27683,1,0,0:0:0:0:
160,96,27765,1,0,0:0:0:0:
352,96,27846,1,8,0:0:0:0:
160,96,28009,1,0,0:0:0:0:
352,96,28172,1,8,0:0:0:0:
160,96,28254,1,0,0:0:0:0:
352,96,28335,1,8,0:0:0:0:
352,96,28417,1,8,0:0:0:0:
160,96,28498,1,0,0:0:0:0:
160,96,28580,1,0,0:0:0:0:
352,96,28661,1,8,0:0:0:0:
352,96,28824,1,8,0:0:0:0:
352,96,28906,1,8,0:0:0:0:
352,96,28987,1,8,0:0:0:0:
160,96,29069,1,0,0:0:0:0:
352,96,29150,1,8,0:0:0:0:
160,96,29313,1,0,0:0:0:0:
352,96,29477,1,8,0:0:0:0:
160,96,29558,1,0,0:0:0:0:
352,96,29640,1,8,0:0:0:0:
352,96,29721,1,8,0:0:0:0:
352,96,29803,1,8,0:0:0:0:
160,96,29966,1,0,0:0:0:0:
352,96,30129,1,8,0:0:0:0:
352,96,30210,1,8,0:0:0:0:
352,96,30292,1,8,0:0:0:0:
160,96,30373,1,0,0:0:0:0:
352,96,30455,1,8,0:0:0:0:
160,96,30618,1,0,0:0:0:0:
352,96,30781,1,8,0:0:0:0:
352,96,30862,1,8,0:0:0:0:
352,96,30944,1,8,0:0:0:0:
352,96,31025,1,8,0:0:0:0:
352,96,31107,1,8,0:0:0:0:
352,96,31188,1,8,0:0:0:0:
352,96,31270,1,8,0:0:0:0:
160,288,31433,1,4,0:0:0:0:
352,96,31596,1,8,0:0:0:0:
352,96,31677,1,8,0:0:0:0:
160,96,31759,1,0,0:0:0:0:
160,96,31922,1,0,0:0:0:0:
352,96,32085,1,8,0:0:0:0:
160,96,32167,1,0,0:0:0:0:
160,96,32248,1,0,0:0:0:0:
352,96,32330,1,8,0:0:0:0:
352,96,32411,1,8,0:0:0:0:
160,96,32493,1,0,0:0:0:0:
352,96,32574,1,8,0:0:0:0:
160,288,32737,1,4,0:0:0:0:
352,96,32900,1,8,0:0:0:0:
160,96,32982,1,0,0:0:0:0:
160,96,33063,1,0,0:0:0:0:
352,96,33145,1,8,0:0:0:0:
160,96,33226,1,0,0:0:0:0:
352,96,33389,1,8,0:0:0:0:
160,96,33471,1,0,0:0:0:0:
352,96,33552,1,8,0:0:0:0:
352,96,33634,1,8,0:0:0:0:
160,96,33715,1,0,0:0:0:0:
160,96,33797,1,0,0:0:0:0:
352,96,33878,1,8,0:0:0:0:
160,288,34041,1,4,0:0:0:0:
352,96,34204,1,8,0:0:0:0:
160,96,34286,1,0,0:0:0:0:
160,96,34368,1,0,0:0:0:0:
352,96,34449,1,8,0:0:0:0:
352,96,34531,1,8,0:0:0:0:
352,96,34694,1,8,0:0:0:0:
160,96,34775,1,0,0:0:0:0:
160,96,34857,1,0,0:0:0:0:
352,96,34938,1,8,0:0:0:0:
160,96,35020,1,0,0:0:0:0:
160,96,35101,1,0,0:0:0:0:
352,96,35183,1,8,0:0:0:0:
352,96,35346,1,8,0:0:0:0:
160,96,35427,1,0,0:0:0:0:
160,96,35509,1,0,0:0:0:0:
160,96,35590,1,0,0:0:0:0:
352,96,35672,1,8,0:0:0:0:
352,96,35753,1,8,0:0:0:0:
160,96,35835,1,0,0:0:0:0:
160,96,35916,1,0,0:0:0:0:
352,96,35998,1,8,0:0:0:0:
352,96,36079,1,8,0:0:0:0:
352,96,36161,1,8,0:0:0:0:
352,96,36242,1,8,0:0:0:0:
160,96,36324,1,0,0:0:0:0:
160,96,36405,1,0,0:0:0:0:
160,96,36487,1,0,0:0:0:0:
352,288,36650,1,12,0:0:0:0:
352,96,36813,1,8,0:0:0:0:
352,96,36895,1,8,0:0:0:0:
160,96,36976,1,0,0:0:0:0:
352,96,37139,1,8,0:0:0:0:
160,96,37221,1,0,0:0:0:0:
352,96,37302,1,8,0:0:0:0:
352,96,37384,1,8,0:0:0:0:
352,96,37465,1,8,0:0:0:0:
352,96,37547,1,8,0:0:0:0:
160,96,37628,1,0,0:0:0:0:
160,96,37710,1,0,0:0:0:0:
352,96,37791,1,8,0:0:0:0:
352,288,37954,1,12,0:0:0:0:
160,96,38117,1,0,0:0:0:0:
352,96,38199,1,8,0:0:0:0:
160,96,38280,1,0,0:0:0:0:
160,96,38362,1,0,0:0:0:0:
352,96,38443,1,8,0:0:0:0:
160,96,38525,1,0,0:0:0:0:
352,96,38606,1,8,0:0:0:0:
352,96,38688,1,8,0:0:0:0:
160,96,38769,1,0,0:0:0:0:
160,96,38851,1,0,0:0:0:0:
352,96,38932,1,8,0:0:0:0:
160,96,39014,1,0,0:0:0:0:
352,96,39096,1,8,0:0:0:0:
352,288,39259,1,12,0:0:0:0:
160,96,39422,1,0,0:0:0:0:
160,96,39503,1,0,0:0:0:0:
352,96,39585,1,8,0:0:0:0:
352,96,39666,1,8,0:0:0:0:
160,96,39748,1,0,0:0:0:0:
352,96,39911,1,8,0:0:0:0:
160,96,39992,1,0,0:0:0:0:
160,96,40074,1,0,0:0:0:0:
160,96,40155,1,0,0:0:0:0:
352,96,40237,1,8,0:0:0:0:
352,96,40318,1,8,0:0:0:0:
160,96,40400,1,0,0:0:0:0:
160,96,40481,1,0,0:0:0:0:
352,96,40563,1,8,0:0:0:0:
160,96,40644,1,0,0:0:0:0:
352,96,40726,1,8,0:0:0:0:
160,96,40807,1,0,0:0:0:0:
352,96,40889,1,8,0:0:0:0:
160,96,40970,1,0,0:0:0:0:
352,96,41052,1,8,0:0:0:0:
160,96,41133,1,0,0:0:0:0:
352,96,41215,1,8,0:0:0:0:
352,96,41296,1,8,0:0:0:0:
352,96,41378,1,8,0:0:0:0:
352,96,41459,1,8,0:0:0:0:
160,96,41541,1,0,0:0:0:0:
160,96,41623,1,0,0:0:0:0:
160,96,41704,1,0,0:0:0:0:
352,288,41867,1,12,0:0:0:0:
160,96,42030,1,0,0:0:0:0:
160,96,42112,1,0,0:0:0:0:
352,96,42193,1,8,0:0:0:0:
160,96,42356,1,0,0:0:0:0:
160,96,42438,1,0,0:0:0:0:
352,96,42519,1,8,0:0:0:0:
352,96,42601,1,8,0:0:0:0:
160,96,42682,1,0,0:0:0:0:
352,96,42845,1,8,0:0:0:0:
352,96,42900,1,8,0:0:0:0:
352,96,42954,1,8,0:0:0:0:
160,96,43008,1,0,0:0:0:0:
352,288,43171,1,12,0:0:0:0:
160,96,43334,1,0,0:0:0:0:
160,96,43416,1,0,0:0:0:0:
352,96,43497,1,8,0:0:0:0:
160,96,43660,1,0,0:0:0:0:
160,96,43742,1,0,0:0:0:0:
352,96,43823,1,8,0:0:0:0:
352,96,43905,1,8,0:0:0:0:
160,96,43987,1,0,0:0:0:0:
352,96,44068,1,8,0:0:0:0:
352,96,44150,1,8,0:0:0:0:
160,96,44231,1,0,0:0:0:0:
160,96,44313,1,0,0:0:0:0:
352,288,44476,1,12,0:0:0:0:
160,96,44639,1,0,0:0:0:0:
160,96,44720,1,0,0:0:0:0:
352,96,44802,1,8,0:0:0:0:
352,96,44883,1,8,0:0:0:0:
160,96,44965,1,0,0:0:0:0:
160,96,45046,1,0,0:0:0:0:
352,96,45128,1,8,0:0:0:0:
160,96,45209,1,0,0:0:0:0:
160,96,45291,1,0,0:0:0:0:
352,96,45372,1,8,0:0:0:0:
352,96,45454,1,8,0:0:0:0:
352,96,45535,1,8,0:0:0:0:
160,96,45617,1,0,0:0:0:0:
352,96,45780,1,8,0:0:0:0:
352,96,45861,1,8,0:0:0:0:
352,96,45943,1,8,0:0:0:0:
352,96,46024,1,8,0:0:0:0:
160,96,46106,1,0,0:0:0:0:
160,96,46187,1,0,0:0:0:0:
160,96,46269,1,0,0:0:0:0:
160,96,46350,1,0,0:0:0:0:
352,96,46432,1,8,0:0:0:0:
160,96,46514,1,0,0:0:0:0:
352,96,46595,1,8,0:0:0:0:
352,96,46677,1,8,0:0:0:0:
160,96,46758,1,0,0:0:0:0:
352,96,46840,1,8,0:0:0:0:
160,96,46921,1,0,0:0:0:0:
352,288,47084,1,12,0:0:0:0:
160,96,47247,1,0,0:0:0:0:
160,96,47329,1,0,0:0:0:0:
352,96,47410,1,8,0:0:0:0:
160,96,47492,1,0,0:0:0:0:
160,96,47573,1,0,0:0:0:0:
352,96,47655,1,8,0:0:0:0:
352,96,47736,1,8,0:0:0:0:
352,96,47818,1,8,0:0:0:0:
160,96,47899,1,0,0:0:0:0:
352,96,48062,1,8,0:0:0:0:
352,96,48117,1,8,0:0:0:0:
352,96,48171,1,8,0:0:0:0:
160,96,48225,1,0,0:0:0:0:
352,288,48388,1,12,0:0:0:0:
160,96,48551,1,0,0:0:0:0:
160,96,48633,1,0,0:0:0:0:
352,96,48714,1,8,0:0:0:0:
160,96,48796,1,0,0:0:0:0:
160,96,48878,1,0,0:0:0:0:
352,96,48959,1,8,0:0:0:0:
352,96,49041,1,8,0:0:0:0:
352,96,49122,1,8,0:0:0:0:
160,96,49204,1,0,0:0:0:0:
160,96,49285,1,0,0:0:0:0:
352,96,49367,1,8,0:0:0:0:
352,96,49448,1,8,0:0:0:0:
160,96,49530,1,0,0:0:0:0:
352,288,49693,1,12,0:0:0:0:
160,96,49856,1,0,0:0:0:0:
160,96,49937,1,0,0:0:0:0:
352,96,50019,1,8,0:0:0:0:
352,96,50100,1,8,0:0:0:0:
352,96,50182,1,8,0:0:0:0:
160,96,50263,1,0,0:0:0:0:
352,96,50345,1,8,0:0:0:0:
160,96,50426,1,0,0:0:0:0:
352,96,50508,1,8,0:0:0:0:
352,96,50589,1,8,0:0:0:0:
160,96,50671,1,0,0:0:0:0:
352,96,50752,1,8,0:0:0:0:
160,96,50834,1,0,0:0:0:0:
352,96,50997,1,8,0:0:0:0:
160,96,51078,1,0,0:0:0:0:
160,96,51160,1,0,0:0:0:0:
160,96,51241,1,0,0:0:0:0:
352,96,51323,1,8,0:0:0:0:
160,96,51405,1,0,0:0:0:0:
160,96,51486,1,0,0:0:0:0:
160,96,51568,1,0,0:0:0:0:
352,96,51649,1,8,0:0:0:0:
352,96,51731,1,8,0:0:0:0:
160,96,51812,1,0,0:0:0:0:
160,96,51894,1,0,0:0:0:0:
160,96,51975,1,0,0:0:0:0:
160,96,52057,1,0,0:0:0:0:
160,96,52138,1,0,0:0:0:0:
160,288,52301,1,4,0:0:0:0:
160,96,52464,1,0,0:0:0:0:
352,96,52546,1,8,0:0:0:0:
352,96,52627,1,8,0:0:0:0:
160,96,52709,1,0,0:0:0:0:
160,96,52790,1,0,0:0:0:0:
160,96,52872,1,0,0:0:0:0:
352,96,52953,1,8,0:0:0:0:
160,96,53116,1,0,0:0:0:0:
352,96,53198,1,8,0:0:0:0:
352,96,53279,1,8,0:0:0:0:
352,96,53361,1,8,0:0:0:0:
160,96,53442,1,0,0:0:0:0:
352,96,53605,1,8,0:0:0:0:
352,96,53714,1,8,0:0:0:0:
352,96,53823,1,8,0:0:0:0:
160,288,53932,1,4,0:0:0:0:
160,288,54258,1,4,0:0:0:0:
352,288,54584,1,12,0:0:0:0:
160,288,54910,1,4,0:0:0:0:
160,96,55073,1,0,0:0:0:0:
160,96,55154,1,0,0:0:0:0:
352,96,55236,1,8,0:0:0:0:
352,96,55317,1,8,0:0:0:0:
160,96,55399,1,0,0:0:0:0:
160,96,55480,1,0,0:0:0:0:
352,96,55562,1,8,0:0:0:0:
160,96,55725,1,0,0:0:0:0:
160,96,55806,1,0,0:0:0:0:
352,96,55888,1,8,0:0:0:0:
352,96,55969,1,8,0:0:0:0:
160,96,56051,1,0,0:0:0:0:
160,96,56214,1,0,0:0:0:0:
160,96,56323,1,0,0:0:0:0:
160,96,56431,1,0,0:0:0:0:
352,288,56540,1,12,0:0:0:0:
160,288,56866,1,4,0:0:0:0:
160,288,57192,1,4,0:0:0:0:
352,288,57518,1,12,0:0:0:0:
160,96,57681,1,0,0:0:0:0:
160,96,57763,1,0,0:0:0:0:
352,96,57844,1,8,0:0:0:0:
352,96,57926,1,8,0:0:0:0:
160,96,58007,1,0,0:0:0:0:
160,96,58089,1,0,0:0:0:0:
352,96,58170,1,8,0:0:0:0:
160,96,58333,1,0,0:0:0:0:
352,96,58415,1,8,0:0:0:0:
352,96,58496,1,8,0:0:0:0:
352,96,58578,1,8,0:0:0:0:
160,96,58660,1,0,0:0:0:0:
352,96,58823,1,8,0:0:0:0:
352,96,58931,1,8,0:0:0:0:
352,96,59040,1,8,0:0:0:0:
160,288,59149,1,4,0:0:0:0:
160,288,59475,1,4,0:0:0:0:
352,288,59801,1,12,0:0:0:0:
352,96,60127,1,8,0:0:0:0:
160,96,60208,1,0,0:0:0:0:
160,96,60290,1,0,0:0:0:0:
160,96,60371,1,0,0:0:0:0:
160,96,60453,1,0,0:0:0:0:
160,96,60534,1,0,0:0:0:0:
352,96,60616,1,8,0:0:0:0:
160,96,60697,1,0,0:0:0:0:
352,96,60779,1,8,0:0:0:0:
352,96,60860,1,8,0:0:0:0:
352,96,60942,1,8,0:0:0:0:
160,96,61024,1,0,0:0:0:0:
352,96,61105,1,8,0:0:0:0:
352,96,61187,1,8,0:0:0:0:
160,96,61268,1,0,0:0:0:0:
160,96,61431,1,0,0:0:0:0:
160,96,61540,1,0,0:0:0:0:
160,96,61648,1,0,0:0:0:0:
352,288,61757,1,12,0:0:0:0:
160,288,62083,1,4,0:0:0:0:
352,96,62409,1,8,0:0:0:0:
352,96,62491,1,8,0:0:0:0:
352,96,62572,1,8,0:0:0:0:
352,96,62654,1,8,0:0:0:0:
160,96,62735,1,0,0:0:0:0:
160,96,62898,1,0,0:0:0:0:
160,96,63061,1,0,0:0:0:0:
352,96,63224,1,8,0:0:0:0:
352,96,63387,1,8,0:0:0:0:
160,96,63551,1,0,0:0:0:0:
160,96,63714,1,0,0:0:0:0:
352,96,63877,1,8,0:0:0:0:
352,96,64040,1,8,0:0:0:0:
160,96,64203,1,0,0:0:0:0:
352,96,64366,1,8,0:0:0:0:
160,96,64529,1,0,0:0:0:0:
160,96,64692,1,0,0:0:0:0:
160,96,64855,1,0,0:0:0:0:
160,96,65018,1,0,0:0:0:0:
160,96,65099,1,0,0:0:0:0:
160,96,65181,1,0,0:0:0:0:
160,96,65262,1,0,0:0:0:0:
160,96,65344,1,0,0:0:0:0:
160,96,65507,1,0,0:0:0:0:
160,96,65670,1,0,0:0:0:0:
352,96,65833,1,8,0:0:0:0:
352,96,65996,1,8,0:0:0:0:
160,96,66159,1,0,0:0:0:0:
160,96,66322,1,0,0:0:0:0:
352,96,66485,1,8,0:0:0:0:
352,96,66648,1,8,0:0:0:0:
160,96,66811,1,0,0:0:0:0:
160,96,66974,1,0,0:0:0:0:
160,96,67137,1,0,0:0:0:0:
352,96,67300,1,8,0:0:0:0:
160,96,67463,1,0,0:0:0:0:
160,96,67626,1,0,0:0:0:0:
160,96,67708,1,0,0:0:0:0:
160,96,67789,1,0,0:0:0:0:
352,288,67952,1,12,0:0:0:0:
160,96,68278,1,0,0:0:0:0:
160,96,68442,1,0,0:0:0:0:
352,96,68605,1,8,0:0:0:0:
160,96,68768,1,0,0:0:0:0:
160,96,68931,1,0,0:0:0:0:
160,288,69094,1,4,0:0:0:0:
352,288,69257,1,12,0:0:0:0:
160,96,69583,1,0,0:0:0:0:
160,96,69664,1,0,0:0:0:0:
160,96,69746,1,0,0:0:0:0:
160,96,69827,1,0,0:0:0:0:
352,96,69909,1,8,0:0:0:0:
160,96,70072,1,0,0:0:0:0:
352,96,70235,1,8,0:0:0:0:
160,96,70398,1,0,0:0:0:0:
352,288,70561,1,12,0:0:0:0:
160,96,70887,1,0,0:0:0:0:
160,96,71050,1,0,0:0:0:0:
352,96,71213,1,8,0:0:0:0:
160,96,71376,1,0,0:0:0:0:
160,96,71539,1,0,0:0:0:0:
160,288,71702,1,4,0:0:0:0:
352,288,71865,1,12,0:0:0:0:
160,96,72191,1,0,0:0:0:0:
160,96,72273,1,0,0:0:0:0:
160,96,72354,1,0,0:0:0:0:
160,96,72436,1,0,0:0:0:0:
352,96,72517,1,8,0:0:0:0:
160,96,72599,1,0,0:0:0:0:
160,96,72680,1,0,0:0:0:0:
160,96,72762,1,0,0:0:0:0:
352,96,72843,1,8,0:0:0:0:
352,96,72925,1,8,0:0:0:0:
352,96,73006,1,8,0:0:0:0:
160,288,73169,1,4,0:0:0:0:
160,96,73333,1,0,0:0:0:0:
352,96,73496,1,8,0:0:0:0:
352,96,73577,1,8,0:0:0:0:
160,96,73659,1,0,0:0:0:0:
160,96,73740,1,0,0:0:0:0:
352,96,73822,1,8,0:0:0:0:
160,96,73985,1,0,0:0:0:0:
352,96,74148,1,8,0:0:0:0:
160,96,74229,1,0,0:0:0:0:
160,96,74311,1,0,0:0:0:0:
352,96,74392,1,8,0:0:0:0:
352,96,74474,1,8,0:0:0:0:
352,96,74555,1,8,0:0:0:0:
160,96,74637,1,0,0:0:0:0:
160,96,74718,1,0,0:0:0:0:
352,96,74800,1,8,0:0:0:0:
352,96,74881,1,8,0:0:0:0:
160,96,74963,1,0,0:0:0:0:
352,96,75126,1,8,0:0:0:0:
160,96,75207,1,0,0:0:0:0:
352,96,75289,1,8,0:0:0:0:
352,96,75370,1,8,0:0:0:0:
160,96,75452,1,0,0:0:0:0:
160,96,75533,1,0,0:0:0:0:
352,96,75615,1,8,0:0:0:0:
160,96,75697,1,0,0:0:0:0:
352,96,75778,1,8,0:0:0:0:
160,96,75941,1,0,0:0:0:0:
160,96,76023,1,0,0:0:0:0:
160,96,76104,1,0,0:0:0:0:
160,96,76186,1,0,0:0:0:0:
352,96,76267,1,8,0:0:0:0:
352,96,76430,1,8,0:0:0:0:
160,96,76512,1,0,0:0:0:0:
160,96,76593,1,0,0:0:0:0:
160,96,76675,1,0,0:0:0:0:
352,96,76756,1,8,0:0:0:0:
160,96,76919,1,0,0:0:0:0:
160,96,77001,1,0,0:0:0:0:
352,96,77082,1,8,0:0:0:0:
160,96,77164,1,0,0:0:0:0:
352,96,77245,1,8,0:0:0:0:
352,96,77327,1,8,0:0:0:0:
160,96,77408,1,0,0:0:0:0:
352,96,77490,1,8,0:0:0:0:
352,96,77571,1,8,0:0:0:0:
160,96,77653,1,0,0:0:0:0:
352,96,77734,1,8,0:0:0:0:
352,96,77816,1,8,0:0:0:0:
352,96,77897,1,8,0:0:0:0:
160,96,77979,1,0,0:0:0:0:
352,96,78061,1,8,0:0:0:0:
352,96,78142,1,8,0:0:0:0:
160,96,78224,1,0,0:0:0:0:
352,96,78387,1,8,0:0:0:0:
352,96,78468,1,8,0:0:0:0:
160,96,78550,1,0,0:0:0:0:
352,96,78631,1,8,0:0:0:0:
160,96,78713,1,0,0:0:0:0:
160,96,78794,1,0,0:0:0:0:
352,96,78876,1,8,0:0:0:0:
160,96,78957,1,0,0:0:0:0:
352,96,79039,1,8,0:0:0:0:
352,96,79120,1,8,0:0:0:0:
160,96,79202,1,0,0:0:0:0:
160,96,79283,1,0,0:0:0:0:
352,96,79365,1,8,0:0:0:0:
352,96,79446,1,8,0:0:0:0:
160,96,79528,1,0,0:0:0:0:
352,96,79691,1,8,0:0:0:0:
160,96,79772,1,0,0:0:0:0:
160,96,79854,1,0,0:0:0:0:
352,96,79935,1,8,0:0:0:0:
352,96,80017,1,8,0:0:0:0:
352,96,80098,1,8,0:0:0:0:
160,96,80180,1,0,0:0:0:0:
160,96,80261,1,0,0:0:0:0:
352,96,80343,1,8,0:0:0:0:
352,96,80424,1,8,0:0:0:0:
352,96,80506,1,8,0:0:0:0:
160,96,80588,1,0,0:0:0:0:
352,96,80669,1,8,0:0:0:0:
352,96,80751,1,8,0:0:0:0:
160,96,80832,1,0,0:0:0:0:
160,96,80914,1,0,0:0:0:0:
352,96,80995,1,8,0:0:0:0:
160,96,81158,1,0,0:0:0:0:
160,96,81240,1,0,0:0:0:0:
352,96,81321,1,8,0:0:0:0:
352,96,81403,1,8,0:0:0:0:
160,96,81484,1,0,0:0:0:0:
160,96,81566,1,0,0:0:0:0:
352,96,81647,1,8,0:0:0:0:
160,96,81810,1,0,0:0:0:0:
160,96,81892,1,0,0:0:0:0:
352,96,81973,1,8,0:0:0:0:
352,96,82055,1,8,0:0:0:0:
160,96,82136,1,0,0:0:0:0:
160,96,82218,1,0,0:0:0:0:
352,96,82299,1,8,0:0:0:0:
160,96,82381,1,0,0:0:0:0:
352,96,82462,1,8,0:0:0:0:
352,96,82544,1,8,0:0:0:0:
160,96,82625,1,0,0:0:0:0:
160,96,82707,1,0,0:0:0:0:
352,96,82788,1,8,0:0:0:0:
160,96,82870,1,0,0:0:0:0:
352,96,82952,1,8,0:0:0:0:
352,96,83033,1,8,0:0:0:0:
352,96,83115,1,8,0:0:0:0:
352,96,83196,1,8,0:0:0:0:
352,96,83278,1,8,0:0:0:0:
352,96,83359,1,8,0:0:0:0:
352,96,83441,1,8,0:0:0:0:
160,288,83604,1,4,0:0:0:0:
160,96,83767,1,0,0:0:0:0:
352,96,83930,1,8,0:0:0:0:
160,96,84011,1,0,0:0:0:0:
160,96,84093,1,0,0:0:0:0:
160,96,84174,1,0,0:0:0:0:
352,96,84256,1,8,0:0:0:0:
160,96,84419,1,0,0:0:0:0:
352,96,84582,1,8,0:0:0:0:
160,96,84663,1,0,0:0:0:0:
352,96,84745,1,8,0:0:0:0:
352,96,84826,1,8,0:0:0:0:
160,96,84908,1,0,0:0:0:0:
160,96,85071,1,0,0:0:0:0:
352,96,85234,1,8,0:0:0:0:
352,96,85315,1,8,0:0:0:0:
160,96,85397,1,0,0:0:0:0:
160,96,85479,1,0,0:0:0:0:
352,96,85560,1,8,0:0:0:0:
160,96,85723,1,0,0:0:0:0:
352,96,85886,1,8,0:0:0:0:
160,96,85968,1,0,0:0:0:0:
352,96,86049,1,8,0:0:0:0:
352,96,86131,1,8,0:0:0:0:
160,96,86212,1,0,0:0:0:0:
160,96,86375,1,0,0:0:0:0:
352,96,86457,1,8,0:0:0:0:
160,96,86538,1,0,0:0:0:0:
160,96,86620,1,0,0:0:0:0:
352,96,86701,1,8,0:0:0:0:
160,96,86864,1,0,0:0:0:0:
352,96,87027,1,8,0:0:0:0:
160,96,87109,1,0,0:0:0:0:
352,96,87190,1,8,0:0:0:0:
352,96,87272,1,8,0:0:0:0:
160,96,87353,1,0,0:0:0:0:
160,96,87435,1,0,0:0:0:0:
352,96,87516,1,8,0:0:0:0:
160,96,87598,1,0,0:0:0:0:
352,96,87679,1,8,0:0:0:0:
160,96,87761,1,0,0:0:0:0:
352,96,87843,1,8,0:0:0:0:
160,96,88006,1,0,0:0:0:0:
352,96,88169,1,8,0:0:0:0:
160,96,88250,1,0,0:0:0:0:
160,96,88332,1,0,0:0:0:0:
352,96,88495,1,8,0:0:0:0:
352,96,88576,1,8,0:0:0:0:
352,96,88658,1,8,0:0:0:0:
160,288,88821,1,4,0:0:0:0:
160,96,88984,1,0,0:0:0:0:
160,96,89065,1,0,0:0:0:0:
352,96,89147,1,8,0:0:0:0:
352,96,89228,1,8,0:0:0:0:
160,96,89310,1,0,0:0:0:0:
160,96,89391,1,0,0:0:0:0:
352,96,89473,1,8,0:0:0:0:
160,96,89636,1,0,0:0:0:0:
160,96,89717,1,0,0:0:0:0:
352,96,89799,1,8,0:0:0:0:
160,96,89880,1,0,0:0:0:0:
352,96,89962,1,8,0:0:0:0:
352,96,90043,1,8,0:0:0:0:
160,96,90125,1,0,0:0:0:0:
160,96,90288,1,0,0:0:0:0:
160,96,90370,1,0,0:0:0:0:
352,96,90451,1,8,0:0:0:0:
352,96,90533,1,8,0:0:0:0:
352,96,90614,1,8,0:0:0:0:
160,96,90696,1,0,0:0:0:0:
352,96,90777,1,8,0:0:0:0:
352,96,90859,1,8,0:0:0:0:
160,96,90940,1,0,0:0:0:0:
352,96,91103,1,8,0:0:0:0:
160,96,91185,1,0,0:0:0:0:
160,96,91266,1,0,0:0:0:0:
352,96,91429,1,8,0:0:0:0:
160,96,91511,1,0,0:0:0:0:
160,96,91592,1,0,0:0:0:0:
160,96,91674,1,0,0:0:0:0:
352,96,91755,1,8,0:0:0:0:
160,96,91837,1,0,0:0:0:0:
352,96,91918,1,8,0:0:0:0:
352,96,92000,1,8,0:0:0:0:
160,96,92081,1,0,0:0:0:0:
160,96,92163,1,0,0:0:0:0:
352,96,92244,1,8,0:0:0:0:
160,96,92326,1,0,0:0:0:0:
352,96,92407,1,8,0:0:0:0:
352,96,92489,1,8,0:0:0:0:
160,96,92570,1,0,0:0:0:0:
160,96,92652,1,0,0:0:0:0:
352,96,92734,1,8,0:0:0:0:
160,96,92815,1,0,0:0:0:0:
160,96,92897,1,0,0:0:0:0:
160,96,92978,1,0,0:0:0:0:
352,96,93060,1,8,0:0:0:0:
160,96,93141,1,0,0:0:0:0:
352,96,93223,1,8,0:0:0:0:
160,96,93304,1,0,0:0:0:0:
160,96,93386,1,0,0:0:0:0:
160,96,93467,1,0,0:0:0:0:
352,96,93549,1,8,0:0:0:0:
160,96,93630,1,0,0:0:0:0:
352,96,93712,1,8,0:0:0:0:
352,96,93793,1,8,0:0:0:0:
352,96,93875,1,8,0:0:0:0:
352,288,94038,1,12,0:0:0:0:
160,96,94201,1,0,0:0:0:0:
160,96,94282,1,0,0:0:0:0:
352,96,94364,1,8,0:0:0:0:
352,96,94445,1,8,0:0:0:0:
352,96,94527,1,8,0:0:0:0:
352,96,94608,1,8,0:0:0:0:
160,96,94690,1,0,0:0:0:0:
160,96,94771,1,0,0:0:0:0:
160,96,94853,1,0,0:0:0:0:
160,96,94934,1,0,0:0:0:0:
352,96,95016,1,8,0:0:0:0:
160,96,95098,1,0,0:0:0:0:
160,96,95179,1,0,0:0:0:0:
160,96,95261,1,0,0:0:0:0:
352,96,95342,1,8,0:0:0:0:
352,96,95424,1,8,0:0:0:0:
160,96,95505,1,0,0:0:0:0:
160,96,95587,1,0,0:0:0:0:
352,96,95668,1,8,0:0:0:0:
160,96,95750,1,0,0:0:0:0:
352,96,95831,1,8,0:0:0:0:
352,96,95913,1,8,0:0:0:0:
160,96,95994,1,0,0:0:0:0:
160,96,96076,1,0,0:0:0:0:
352,96,96157,1,8,0:0:0:0:
160,96,96239,1,0,0:0:0:0:
352,96,96320,1,8,0:0:0:0:
160,96,96402,1,0,0:0:0:0:
160,96,96483,1,0,0:0:0:0:
160,96,96565,1,0,0:0:0:0:
352,96,96646,1,8,0:0:0:0:
352,96,96728,1,8,0:0:0:0:
352,96,96809,1,8,0:0:0:0:
160,96,96891,1,0,0:0:0:0:
352,96,96972,1,8,0:0:0:0:
352,96,97054,1,8,0:0:0:0:
160,96,97135,1,0,0:0:0:0:
160,96,97217,1,0,0:0:0:0:
352,96,97298,1,8,0:0:0:0:
160,96,97380,1,0,0:0:0:0:
160,96,97461,1,0,0:0:0:0:
352,96,97543,1,8,0:0:0:0:
352,96,97625,1,8,0:0:0:0:
352,96,97706,1,8,0:0:0:0:
160,96,97788,1,0,0:0:0:0:
160,96,97869,1,0,0:0:0:0:
352,96,97951,1,8,0:0:0:0:
160,96,98032,1,0,0:0:0:0:
352,96,98114,1,8,0:0:0:0:
352,96,98195,1,8,0:0:0:0:
160,96,98277,1,0,0:0:0:0:
160,96,98358,1,0,0:0:0:0:
352,96,98440,1,8,0:0:0:0:
160,96,98521,1,0,0:0:0:0:
352,96,98603,1,8,0:0:0:0:
160,96,98684,1,0,0:0:0:0:
352,96,98766,1,8,0:0:0:0:
160,96,98847,1,0,0:0:0:0:
352,96,98929,1,8,0:0:0:0:
352,96,99010,1,8,0:0:0:0:
160,96,99092,1,0,0:0:0:0:
160,96,99173,1,0,0:0:0:0:
352,96,99255,1,8,0:0:0:0:
352,96,99336,1,8,0:0:0:0:
352,96,99418,1,8,0:0:0:0:
160,96,99499,1,0,0:0:0:0:
352,96,99581,1,8,0:0:0:0:
160,96,99662,1,0,0:0:0:0:
352,96,99744,1,8,0:0:0:0:
352,96,99825,1,8,0:0:0:0:
160,96,99907,1,0,0:0:0:0:
160,96,99989,1,0,0:0:0:0:
160,96,100070,1,0,0:0:0:0:
160,96,100152,1,0,0:0:0:0:
352,96,100233,1,8,0:0:0:0:
352,96,100315,1,8,0:0:0:0:
160,96,100396,1,0,0:0:0:0:
352,96,100478,1,8,0:0:0:0:
352,96,100559,1,8,0:0:0:0:
160,96,100641,1,0,0:0:0:0:
160,96,100722,1,0,0:0:0:0:
160,96,100804,1,0,0:0:0:0:
352,96,100885,1,8,0:0:0:0:
160,96,100967,1,0,0:0:0:0:
352,96,101048,1,8,0:0:0:0:
352,96,101130,1,8,0:0:0:0:
160,96,101211,1,0,0:0:0:0:
352,96,101293,1,8,0:0:0:0:
352,96,101374,1,8,0:0:0:0:
160,96,101456,1,0,0:0:0:0:
352,96,101537,1,8,0:0:0:0:
160,96,101619,1,0,0:0:0:0:
160,96,101700,1,0,0:0:0:0:
160,96,101782,1,0,0:0:0:0:
352,96,101863,1,8,0:0:0:0:
352,96,101945,1,8,0:0:0:0:
160,96,102026,1,0,0:0:0:0:
160,96,102108,1,0,0:0:0:0:
352,96,102189,1,8,0:0:0:0:
160,96,102271,1,0,0:0:0:0:
160,96,102352,1,0,0:0:0:0:
352,96,102434,1,8,0:0:0:0:
160,96,102516,1,0,0:0:0:0:
160,96,102597,1,0,0:0:0:0:
352,96,102679,1,8,0:0:0:0:
160,96,102760,1,0,0:0:0:0:
352,96,102842,1,8,0:0:0:0:
352,96,102923,1,8,0:0:0:0:
160,96,103005,1,0,0:0:0:0:
160,96,103086,1,0,0:0:0:0:
352,96,103168,1,8,0:0:0:0:
352,96,103249,1,8,0:0:0:0:
352,96,103331,1,8,0:0:0:0:
160,96,103412,1,0,0:0:0:0:
352,96,103494,1,8,0:0:0:0:
352,96,103575,1,8,0:0:0:0:
160,96,103657,1,0,0:0:0:0:
352,96,103738,1,8,0:0:0:0:
352,96,103820,1,8,0:0:0:0:
352,96,103901,1,8,0:0:0:0:
160,96,103983,1,0,0:0:0:0:
160,96,104064,1,0,0:0:0:0:
352,96,104146,1,8,0:0:0:0:
352,96,104227,1,8,0:0:0:0:
352,96,104309,1,8,0:0:0:0:
352,288,104472,1,12,0:0:0:0:
160,96,104635,1,0,0:0:0:0:
160,96,104716,1,0,0:0:0:0:
352,96,104798,1,8,0:0:0:0:
352,96,104880,1,8,0:0:0:0:
352,96,104961,1,8,0:0:0:0:
352,96,105043,1,8,0:0:0:0:
160,96,105124,1,0,0:0:0:0:
160,96,105206,1,0,0:0:0:0:
160,96,105287,1,0,0:0:0:0:
160,96,105369,1,0,0:0:0:0:
352,96,105450,1,8,0:0:0:0:
352,96,105532,1,8,0:0:0:0:
160,96,105613,1,0,0:0:0:0:
160,96,105695,1,0,0:0:0:0:
352,96,105776,1,8,0:0:0:0:
160,96,105858,1,0,0:0:0:0:
160,96,105939,1,0,0:0:0:0:
160,96,106021,1,0,0:0:0:0:
352,96,106102,1,8,0:0:0:0:
160,96,106184,1,0,0:0:0:0:
352,96,106265,1,8,0:0:0:0:
352,96,106347,1,8,0:0:0:0:
160,96,106428,1,0,0:0:0:0:
160,96,106510,1,0,0:0:0:0:
352,96,106591,1,8,0:0:0:0:
160,96,106673,1,0,0:0:0:0:
352,96,106754,1,8,0:0:0:0:
352,96,106836,1,8,0:0:0:0:
160,96,106917,1,0,0:0:0:0:
160,96,106999,1,0,0:0:0:0:
352,96,107080,1,8,0:0:0:0:
352,96,107162,1,8,0:0:0:0:
352,96,107243,1,8,0:0:0:0:
160,96,107325,1,0,0:0:0:0:
352,96,107407,1,8,0:0:0:0:
352,96,107488,1,8,0:0:0:0:
160,96,107570,1,0,0:0:0:0:
160,96,107651,1,0,0:0:0:0:
352,96,107733,1,8,0:0:0:0:
160,96,107814,1,0,0:0:0:0:
160,96,107896,1,0,0:0:0:0:
352,96,107977,1,8,0:0:0:0:
352,96,108059,1,8,0:0:0:0:
352,96,108140,1,8,0:0:0:0:
160,96,108222,1,0,0:0:0:0:
160,96,108303,1,0,0:0:0:0:
352,96,108385,1,8,0:0:0:0:
352,96,108466,1,8,0:0:0:0:
160,96,108548,1,0,0:0:0:0:
160,96,108629,1,0,0:0:0:0:
352,96,108711,1,8,0:0:0:0:
352,96,108792,1,8,0:0:0:0:
352,96,108874,1,8,0:0:0:0:
352,96,108955,1,8,0:0:0:0:
160,96,109037,1,0,0:0:0:0:
352,96,109118,1,8,0:0:0:0:
160,96,109200,1,0,0:0:0:0:
160,96,109281,1,0,0:0:0:0:
352,96,109363,1,8,0:0:0:0:
160,96,109444,1,0,0:0:0:0:
352,96,109526,1,8,0:0:0:0:
160,96,109607,1,0,0:0:0:0:
352,96,109689,1,8,0:0:0:0:
352,96,109771,1,8,0:0:0:0:
160,96,109852,1,0,0:0:0:0:
160,96,109934,1,0,0:0:0:0:
352,96,110015,1,8,0:0:0:0:
160,96,110097,1,0,0:0:0:0:
352,96,110178,1,8,0:0:0:0:
352,96,110260,1,8,0:0:0:0:
352,96,110341,1,8,0:0:0:0:
160,96,110423,1,0,0:0:0:0:
160,96,110504,1,0,0:0:0:0:
160,96,110586,1,0,0:0:0:0:
352,96,110667,1,8,0:0:0:0:
352,96,110749,1,8,0:0:0:0:
160,96,110830,1,0,0:0:0:0:
352,96,110912,1,8,0:0:0:0:
352,96,110993,1,8,0:0:0:0:
160,96,111075,1,0,0:0:0:0:
160,96,111156,1,0,0:0:0:0:
160,96,111238,1,0,0:0:0:0:
352,96,111319,1,8,0:0:0:0:
160,96,111401,1,0,0:0:0:0:
160,96,111482,1,0,0:0:0:0:
352,96,111564,1,8,0:0:0:0:
352,96,111645,1,8,0:0:0:0:
160,96,111727,1,0,0:0:0:0:
352,96,111808,1,8,0:0:0:0:
160,96,111890,1,0,0:0:0:0:
352,96,111971,1,8,0:0:0:0:
160,96,112053,1,0,0:0:0:0:
160,96,112134,1,0,0:0:0:0:
160,96,112216,1,0,0:0:0:0:
352,96,112298,1,8,0:0:0:0:
352,96,112379,1,8,0:0:0:0:
352,96,112461,1,8,0:0:0:0:
160,96,112542,1,0,0:0:0:0:
352,96,112624,1,8,0:0:0:0:
160,96,112705,1,0,0:0:0:0:
352,96,112787,1,8,0:0:0:0:
352,96,112868,1,8,0:0:0:0:
160,96,112950,1,0,0:0:0:0:
352,96,113031,1,8,0:0:0:0:
352,96,113113,1,8,0:0:0:0:
160,96,113194,1,0,0:0:0:0:
352,96,113276,1,8,0:0:0:0:
160,96,113357,1,0,0:0:0:0:
160,96,113439,1,0,0:0:0:0:
160,96,113520,1,0,0:0:0:0:
352,96,113602,1,8,0:0:0:0:
352,96,113683,1,8,0:0:0:0:
160,96,113765,1,0,0:0:0:0:
352,96,113846,1,8,0:0:0:0:
160,96,113928,1,0,0:0:0:0:
160,96,114009,1,0,0:0:0:0:
352,96,114091,1,8,0:0:0:0:
352,96,114172,1,8,0:0:0:0:
160,96,114254,1,0,0:0:0:0:
352,96,114335,1,8,0:0:0:0:
160,96,114417,1,0,0:0:0:0:
160,96,114498,1,0,0:0:0:0:
352,96,114580,1,8,0:0:0:0:
352,96,114662,1,8,0:0:0:0:
352,96,114743,1,8,0:0:0:0:
160,288,114906,1,4,0:0:0:0:
160,96,115069,1,0,0:0:0:0:
160,96,115151,1,0,0:0:0:0:
352,96,115232,1,8,0:0:0:0:
160,96,115395,1,0,0:0:0:0:
160,96,115558,1,0,0:0:0:0:
160,96,115721,1,0,0:0:0:0:
352,96,115884,1,8,0:0:0:0:
160,96,116047,1,0,0:0:0:0:
160,96,116210,1,0,0:0:0:0:
352,96,116292,1,8,0:0:0:0:
160,96,116373,1,0,0:0:0:0:
160,96,116455,1,0,0:0:0:0:
352,96,116536,1,8,0:0:0:0:
352,96,116699,1,8,0:0:0:0:
160,96,116862,1,0,0:0:0:0:
160,96,117026,1,0,0:0:0:0:
160,96,117107,1,0,0:0:0:0:
352,96,117189,1,8,0:0:0:0:
160,96,117352,1,0,0:0:0:0:
352,96,117515,1,8,0:0:0:0:
352,96,117596,1,8,0:0:0:0:
352,96,117678,1,8,0:0:0:0:
160,96,117759,1,0,0:0:0:0:
352,96,117841,1,8,0:0:0:0:
160,96,118004,1,0,0:0:0:0:
160,96,118167,1,0,0:0:0:0:
160,96,118330,1,0,0:0:0:0:
160,96,118411,1,0,0:0:0:0:
352,96,118493,1,8,0:0:0:0:
160,96,118656,1,0,0:0:0:0:
352,96,118819,1,8,0:0:0:0:
352,96,118900,1,8,0:0:0:0:
352,96,118982,1,8,0:0:0:0:
160,96,119063,1,0,0:0:0:0:
352,96,119145,1,8,0:0:0:0:
352,96,119308,1,8,0:0:0:0:
352,96,119471,1,8,0:0:0:0:
160,96,119634,1,0,0:0:0:0:
352,96,119797,1,8,0:0:0:0:
160,96,119960,1,0,0:0:0:0:
352,288,120123,1,12,0:0:0:0:
160,96,120368,1,0,0:0:0:0:
352,96,120449,1,8,0:0:0:0:
352,96,120531,1,8,0:0:0:0:
160,96,120612,1,0,0:0:0:0:
352,96,120775,1,8,0:0:0:0:
352,96,121020,1,8,0:0:0:0:
160,96,121264,1,0,0:0:0:0:
352,96,121427,1,8,0:0:0:0:
160,96,121672,1,0,0:0:0:0:
352,96,121753,1,8,0:0:0:0:
160,96,121835,1,0,0:0:0:0:
160,96,121917,1,0,0:0:0:0:
352,96,122080,1,8,0:0:0:0:
160,96,122324,1,0,0:0:0:0:
160,96,122569,1,0,0:0:0:0:
160,288,122732,1,4,0:0:0:0:
160,96,122895,1,0,0:0:0:0:
160,96,122976,1,0,0:0:0:0:
352,96,123058,1,8,0:0:0:0:
160,96,123221,1,0,0:0:0:0:
352,96,123384,1,8,0:0:0:0:
352,96,123547,1,8,0:0:0:0:
352,96,123710,1,8,0:0:0:0:
352,96,123873,1,8,0:0:0:0:
352,96,124036,1,8,0:0:0:0:
352,96,124117,1,8,0:0:0:0:
160,96,124199,1,0,0:0:0:0:
160,96,124280,1,0,0:0:0:0:
352,96,124362,1,8,0:0:0:0:
160,96,124525,1,0,0:0:0:0:
352,96,124688,1,8,0:0:0:0:
352,96,124770,1,8,0:0:0:0:
160,96,124851,1,0,0:0:0:0:
352,96,124933,1,8,0:0:0:0:
160,96,125014,1,0,0:0:0:0:
160,96,125096,1,0,0:0:0:0:
352,96,125177,1,8,0:0:0:0:
160,96,125259,1,0,0:0:0:0:
352,96,125340,1,8,0:0:0:0:
160,96,125503,1,0,0:0:0:0:
160,96,125585,1,0,0:0:0:0:
352,96,125666,1,8,0:0:0:0:
160,96,125748,1,0,0:0:0:0:
352,96,125829,1,8,0:0:0:0:
160,96,125992,1,0,0:0:0:0:
160,96,126155,1,0,0:0:0:0:
160,96,126237,1,0,0:0:0:0:
352,96,126318,1,8,0:0:0:0:
352,96,126400,1,8,0:0:0:0:
352,96,126481,1,8,0:0:0:0:
160,96,126644,1,0,0:0:0:0:
160,96,126808,1,0,0:0:0:0:
160,96,126889,1,0,0:0:0:0:
352,96,126971,1,8,0:0:0:0:
160,96,127052,1,0,0:0:0:0:
352,96,127134,1,8,0:0:0:0:
160,96,127297,1,0,0:0:0:0:
352,288,127460,1,12,0:0:0:0:
352,288,127786,1,12,0:0:0:0:
160,288,127949,1,4,0:0:0:0:
160,96,128112,1,0,0:0:0:0:
160,96,128193,1,0,0:0:0:0:
352,96,128275,1,8,0:0:0:0:
160,96,128356,1,0,0:0:0:0:
352,96,128438,1,8,0:0:0:0:
160,96,128601,1,0,0:0:0:0:
160,96,128764,1,0,0:0:0:0:
160,96,128845,1,0,0:0:0:0:
352,96,128927,1,8,0:0:0:0:
352,96,129008,1,8,0:0:0:0:
352,96,129090,1,8,0:0:0:0:
160,96,129253,1,0,0:0:0:0:
160,96,129416,1,0,0:0:0:0:
160,96,129498,1,0,0:0:0:0:
352,96,129579,1,8,0:0:0:0:
160,96,129661,1,0,0:0:0:0:
352,96,129742,1,8,0:0:0:0:
352,96,129824,1,8,0:0:0:0:
160,96,129905,1,0,0:0:0:0:
352,288,130068,1,12,0:0:0:0:
352,288,130394,1,12,0:0:0:0:
160,288,130557,1,4,0:0:0:0:
160,96,130720,1,0,0:0:0:0:
160,96,130802,1,0,0:0:0:0:
352,96,130883,1,8,0:0:0:0:
160,96,130965,1,0,0:0:0:0:
352,96,131046,1,8,0:0:0:0:
160,96,131209,1,0,0:0:0:0:
352,96,131291,1,8,0:0:0:0:
160,96,131372,1,0,0:0:0:0:
160,96,131454,1,0,0:0:0:0:
352,96,131535,1,8,0:0:0:0:
352,96,131617,1,8,0:0:0:0:
352,96,131699,1,8,0:0:0:0:
160,96,131862,1,0,0:0:0:0:
352,96,131943,1,8,0:0:0:0:
160,96,132025,1,0,0:0:0:0:
160,96,132106,1,0,0:0:0:0:
352,96,132188,1,8,0:0:0:0:
160,96,132269,1,0,0:0:0:0:
352,96,132351,1,8,0:0:0:0:
352,96,132432,1,8,0:0:0:0:
160,96,132514,1,0,0:0:0:0:
352,288,132677,1,12,0:0:0:0:
352,288,133003,1,12,0:0:0:0:
160,288,133166,1,4,0:0:0:0:
160,96,133329,1,0,0:0:0:0:
160,96,133410,1,0,0:0:0:0:
352,96,133492,1,8,0:0:0:0:
160,96,133573,1,0,0:0:0:0:
352,96,133655,1,8,0:0:0:0:
160,96,133736,1,0,0:0:0:0:
352,96,133818,1,8,0:0:0:0:
352,96,133899,1,8,0:0:0:0:
160,96,133981,1,0,0:0:0:0:
160,96,134063,1,0,0:0:0:0:
352,96,134144,1,8,0:0:0:0:
352,96,134226,1,8,0:0:0:0:
352,96,134307,1,8,0:0:0:0:
160,96,134389,1,0,0:0:0:0:
352,96,134470,1,8,0:0:0:0:
352,96,134552,1,8,0:0:0:0:
160,96,134633,1,0,0:0:0:0:
160,96,134715,1,0,0:0:0:0:
352,96,134796,1,8,0:0:0:0:
160,96,134878,1,0,0:0:0:0:
352,96,134959,1,8,0:0:0:0:
352,96,135041,1,8,0:0:0:0:
160,96,135122,1,0,0:0:0:0:
160,96,135204,1,0,0:0:0:0:
352,96,135285,1,8,0:0:0:0:
352,96,135367,1,8,0:0:0:0:
352,96,135448,1,8,0:0:0:0:
160,96,135530,1,0,0:0:0:0:
352,96,135611,1,8,0:0:0:0:
352,288,135783,1,12,0:0:0:0:
160,96,135945,1,0,0:0:0:0:
352,96,136108,1,8,0:0:0:0:
160,96,136190,1,0,0:0:0:0:
352,96,136271,1,8,0:0:0:0:
352,96,136353,1,8,0:0:0:0:
160,96,136434,1,0,0:0:0:0:
352,96,136516,1,8,0:0:0:0:
160,96,136598,1,0,0:0:0:0:
352,96,136761,1,8,0:0:0:0:
352,96,136842,1,8,0:0:0:0:
352,96,136924,1,8,0:0:0:0:
160,96,137005,1,0,0:0:0:0:
352,96,137087,1,8,0:0:0:0:
352,96,137168,1,8,0:0:0:0:
160,96,137250,1,0,0:0:0:0:
352,96,137413,1,8,0:0:0:0:
160,96,137494,1,0,0:0:0:0:
352,96,137576,1,8,0:0:0:0:
352,96,137657,1,8,0:0:0:0:
160,96,137739,1,0,0:0:0:0:
352,96,137820,1,8,0:0:0:0:
160,96,137902,1,0,0:0:0:0:
352,96,138065,1,8,0:0:0:0:
160,96,138146,1,0,0:0:0:0:
160,96,138228,1,0,0:0:0:0:
352,96,138391,1,8,0:0:0:0:
160,96,138472,1,0,0:0:0:0:
160,96,138554,1,0,0:0:0:0:
352,96,138635,1,8,0:0:0:0:
352,96,138717,1,8,0:0:0:0:
352,96,138798,1,8,0:0:0:0:
160,96,138880,1,0,0:0:0:0:
160,96,138962,1,0,0:0:0:0:
352,96,139043,1,8,0:0:0:0:
160,96,139125,1,0,0:0:0:0:
352,96,139206,1,8,0:0:0:0:
352,96,139288,1,8,0:0:0:0:
160,96,139369,1,0,0:0:0:0:
352,96,139451,1,8,0:0:0:0:
160,96,139532,1,0,0:0:0:0:
160,96,139614,1,0,0:0:0:0:
352,96,139695,1,8,0:0:0:0:
352,288,139858,1,12,0:0:0:0:
352,288,140184,1,12,0:0:0:0:
352,288,140510,1,12,0:0:0:0:
160,96,140673,1,0,0:0:0:0:
160,96,140755,1,0,0:0:0:0:
160,96,140836,1,0,0:0:0:0:
160,96,140918,1,0,0:0:0:0:
352,96,140999,1,8,0:0:0:0:
160,96,141162,1,0,0:0:0:0:
352,96,141325,1,8,0:0:0:0:
352,96,141407,1,8,0:0:0:0:
160,96,141489,1,0,0:0:0:0:
352,96,141570,1,8,0:0:0:0:
352,96,141652,1,8,0:0:0:0:
160,96,141733,1,0,0:0:0:0:
352,96,141815,1,8,0:0:0:0:
160,96,141978,1,0,0:0:0:0:
352,96,142059,1,8,0:0:0:0:
160,96,142141,1,0,0:0:0:0:
160,96,142222,1,0,0:0:0:0:
352,96,142304,1,8,0:0:0:0:
160,96,142385,1,0,0:0:0:0:
352,96,142467,1,8,0:0:0:0:
352,96,142548,1,8,0:0:0:0:
160,96,142630,1,0,0:0:0:0:
160,96,142793,1,0,0:0:0:0:
352,96,142956,1,8,0:0:0:0:
160,96,143037,1,0,0:0:0:0:
352,96,143119,1,8,0:0:0:0:
160,96,143200,1,0,0:0:0:0:
352,96,143282,1,8,0:0:0:0:
352,96,143363,1,8,0:0:0:0:
160,96,143445,1,0,0:0:0:0:
352,96,143526,1,8,0:0:0:0:
160,96,143608,1,0,0:0:0:0:
160,96,143771,1,0,0:0:0:0:
352,96,143934,1,8,0:0:0:0:
160,96,144016,1,0,0:0:0:0:
160,96,144097,1,0,0:0:0:0:
352,96,144179,1,8,0:0:0:0:
352,96,144260,1,8,0:0:0:0:
352,96,144342,1,8,0:0:0:0:
160,96,144423,1,0,0:0:0:0:
160,96,144505,1,0,0:0:0:0:
352,96,144586,1,8,0:0:0:0:
352,96,144668,1,8,0:0:0:0:
160,96,144749,1,0,0:0:0:0:
160,96,144831,1,0,0:0:0:0:
352,96,144912,1,8,0:0:0:0:
160,288,145075,1,4,0:0:0:0:
160,288,145401,1,4,0:0:0:0:
352,288,145727,1,12,0:0:0:0:
352,96,145890,1,8,0:0:0:0:
352,96,145972,1,8,0:0:0:0:
352,96,146053,1,8,0:0:0:0:
160,288,146216,1,4,0:0:0:0:
160,96,146380,1,0,0:0:0:0:
160,96,146461,1,0,0:0:0:0:
352,96,146543,1,8,0:0:0:0:
160,96,146706,1,0,0:0:0:0:
160,96,146787,1,0,0:0:0:0:
160,96,146869,1,0,0:0:0:0:
160,96,147032,1,0,0:0:0:0:
160,96,147113,1,0,0:0:0:0:
352,96,147195,1,8,0:0:0:0:
352,96,147358,1,8,0:0:0:0:
352,96,147439,1,8,0:0:0:0:
160,96,147521,1,0,0:0:0:0:
160,96,147684,1,0,0:0:0:0:
160,96,147765,1,0,0:0:0:0:
160,96,147847,1,0,0:0:0:0:
160,96,147928,1,0,0:0:0:0:
352,96,148010,1,8,0:0:0:0:
160,96,148173,1,0,0:0:0:0:
352,96,148254,1,8,0:0:0:0:
160,96,148336,1,0,0:0:0:0:
160,96,148417,1,0,0:0:0:0:
352,96,148499,1,8,0:0:0:0:
160,96,148662,1,0,0:0:0:0:
352,96,148825,1,8,0:0:0:0:
352,96,148907,1,8,0:0:0:0:
352,96,148988,1,8,0:0:0:0:
352,96,149070,1,8,0:0:0:0:
160,96,149151,1,0,0:0:0:0:
160,96,149314,1,0,0:0:0:0:
160,96,149396,1,0,0:0:0:0:
352,96,149477,1,8,0:0:0:0:
352,96,149559,1,8,0:0:0:0:
160,96,149640,1,0,0:0:0:0:
160,96,149803,1,0,0:0:0:0:
160,96,149885,1,0,0:0:0:0:
352,96,149966,1,8,0:0:0:0:
352,288,150129,1,12,0:0:0:0:
160,96,150292,1,0,0:0:0:0:
352,96,150374,1,8,0:0:0:0:
352,96,150455,1,8,0:0:0:0:
160,96,150537,1,0,0:0:0:0:
352,96,150618,1,8,0:0:0:0:
160,96,150781,1,0,0:0:0:0:
160,96,150863,1,0,0:0:0:0:
352,96,150944,1,8,0:0:0:0:
160,96,151026,1,0,0:0:0:0:
352,96,151108,1,8,0:0:0:0:
352,96,151189,1,8,0:0:0:0:
352,96,151271,1,8,0:0:0:0:
160,288,151434,1,4,0:0:0:0:
160,96,151597,1,0,0:0:0:0:
160,96,151678,1,0,0:0:0:0:
352,96,151760,1,8,0:0:0:0:
160,96,151923,1,0,0:0:0:0:
352,96,152086,1,8,0:0:0:0:
352,96,152167,1,8,0:0:0:0:
160,96,152249,1,0,0:0:0:0:
352,96,152412,1,8,0:0:0:0:
160,96,152575,1,0,0:0:0:0:
160,96,152656,1,0,0:0:0:0:
352,96,152738,1,8,0:0:0:0:
352,96,152819,1,8,0:0:0:0:
160,96,152901,1,0,0:0:0:0:
352,96,153064,1,8,0:0:0:0:
160,96,153227,1,0,0:0:0:0:
352,96,153308,1,8,0:0:0:0:
352,96,153390,1,8,0:0:0:0:
352,96,153471,1,8,0:0:0:0:
160,96,153553,1,0,0:0:0:0:
160,96,153635,1,0,0:0:0:0:
352,96,153716,1,8,0:0:0:0:
160,96,153879,1,0,0:0:0:0:
352,288,154042,1,12,0:0:0:0:
160,96,154205,1,0,0:0:0:0:
352,96,154287,1,8,0:0:0:0:
352,96,154368,1,8,0:0:0:0:
160,96,154450,1,0,0:0:0:0:
352,96,154531,1,8,0:0:0:0:
160,96,154613,1,0,0:0:0:0:
352,96,154694,1,8,0:0:0:0:
352,96,154776,1,8,0:0:0:0:
352,96,154857,1,8,0:0:0:0:
160,96,154939,1,0,0:0:0:0:
352,96,155020,1,8,0:0:0:0:
352,96,155102,1,8,0:0:0:0:
160,96,155183,1,0,0:0:0:0:
352,288,155346,1,12,0:0:0:0:
160,96,155509,1,0,0:0:0:0:
352,96,155591,1,8,0:0:0:0:
160,96,155672,1,0,0:0:0:0:
352,96,155835,1,8,0:0:0:0:
352,96,155917,1,8,0:0:0:0:
160,96,155999,1,0,0:0:0:0:
352,96,156080,1,8,0:0:0:0:
160,96,156162,1,0,0:0:0:0:
160,96,156243,1,0,0:0:0:0:
352,96,156325,1,8,0:0:0:0:
352,96,156406,1,8,0:0:0:0:
160,96,156488,1,0,0:0:0:0:
352,96,156651,1,8,0:0:0:0:
160,96,156732,1,0,0:0:0:0:
160,96,156814,1,0,0:0:0:0:
160,96,156895,1,0,0:0:0:0:
160,96,156977,1,0,0:0:0:0:
352,96,157140,1,8,0:0:0:0:
160,96,157303,1,0,0:0:0:0:
160,96,157466,1,0,0:0:0:0:
352,96,157629,1,8,0:0:0:0:
352,96,157710,1,8,0:0:0:0:
160,96,157792,1,0,0:0:0:0:
160,96,157873,1,0,0:0:0:0:
160,96,157955,1,0,0:0:0:0:
352,96,158118,1,8,0:0:0:0:
160,96,158281,1,0,0:0:0:0:
160,96,158444,1,0,0:0:0:0:
352,288,158607,1,12,0:0:0:0:
160,96,158770,1,0,0:0:0:0:
352,288,158933,1,12,0:0:0:0:
160,96,159096,1,0,0:0:0:0:
160,96,159178,1,0,0:0:0:0:
352,96,159259,1,8,0:0:0:0:
160,96,159422,1,0,0:0:0:0:
160,96,159585,1,0,0:0:0:0:
352,96,159748,1,8,0:0:0:0:
352,96,159911,1,8,0:0:0:0:
160,96,160074,1,0,0:0:0:0:
352,96,160237,1,8,0:0:0:0:
160,96,160400,1,0,0:0:0:0:
160,96,160563,1,0,0:0:0:0:
352,96,160726,1,8,0:0:0:0:
160,96,160890,1,0,0:0:0:0:
160,96,161053,1,0,0:0:0:0:
352,96,161216,1,8,0:0:0:0:
160,96,161297,1,0,0:0:0:0:
160,96,161379,1,0,0:0:0:0:
160,96,161460,1,0,0:0:0:0:
352,96,161542,1,8,0:0:0:0:
352,96,161623,1,8,0:0:0:0:
160,96,161705,1,0,0:0:0:0:
160,96,161786,1,0,0:0:0:0:
352,96,161868,1,8,0:0:0:0:
160,96,162031,1,0,0:0:0:0:
160,96,162194,1,0,0:0:0:0:
352,96,162357,1,8,0:0:0:0:
352,96,162520,1,8,0:0:0:0:
160,96,162683,1,0,0:0:0:0:
352,96,162846,1,8,0:0:0:0:
160,96,163009,1,0,0:0:0:0:
160,96,163172,1,0,0:0:0:0:
160,96,163335,1,0,0:0:0:0:
352,96,163498,1,8,0:0:0:0:
160,96,163661,1,0,0:0:0:0:
352,96,163824,1,8,0:0:0:0:
352,96,163906,1,8,0:0:0:0:
352,96,163987,1,8,0:0:0:0:
160,96,164069,1,0,0:0:0:0:
352,96,164150,1,8,0:0:0:0:
352,96,164232,1,8,0:0:0:0:
160,96,164313,1,0,0:0:0:0:
160,96,164395,1,0,0:0:0:0:
352,96,164476,1,8,0:0:0:0:
160,96,164639,1,0,0:0:0:0:
160,96,164802,1,0,0:0:0:0:
160,96,164965,1,0,0:0:0:0:
352,96,165128,1,8,0:0:0:0:
160,96,165291,1,0,0:0:0:0:
352,96,165454,1,8,0:0:0:0:
352,96,165617,1,8,0:0:0:0:
160,96,165781,1,0,0:0:0:0:
160,96,165944,1,0,0:0:0:0:
352,96,166107,1,8,0:0:0:0:
352,96,166188,1,8,0:0:0:0:
352,96,166270,1,8,0:0:0:0:
352,96,166351,1,8,0:0:0:0:
352,96,166433,1,8,0:0:0:0:
352,96,166514,1,8,0:0:0:0:
352,96,166596,1,8,0:0:0:0:
352,96,166677,1,8,0:0:0:0:
352,96,166759,1,8,0:0:0:0:
352,96,166840,1,8,0:0:0:0:
352,96,166922,1,8,0:0:0:0:
160,288,167085,1,4,0:0:0:0:
160,96,167248,1,0,0:0:0:0:
352,96,167411,1,8,0:0:0:0:
352,96,167492,1,8,0:0:0:0:
160,96,167574,1,0,0:0:0:0:
160,96,167655,1,0,0:0:0:0:
352,96,167737,1,8,0:0:0:0:
160,96,167900,1,0,0:0:0:0:
352,96,168063,1,8,0:0:0:0:
160,96,168144,1,0,0:0:0:0:
160,96,168226,1,0,0:0:0:0:
352,96,168308,1,8,0:0:0:0:
352,96,168389,1,8,0:0:0:0:
352,96,168471,1,8,0:0:0:0:
160,96,168552,1,0,0:0:0:0:
160,96,168634,1,0,0:0:0:0:
352,96,168715,1,8,0:0:0:0:
352,96,168797,1,8,0:0:0:0:
160,96,168878,1,0,0:0:0:0:
352,96,169041,1,8,0:0:0:0:
160,96,169123,1,0,0:0:0:0:
352,96,169204,1,8,0:0:0:0:
352,96,169286,1,8,0:0:0:0:
160,96,169367,1,0,0:0:0:0:
160,96,169449,1,0,0:0:0:0:
352,96,169530,1,8,0:0:0:0:
160,96,169612,1,0,0:0:0:0:
352,96,169693,1,8,0:0:0:0:
160,96,169856,1,0,0:0:0:0:
160,96,169938,1,0,0:0:0:0:
160,96,170019,1,0,0:0:0:0:
160,96,170101,1,0,0:0:0:0:
352,96,170182,1,8,0:0:0:0:
352,96,170345,1,8,0:0:0:0:
160,96,170427,1,0,0:0:0:0:
160,96,170508,1,0,0:0:0:0:
160,96,170590,1,0,0:0:0:0:
352,96,170672,1,8,0:0:0:0:
160,96,170835,1,0,0:0:0:0:
160,96,170916,1,0,0:0:0:0:
352,96,170998,1,8,0:0:0:0:
160,96,171079,1,0,0:0:0:0:
352,96,171161,1,8,0:0:0:0:
352,96,171242,1,8,0:0:0:0:
160,96,171324,1,0,0:0:0:0:
352,96,171405,1,8,0:0:0:0:
352,96,171487,1,8,0:0:0:0:
160,96,171568,1,0,0:0:0:0:
352,96,171650,1,8,0:0:0:0:
352,96,171731,1,8,0:0:0:0:
352,96,171813,1,8,0:0:0:0:
160,96,171894,1,0,0:0:0:0:
352,96,171976,1,8,0:0:0:0:
352,96,172057,1,8,0:0:0:0:
160,96,172139,1,0,0:0:0:0:
352,96,172302,1,8,0:0:0:0:
352,96,172383,1,8,0:0:0:0:
160,96,172465,1,0,0:0:0:0:
352,96,172546,1,8,0:0:0:0:
160,96,172628,1,0,0:0:0:0:
160,96,172709,1,0,0:0:0:0:
352,96,172791,1,8,0:0:0:0:
160,96,172872,1,0,0:0:0:0:
352,96,172954,1,8,0:0:0:0:
352,96,173036,1,8,0:0:0:0:
160,96,173117,1,0,0:0:0:0:
160,96,173199,1,0,0:0:0:0:
352,96,173280,1,8,0:0:0:0:
160,96,173362,1,0,0:0:0:0:
160,96,173443,1,0,0:0:0:0:
352,96,173606,1,8,0:0:0:0:
160,96,173688,1,0,0:0:0:0:
160,96,173769,1,0,0:0:0:0:
352,96,173851,1,8,0:0:0:0:
352,96,173932,1,8,0:0:0:0:
352,96,174014,1,8,0:0:0:0:
160,96,174095,1,0,0:0:0:0:
160,96,174177,1,0,0:0:0:0:
352,96,174258,1,8,0:0:0:0:
352,96,174340,1,8,0:0:0:0:
352,96,174421,1,8,0:0:0:0:
160,96,174503,1,0,0:0:0:0:
352,96,174584,1,8,0:0:0:0:
352,96,174666,1,8,0:0:0:0:
160,96,174747,1,0,0:0:0:0:
160,96,174829,1,0,0:0:0:0:
352,96,174910,1,8,0:0:0:0:
160,96,175073,1,0,0:0:0:0:
352,96,175155,1,8,0:0:0:0:
352,96,175236,1,8,0:0:0:0:
160,96,175318,1,0,0:0:0:0:
160,96,175399,1,0,0:0:0:0:
160,96,175481,1,0,0:0:0:0:
352,96,175563,1,8,0:0:0:0:
160,96,175726,1,0,0:0:0:0:
352,96,175807,1,8,0:0:0:0:
352,96,175889,1,8,0:0:0:0:
352,96,175970,1,8,0:0:0:0:
160,96,176052,1,0,0:0:0:0:
160,96,176133,1,0,0:0:0:0:
352,96,176215,1,8,0:0:0:0:
160,96,176296,1,0,0:0:0:0:
352,96,176378,1,8,0:0:0:0:
352,96,176459,1,8,0:0:0:0:
160,96,176541,1,0,0:0:0:0:
352,96,176622,1,8,0:0:0:0:
160,96,176704,1,0,0:0:0:0:
160,96,176785,1,0,0:0:0:0:
352,96,176867,1,8,0:0:0:0:
352,96,176948,1,8,0:0:0:0:
352,96,177030,1,8,0:0:0:0:
352,96,177111,1,8,0:0:0:0:
160,96,177193,1,0,0:0:0:0:
352,96,177274,1,8,0:0:0:0:
160,96,177356,1,0,0:0:0:0:
160,288,177519,1,4,0:0:0:0:
160,96,177682,1,0,0:0:0:0:
352,96,177845,1,8,0:0:0:0:
160,96,177927,1,0,0:0:0:0:
160,96,178008,1,0,0:0:0:0:
160,96,178090,1,0,0:0:0:0:
352,96,178171,1,8,0:0:0:0:
160,96,178334,1,0,0:0:0:0:
352,96,178497,1,8,0:0:0:0:
352,96,178579,1,8,0:0:0:0:
352,96,178660,1,8,0:0:0:0:
352,96,178742,1,8,0:0:0:0:
160,96,178823,1,0,0:0:0:0:
160,96,178986,1,0,0:0:0:0:
352,96,179149,1,8,0:0:0:0:
352,96,179231,1,8,0:0:0:0:
160,96,179312,1,0,0:0:0:0:
352,96,179394,1,8,0:0:0:0:
160,96,179475,1,0,0:0:0:0:
160,96,179638,1,0,0:0:0:0:
352,96,179801,1,8,0:0:0:0:
160,96,179883,1,0,0:0:0:0:
352,96,179964,1,8,0:0:0:0:
352,96,180046,1,8,0:0:0:0:
160,96,180127,1,0,0:0:0:0:
160,96,180290,1,0,0:0:0:0:
352,96,180372,1,8,0:0:0:0:
160,96,180454,1,0,0:0:0:0:
160,96,180535,1,0,0:0:0:0:
352,96,180617,1,8,0:0:0:0:
160,96,180780,1,0,0:0:0:0:
352,96,180943,1,8,0:0:0:0:
160,96,181024,1,0,0:0:0:0:
352,96,181106,1,8,0:0:0:0:
352,96,181187,1,8,0:0:0:0:
160,96,181269,1,0,0:0:0:0:
160,96,181350,1,0,0:0:0:0:
352,96,181432,1,8,0:0:0:0:
160,96,181513,1,0,0:0:0:0:
352,96,181595,1,8,0:0:0:0:
160,96,181676,1,0,0:0:0:0:
352,96,181758,1,8,0:0:0:0:
160,96,181921,1,0,0:0:0:0:
352,96,182084,1,8,0:0:0:0:
160,96,182165,1,0,0:0:0:0:
352,96,182247,1,8,0:0:0:0:
352,96,182328,1,8,0:0:0:0:
160,96,182410,1,0,0:0:0:0:
160,96,182491,1,0,0:0:0:0:
160,96,182573,1,0,0:0:0:0:
160,288,182736,1,4,0:0:0:0:
160,96,182899,1,0,0:0:0:0:
160,96,182980,1,0,0:0:0:0:
352,96,183062,1,8,0:0:0:0:
352,96,183143,1,8,0:0:0:0:
160,96,183225,1,0,0:0:0:0:
160,96,183306,1,0,0:0:0:0:
352,96,183388,1,8,0:0:0:0:
160,96,183551,1,0,0:0:0:0:
160,96,183632,1,0,0:0:0:0:
352,96,183714,1,8,0:0:0:0:
160,96,183795,1,0,0:0:0:0:
352,96,183877,1,8,0:0:0:0:
352,96,183958,1,8,0:0:0:0:
160,96,184040,1,0,0:0:0:0:
160,96,184203,1,0,0:0:0:0:
160,96,184285,1,0,0:0:0:0:
352,96,184366,1,8,0:0:0:0:
352,96,184448,1,8,0:0:0:0:
352,96,184529,1,8,0:0:0:0:
160,96,184611,1,0,0:0:0:0:
352,96,184692,1,8,0:0:0:0:
352,96,184774,1,8,0:0:0:0:
160,96,184855,1,0,0:0:0:0:
352,96,185018,1,8,0:0:0:0:
160,96,185100,1,0,0:0:0:0:
160,96,185181,1,0,0:0:0:0:
352,96,185345,1,8,0:0:0:0:
160,96,185426,1,0,0:0:0:0:
160,96,185508,1,0,0:0:0:0:
160,96,185589,1,0,0:0:0:0:
352,96,185671,1,8,0:0:0:0:
160,96,185752,1,0,0:0:0:0:
352,96,185834,1,8,0:0:0:0:
352,96,185915,1,8,0:0:0:0:
160,96,185997,1,0,0:0:0:0:
160,96,186078,1,0,0:0:0:0:
352,96,186160,1,8,0:0:0:0:
160,96,186241,1,0,0:0:0:0:
352,96,186323,1,8,0:0:0:0:
352,96,186404,1,8,0:0:0:0:
160,96,186486,1,0,0:0:0:0:
160,96,186567,1,0,0:0:0:0:
352,96,186649,1,8,0:0:0:0:
160,96,186730,1,0,0:0:0:0:
160,96,186812,1,0,0:0:0:0:
160,96,186893,1,0,0:0:0:0:
352,96,186975,1,8,0:0:0:0:
160,96,187057,1,0,0:0:0:0:
352,96,187138,1,8,0:0:0:0:
160,96,187220,1,0,0:0:0:0:
160,96,187301,1,0,0:0:0:0:
160,96,187383,1,0,0:0:0:0:
352,96,187464,1,8,0:0:0:0:
160,96,187546,1,0,0:0:0:0:
352,96,187627,1,8,0:0:0:0:
160,96,187709,1,0,0:0:0:0:
160,96,187790,1,0,0:0:0:0:
352,288,187953,1,12,0:0:0:0:
160,96,188116,1,0,0:0:0:0:
160,96,188197,1,0,0:0:0:0:
352,96,188279,1,8,0:0:0:0:
352,96,188360,1,8,0:0:0:0:
352,96,188442,1,8,0:0:0:0:
352,96,188523,1,8,0:0:0:0:
160,96,188605,1,0,0:0:0:0:
160,96,188686,1,0,0:0:0:0:
160,96,188768,1,0,0:0:0:0:
160,96,188849,1,0,0:0:0:0:
352,96,188931,1,8,0:0:0:0:
160,96,189013,1,0,0:0:0:0:
160,96,189094,1,0,0:0:0:0:
160,96,189176,1,0,0:0:0:0:
352,96,189257,1,8,0:0:0:0:
352,96,189339,1,8,0:0:0:0:
160,96,189420,1,0,0:0:0:0:
160,96,189502,1,0,0:0:0:0:
352,96,189583,1,8,0:0:0:0:
160,96,189665,1,0,0:0:0:0:
352,96,189746,1,8,0:0:0:0:
352,96,189828,1,8,0:0:0:0:
160,96,189909,1,0,0:0:0:0:
160,96,189991,1,0,0:0:0:0:
352,96,190072,1,8,0:0:0:0:
160,96,190154,1,0,0:0:0:0:
352,96,190235,1,8,0:0:0:0:
160,96,190317,1,0,0:0:0:0:
160,96,190398,1,0,0:0:0:0:
160,96,190480,1,0,0:0:0:0:
352,96,190561,1,8,0:0:0:0:
352,96,190643,1,8,0:0:0:0:
352,96,190724,1,8,0:0:0:0:
160,96,190806,1,0,0:0:0:0:
352,96,190887,1,8,0:0:0:0:
352,96,190969,1,8,0:0:0:0:
160,96,191050,1,0,0:0:0:0:
160,96,191132,1,0,0:0:0:0:
352,96,191213,1,8,0:0:0:0:
160,96,191295,1,0,0:0:0:0:
160,96,191376,1,0,0:0:0:0:
352,96,191458,1,8,0:0:0:0:
352,96,191540,1,8,0:0:0:0:
352,96,191621,1,8,0:0:0:0:
160,96,191703,1,0,0:0:0:0:
160,96,191784,1,0,0:0:0:0:
352,96,191866,1,8,0:0:0:0:
160,96,191947,1,0,0:0:0:0:
352,96,192029,1,8,0:0:0:0:
352,96,192110,1,8,0:0:0:0:
160,96,192192,1,0,0:0:0:0:
160,96,192273,1,0,0:0:0:0:
352,96,192355,1,8,0:0:0:0:
160,96,192436,1,0,0:0:0:0:
352,96,192518,1,8,0:0:0:0:
160,96,192599,1,0,0:0:0:0:
352,96,192681,1,8,0:0:0:0:
160,96,192762,1,0,0:0:0:0:
352,96,192844,1,8,0:0:0:0:
352,96,192925,1,8,0:0:0:0:
160,96,193007,1,0,0:0:0:0:
160,96,193088,1,0,0:0:0:0:
352,96,193170,1,8,0:0:0:0:
352,96,193251,1,8,0:0:0:0:
352,96,193333,1,8,0:0:0:0:
160,96,193414,1,0,0:0:0:0:
352,96,193496,1,8,0:0:0:0:
160,96,193577,1,0,0:0:0:0:
352,96,193659,1,8,0:0:0:0:
352,96,193740,1,8,0:0:0:0:
160,96,193822,1,0,0:0:0:0:
160,96,193904,1,0,0:0:0:0:
160,96,193985,1,0,0:0:0:0:
160,96,194067,1,0,0:0:0:0:
352,96,194148,1,8,0:0:0:0:
352,96,194230,1,8,0:0:0:0:
160,96,194311,1,0,0:0:0:0:
352,96,194393,1,8,0:0:0:0:
352,96,194474,1,8,0:0:0:0:
160,96,194556,1,0,0:0:0:0:
160,96,194637,1,0,0:0:0:0:
160,96,194719,1,0,0:0:0:0:
352,96,194800,1,8,0:0:0:0:
160,96,194882,1,0,0:0:0:0:
352,96,194963,1,8,0:0:0:0:
352,96,195045,1,8,0:0:0:0:
160,96,195126,1,0,0:0:0:0:
352,96,195208,1,8,0:0:0:0:
352,96,195289,1,8,0:0:0:0:
160,96,195371,1,0,0:0:0:0:
352,96,195452,1,8,0:0:0:0:
160,96,195534,1,0,0:0:0:0:
160,96,195615,1,0,0:0:0:0:
160,96,195697,1,0,0:0:0:0:
352,96,195778,1,8,0:0:0:0:
352,96,195860,1,8,0:0:0:0:
160,96,195941,1,0,0:0:0:0:
160,96,196023,1,0,0:0:0:0:
352,96,196104,1,8,0:0:0:0:
160,96,196186,1,0,0:0:0:0:
160,96,196267,1,0,0:0:0:0:
352,96,196349,1,8,0:0:0:0:
160,96,196431,1,0,0:0:0:0:
160,96,196512,1,0,0:0:0:0:
352,96,196594,1,8,0:0:0:0:
160,96,196675,1,0,0:0:0:0:
352,96,196757,1,8,0:0:0:0:
352,96,196838,1,8,0:0:0:0:
160,96,196920,1,0,0:0:0:0:
160,96,197001,1,0,0:0:0:0:
352,96,197083,1,8,0:0:0:0:
352,96,197164,1,8,0:0:0:0:
352,96,197246,1,8,0:0:0:0:
160,96,197327,1,0,0:0:0:0:
352,96,197409,1,8,0:0:0:0:
352,96,197490,1,8,0:0:0:0:
160,96,197572,1,0,0:0:0:0:
352,96,197653,1,8,0:0:0:0:
352,96,197735,1,8,0:0:0:0:
352,96,197816,1,8,0:0:0:0:
160,96,197898,1,0,0:0:0:0:
160,96,197979,1,0,0:0:0:0:
352,96,198061,1,8,0:0:0:0:
352,96,198142,1,8,0:0:0:0:
352,96,198224,1,8,0:0:0:0:
352,288,198387,1,12,0:0:0:0:
160,96,198550,1,0,0:0:0:0:
160,96,198631,1,0,0:0:0:0:
352,96,198713,1,8,0:0:0:0:
352,96,198795,1,8,0:0:0:0:
352,96,198876,1,8,0:0:0:0:
352,96,198958,1,8,0:0:0:0:
160,96,199039,1,0,0:0:0:0:
160,96,199121,1,0,0:0:0:0:
160,96,199202,1,0,0:0:0:0:
160,96,199284,1,0,0:0:0:0:
352,96,199365,1,8,0:0:0:0:
352,96,199447,1,8,0:0:0:0:
160,96,199528,1,0,0:0:0:0:
160,96,199610,1,0,0:0:0:0:
352,96,199691,1,8,0:0:0:0:
160,96,199773,1,0,0:0:0:0:
160,96,199854,1,0,0:0:0:0:
160,96,199936,1,0,0:0:0:0:
352,96,200017,1,8,0:0:0:0:
160,96,200099,1,0,0:0:0:0:
352,96,200180,1,8,0:0:0:0:
352,96,200262,1,8,0:0:0:0:
160,96,200343,1,0,0:0:0:0:
160,96,200425,1,0,0:0:0:0:
352,96,200506,1,8,0:0:0:0:
160,96,200588,1,0,0:0:0:0:
352,96,200669,1,8,0:0:0:0:
352,96,200751,1,8,0:0:0:0:
160,96,200832,1,0,0:0:0:0:
160,96,200914,1,0,0:0:0:0:
352,96,200995,1,8,0:0:0:0:
352,96,201077,1,8,0:0:0:0:
352,96,201158,1,8,0:0:0:0:
160,96,201240,1,0,0:0:0:0:
352,96,201322,1,8,0:0:0:0:
352,96,201403,1,8,0:0:0:0:
160,96,201485,1,0,0:0:0:0:
160,96,201566,1,0,0:0:0:0:
352,96,201648,1,8,0:0:0:0:
160,96,201729,1,0,0:0:0:0:
160,96,201811,1,0,0:0:0:0:
352,96,201892,1,8,0:0:0:0:
352,96,201974,1,8,0:0:0:0:
352,96,202055,1,8,0:0:0:0:
160,96,202137,1,0,0:0:0:0:
160,96,202218,1,0,0:0:0:0:
352,96,202300,1,8,0:0:0:0:
352,96,202381,1,8,0:0:0:0:
160,96,202463,1,0,0:0:0:0:
160,96,202544,1,0,0:0:0:0:
352,96,202626,1,8,0:0:0:0:
352,96,202707,1,8,0:0:0:0:
352,96,202789,1,8,0:0:0:0:
352,96,202870,1,8,0:0:0:0:
160,96,202952,1,0,0:0:0:0:
352,96,203033,1,8,0:0:0:0:
160,96,203115,1,0,0:0:0:0:
160,96,203196,1,0,0:0:0:0:
352,96,203278,1,8,0:0:0:0:
160,96,203359,1,0,0:0:0:0:
352,96,203441,1,8,0:0:0:0:
160,96,203522,1,0,0:0:0:0:
352,96,203604,1,8,0:0:0:0:
352,96,203686,1,8,0:0:0:0:
160,96,203767,1,0,0:0:0:0:
160,96,203849,1,0,0:0:0:0:
352,96,203930,1,8,0:0:0:0:
160,96,204012,1,0,0:0:0:0:
352,96,204093,1,8,0:0:0:0:
352,96,204175,1,8,0:0:0:0:
352,96,204256,1,8,0:0:0:0:
160,96,204338,1,0,0:0:0:0:
160,96,204419,1,0,0:0:0:0:
160,96,204501,1,0,0:0:0:0:
352,96,204582,1,8,0:0:0:0:
352,96,204664,1,8,0:0:0:0:
160,96,204745,1,0,0:0:0:0:
352,96,204827,1,8,0:0:0:0:
352,96,204908,1,8,0:0:0:0:
160,96,204990,1,0,0:0:0:0:
160,96,205071,1,0,0:0:0:0:
160,96,205153,1,0,0:0:0:0:
352,96,205234,1,8,0:0:0:0:
160,96,205316,1,0,0:0:0:0:
160,96,205397,1,0,0:0:0:0:
352,96,205479,1,8,0:0:0:0:
352,96,205560,1,8,0:0:0:0:
160,96,205642,1,0,0:0:0:0:
352,96,205723,1,8,0:0:0:0:
160,96,205805,1,0,0:0:0:0:
352,96,205886,1,8,0:0:0:0:
160,96,205968,1,0,0:0:0:0:
160,96,206049,1,0,0:0:0:0:
160,96,206131,1,0,0:0:0:0:
352,96,206213,1,8,0:0:0:0:
352,96,206294,1,8,0:0:0:0:
352,96,206376,1,8,0:0:0:0:
160,96,206457,1,0,0:0:0:0:
352,96,206539,1,8,0:0:0:0:
160,96,206620,1,0,0:0:0:0:
352,96,206702,1,8,0:0:0:0:
352,96,206783,1,8,0:0:0:0:
160,96,206865,1,0,0:0:0:0:
352,96,206946,1,8,0:0:0:0:
352,96,207028,1,8,0:0:0:0:
160,96,207109,1,0,0:0:0:0:
352,96,207191,1,8,0:0:0:0:
160,96,207272,1,0,0:0:0:0:
160,96,207354,1,0,0:0:0:0:
160,96,207435,1,0,0:0:0:0:
352,96,207517,1,8,0:0:0:0:
352,96,207599,1,8,0:0:0:0:
160,96,207680,1,0,0:0:0:0:
352,96,207762,1,8,0:0:0:0:
160,96,207843,1,0,0:0:0:0:
160,96,207925,1,0,0:0:0:0:
352,96,208006,1,8,0:0:0:0:
352,96,208088,1,8,0:0:0:0:
160,96,208169,1,0,0:0:0:0:
352,96,208251,1,8,0:0:0:0:
160,96,208332,1,0,0:0:0:0:
160,96,208414,5,0,0:0:0:0:
352,96,208495,1,8,0:0:0:0:
352,96,208577,1,8,0:0:0:0:
352,96,208658,1,8,0:0:0:0:
160,288,208822,1,4,0:0:0:0:
160,96,209039,1,0,0:0:0:0:
352,96,209147,1,8,0:0:0:0:
352,96,209256,1,8,0:0:0:0:
160,96,209365,1,0,0:0:0:0:
160,96,209473,1,0,0:0:0:0:
352,96,209800,1,8,0:0:0:0:
352,96,209908,1,8,0:0:0:0:
160,96,210017,1,0,0:0:0:0:
352,96,210126,1,8,0:0:0:0:
160,96,210234,1,0,0:0:0:0:
160,96,210343,1,0,0:0:0:0:
352,96,210452,1,8,0:0:0:0:
352,96,210778,1,8,0:0:0:0:
352,96,210886,1,8,0:0:0:0:
352,96,210995,1,8,0:0:0:0:
352,96,211104,1,8,0:0:0:0:
160,96,211430,1,0,0:0:0:0:
160,96,211539,1,0,0:0:0:0:
160,96,211647,1,0,0:0:0:0:
352,96,211756,1,8,0:0:0:0:
160,96,211865,1,0,0:0:0:0:
160,96,211973,1,0,0:0:0:0:
352,96,212082,1,8,0:0:0:0:
352,96,212408,1,8,0:0:0:0:
352,96,212517,1,8,0:0:0:0:
160,96,212625,1,0,0:0:0:0:
352,96,212734,1,8,0:0:0:0:
352,96,212843,1,8,0:0:0:0:
160,96,212952,1,0,0:0:0:0:
352,96,213060,1,8,0:0:0:0:
160,96,213386,1,0,0:0:0:0:
160,96,213495,1,0,0:0:0:0:
160,96,213604,1,0,0:0:0:0:
352,288,213712,1,12,0:0:0:0:
160,288,214038,1,4,0:0:0:0:
160,96,214256,1,0,0:0:0:0:
352,96,214364,1,8,0:0:0:0:
352,96,214473,1,8,0:0:0:0:
160,96,214582,1,0,0:0:0:0:
352,96,214691,1,8,0:0:0:0:
352,96,215017,1,8,0:0:0:0:
160,96,215125,1,0,0:0:0:0:
160,96,215234,1,0,0:0:0:0:
352,96,215343,1,8,0:0:0:0:
160,96,215451,1,0,0:0:0:0:
352,96,215560,1,8,0:0:0:0:
352,96,215669,1,8,0:0:0:0:
352,96,215995,1,8,0:0:0:0:
352,96,216104,1,8,0:0:0:0:
352,96,216212,1,8,0:0:0:0:
352,96,216321,1,8,0:0:0:0:
160,96,216647,1,0,0:0:0:0:
160,96,216756,1,0,0:0:0:0:
160,96,216864,1,0,0:0:0:0:
352,96,216973,1,8,0:0:0:0:
352,96,217082,1,8,0:0:0:0:
160,96,217190,1,0,0:0:0:0:
160,96,217299,1,0,0:0:0:0:
352,96,217625,1,8,0:0:0:0:
160,96,217734,1,0,0:0:0:0:
160,96,217843,1,0,0:0:0:0:
352,96,217951,1,8,0:0:0:0:
352,96,218060,1,8,0:0:0:0:
160,96,218169,1,0,0:0:0:0:
352,96,218277,1,8,0:0:0:0:
352,96,218603,1,8,0:0:0:0:
160,96,218712,1,0,0:0:0:0:
160,96,218821,1,0,0:0:0:0:
352,288,218929,1,12,0:0:0:0:
352,96,219255,1,8,0:0:0:0:
160,96,219364,1,0,0:0:0:0:
160,96,219473,1,0,0:0:0:0:
352,96,219582,1,8,0:0:0:0:
352,96,219690,1,8,0:0:0:0:
160,96,219799,1,0,0:0:0:0:
352,96,219908,1,8,0:0:0:0:
160,96,220016,1,0,0:0:0:0:
160,96,220125,1,0,0:0:0:0:
352,96,220234,1,8,0:0:0:0:
352,96,220342,1,8,0:0:0:0:
160,96,220451,1,0,0:0:0:0:
352,96,220559,1,8,0:0:0:0:
352,96,220668,1,8,0:0:0:0:
352,96,220777,1,8,0:0:0:0:
160,96,220886,1,0,0:0:0:0:
160,96,220995,1,0,0:0:0:0:
160,96,221102,1,0,0:0:0:0:
352,96,221212,1,8,0:0:0:0:
352,96,221321,1,8,0:0:0:0:
352,96,221428,1,8,0:0:0:0:
352,96,221537,1,8,0:0:0:0:
352,96,221646,1,8,0:0:0:0:
352,96,221755,1,8,0:0:0:0:
160,288,221865,1,4,0:0:0:0:
160,96,222027,1,0,0:0:0:0:
160,96,222109,1,0,0:0:0:0:
160,96,222190,1,0,0:0:0:0:
160,96,222353,1,0,0:0:0:0:
160,96,222435,1,0,0:0:0:0:
352,96,222516,1,8,0:0:0:0:
160,96,222679,1,0,0:0:0:0:
160,96,222761,1,0,0:0:0:0:
352,96,222842,1,8,0:0:0:0:
352,96,222924,1,8,0:0:0:0:
160,96,223005,1,0,0:0:0:0:
352,288,223168,1,12,0:0:0:0:
352,96,223331,1,8,0:0:0:0:
352,96,223413,1,8,0:0:0:0:
160,96,223495,1,0,0:0:0:0:
160,96,223658,1,0,0:0:0:0:
352,96,223739,1,8,0:0:0:0:
352,96,223821,1,8,0:0:0:0:
352,96,223902,1,8,0:0:0:0:
160,96,223984,1,0,0:0:0:0:
352,96,224147,1,8,0:0:0:0:
160,96,224228,1,0,0:0:0:0:
352,96,224310,1,8,0:0:0:0:
352,288,224473,1,12,0:0:0:0:
160,96,224636,1,0,0:0:0:0:
160,96,224718,1,0,0:0:0:0:
352,96,224799,1,8,0:0:0:0:
160,96,224962,1,0,0:0:0:0:
352,96,225044,1,8,0:0:0:0:
352,96,225125,1,8,0:0:0:0:
160,96,225207,1,0,0:0:0:0:
352,96,225288,1,8,0:0:0:0:
160,96,225370,1,0,0:0:0:0:
352,96,225451,1,8,0:0:0:0:
352,96,225533,1,8,0:0:0:0:
160,96,225614,1,0,0:0:0:0:
352,288,225777,1,12,0:0:0:0:
352,96,225940,1,8,0:0:0:0:
160,96,226022,1,0,0:0:0:0:
352,96,226103,1,8,0:0:0:0:
160,96,226266,1,0,0:0:0:0:
352,288,226429,1,12,0:0:0:0:
352,96,226592,1,8,0:0:0:0:
352,96,226674,1,8,0:0:0:0:
160,96,226756,1,0,0:0:0:0:
352,96,226837,1,8,0:0:0:0:
160,96,226919,1,0,0:0:0:0:
160,288,227082,1,4,0:0:0:0:
160,96,227245,1,0,0:0:0:0:
160,96,227326,1,0,0:0:0:0:
160,96,227408,1,0,0:0:0:0:
160,96,227571,1,0,0:0:0:0:
160,96,227652,1,0,0:0:0:0:
352,96,227734,1,8,0:0:0:0:
352,96,227815,1,8,0:0:0:0:
352,96,227897,1,8,0:0:0:0:
160,96,227978,1,0,0:0:0:0:
352,96,228060,1,8,0:0:0:0:
160,96,228223,1,0,0:0:0:0:
352,288,228386,1,12,0:0:0:0:
160,96,228549,1,0,0:0:0:0:
352,96,228630,1,8,0:0:0:0:
352,96,228712,1,8,0:0:0:0:
352,96,228793,1,8,0:0:0:0:
160,96,228875,1,0,0:0:0:0:
352,96,229038,1,8,0:0:0:0:
160,96,229119,1,0,0:0:0:0:
160,96,229201,1,0,0:0:0:0:
160,96,229283,1,0,0:0:0:0:
352,96,229364,1,8,0:0:0:0:
160,96,229446,1,0,0:0:0:0:
352,96,229527,1,8,0:0:0:0:
352,288,229690,1,12,0:0:0:0:
352,96,229853,1,8,0:0:0:0:
160,96,229935,1,0,0:0:0:0:
160,96,230016,1,0,0:0:0:0:
160,96,230098,1,0,0:0:0:0:
352,96,230179,1,8,0:0:0:0:
160,96,230261,1,0,0:0:0:0:
352,96,230342,1,8,0:0:0:0:
352,96,230505,1,8,0:0:0:0:
352,96,230587,1,8,0:0:0:0:
160,96,230668,1,0,0:0:0:0:
352,96,230750,1,8,0:0:0:0:
352,96,230831,1,8,0:0:0:0:
160,96,230994,1,0,0:0:0:0:
160,96,231076,1,0,0:0:0:0:
352,96,231157,1,8,0:0:0:0:
160,96,231239,1,0,0:0:0:0:
160,96,231320,1,0,0:0:0:0:
352,96,231402,1,8,0:0:0:0:
160,96,231483,1,0,0:0:0:0:
160,96,231565,1,0,0:0:0:0:
352,96,231646,1,8,0:0:0:0:
352,96,231728,1,8,0:0:0:0:
352,96,231809,1,8,0:0:0:0:
352,96,231891,1,8,0:0:0:0:
352,96,231972,1,8,0:0:0:0:
352,96,232054,1,8,0:0:0:0:
352,96,232135,1,8,0:0:0:0:
160,288,232299,1,4,0:0:0:0:
160,96,232462,1,0,0:0:0:0:
160,96,232543,1,0,0:0:0:0:
352,96,232625,1,8,0:0:0:0:
160,96,232788,1,0,0:0:0:0:
352,96,232869,1,8,0:0:0:0:
352,96,232951,1,8,0:0:0:0:
352,96,233032,1,8,0:0:0:0:
160,96,233114,1,0,0:0:0:0:
160,96,233195,1,0,0:0:0:0:
352,96,233277,1,8,0:0:0:0:
352,96,233440,1,8,0:0:0:0:
352,96,233603,1,8,0:0:0:0:
160,96,233766,1,0,0:0:0:0:
352,96,233847,1,8,0:0:0:0:
352,96,233929,1,8,0:0:0:0:
160,96,234010,1,0,0:0:0:0:
160,96,234092,1,0,0:0:0:0:
352,96,234255,1,8,0:0:0:0:
352,96,234337,1,8,0:0:0:0:
160,96,234418,1,0,0:0:0:0:
352,96,234500,1,8,0:0:0:0:
160,96,234581,1,0,0:0:0:0:
160,96,234663,1,0,0:0:0:0:
352,96,234744,1,8,0:0:0:0:
160,96,234826,1,0,0:0:0:0:
352,96,234907,1,8,0:0:0:0:
160,96,235070,1,0,0:0:0:0:
352,96,235233,1,8,0:0:0:0:
352,96,235315,1,8,0:0:0:0:
160,96,235396,1,0,0:0:0:0:
352,96,235559,1,8,0:0:0:0:
160,96,235641,1,0,0:0:0:0:
160,96,235722,1,0,0:0:0:0:
352,96,235804,1,8,0:0:0:0:
160,96,235885,1,0,0:0:0:0:
160,96,235967,1,0,0:0:0:0:
352,96,236048,1,8,0:0:0:0:
160,96,236130,1,0,0:0:0:0:
352,96,236211,1,8,0:0:0:0:
160,96,236374,1,0,0:0:0:0:
160,96,236456,1,0,0:0:0:0:
352,96,236538,1,8,0:0:0:0:
352,96,236701,1,8,0:0:0:0:
352,96,236782,1,8,0:0:0:0:
160,96,236864,1,0,0:0:0:0:
352,96,236945,1,8,0:0:0:0:
160,96,237027,1,0,0:0:0:0:
160,96,237108,1,0,0:0:0:0:
352,96,237190,1,8,0:0:0:0:
160,96,237353,1,0,0:0:0:0:
352,96,237516,1,8,0:0:0:0:
160,96,237597,1,0,0:0:0:0:
352,96,237679,1,8,0:0:0:0:
160,96,237760,1,0,0:0:0:0:
352,96,237842,1,8,0:0:0:0:
352,96,237923,1,8,0:0:0:0:
160,96,238005,1,0,0:0:0:0:
160,96,238086,1,0,0:0:0:0:
352,96,238168,1,8,0:0:0:0:
160,96,238249,1,0,0:0:0:0:
352,96,238331,1,8,0:0:0:0:
160,96,238412,1,0,0:0:0:0:
352,96,238494,1,8,0:0:0:0:
352,96,238575,1,8,0:0:0:0:
160,96,238657,1,0,0:0:0:0:
352,96,238738,1,8,0:0:0:0:
352,96,238820,1,8,0:0:0:0:
352,96,238901,1,8,0:0:0:0:
160,96,238983,1,0,0:0:0:0:
160,96,239065,1,0,0:0:0:0:
352,96,239146,1,8,0:0:0:0:
352,96,239228,1,8,0:0:0:0:
352,96,239309,1,8,0:0:0:0:
160,96,239391,1,0,0:0:0:0:
352,96,239472,1,8,0:0:0:0:
352,96,239554,1,8,0:0:0:0:
160,96,239635,1,0,0:0:0:0:
160,96,239717,1,0,0:0:0:0:
352,96,239798,1,8,0:0:0:0:
160,96,239880,1,0,0:0:0:0:
160,96,239961,1,0,0:0:0:0:
160,96,240043,1,0,0:0:0:0:
352,96,240124,1,8,0:0:0:0:
160,96,240287,1,0,0:0:0:0:
160,96,240450,1,0,0:0:0:0:
160,96,240532,1,0,0:0:0:0:
160,96,240613,1,0,0:0:0:0:
160,96,240695,1,0,0:0:0:0:
352,96,240776,1,8,0:0:0:0:
160,96,240939,1,0,0:0:0:0:
160,96,241102,1,0,0:0:0:0:
160,96,241184,1,0,0:0:0:0:
352,96,241265,1,8,0:0:0:0:
160,96,241347,1,0,0:0:0:0:
352,96,241429,1,8,0:0:0:0:
160,96,241592,1,0,0:0:0:0:
160,96,241755,1,0,0:0:0:0:
160,96,241863,1,0,0:0:0:0:
160,96,241972,1,0,0:0:0:0:
352,96,242081,1,8,0:0:0:0:
352,96,242407,1,8,0:0:0:0:
256,192,242733,2,0,L|192:192,6,35
352,96,243385,1,8,0:0:0:0:
160,96,243466,1,0,0:0:0:0:
160,96,243548,1,0,0:0:0:0:
352,96,243629,1,8,0:0:0:0:
160,96,243711,1,0,0:0:0:0:
160,96,243793,1,0,0:0:0:0:
352,96,243874,1,8,0:0:0:0:
160,96,243956,1,0,0:0:0:0:
352,96,244037,1,8,0:0:0:0:
160,96,244119,1,0,0:0:0:0:
160,96,244200,1,0,0:0:0:0:
352,96,244282,1,8,0:0:0:0:
160,96,244363,1,0,0:0:0:0:
160,96,244445,1,0,0:0:0:0:
352,96,244526,1,8,0:0:0:0:
352,96,244689,1,8,0:0:0:0:
352,96,244798,1,8,0:0:0:0:
352,96,244907,1,8,0:0:0:0:
160,96,245015,1,0,0:0:0:0:
160,96,245178,1,0,0:0:0:0:
160,96,245260,1,0,0:0:0:0:
352,96,245341,1,8,0:0:0:0:
160,96,245504,1,0,0:0:0:0:
160,96,245586,1,0,0:0:0:0:
352,96,245667,1,8,0:0:0:0:
352,96,245749,1,8,0:0:0:0:
352,96,245830,1,8,0:0:0:0:
160,96,245912,1,0,0:0:0:0:
352,96,245993,1,8,0:0:0:0:
160,96,246156,1,0,0:0:0:0:
160,96,246238,1,0,0:0:0:0:
352,96,246320,1,8,0:0:0:0:
160,96,246401,1,0,0:0:0:0:
352,96,246483,1,8,0:0:0:0:
352,96,246646,1,8,0:0:0:0:
352,96,246809,1,8,0:0:0:0:
160,96,246890,1,0,0:0:0:0:
352,96,246972,1,8,0:0:0:0:
160,96,247053,1,0,0:0:0:0:
352,96,247135,1,8,0:0:0:0:
352,96,247298,1,8,0:0:0:0:
352,96,247379,1,8,0:0:0:0:
160,96,247461,1,0,0:0:0:0:
352,96,247624,1,8,0:0:0:0:
352,96,247705,1,8,0:0:0:0:
352,96,247787,1,8,0:0:0:0:
160,288,247950,1,4,0:0:0:0:
160,96,248113,1,0,0:0:0:0:
160,96,248194,1,0,0:0:0:0:
160,96,248276,1,0,0:0:0:0:
352,96,248357,1,8,0:0:0:0:
160,96,248439,1,0,0:0:0:0:
160,96,248520,1,0,0:0:0:0:
352,96,248602,1,8,0:0:0:0:
352,96,248765,1,8,0:0:0:0:
160,96,248847,1,0,0:0:0:0:
352,96,248928,1,8,0:0:0:0:
352,96,249010,1,8,0:0:0:0:
160,96,249091,1,0,0:0:0:0:
352,288,249254,1,12,0:0:0:0:
352,96,249417,1,8,0:0:0:0:
160,96,249580,1,0,0:0:0:0:
160,96,249662,1,0,0:0:0:0:
352,96,249743,1,8,0:0:0:0:
160,96,249825,1,0,0:0:0:0:
160,96,249906,1,0,0:0:0:0:
160,96,249988,1,0,0:0:0:0:
352,96,250069,1,8,0:0:0:0:
352,96,250151,1,8,0:0:0:0:
160,96,250232,1,0,0:0:0:0:
160,96,250314,1,0,0:0:0:0:
352,96,250395,1,8,0:0:0:0:
256,192,250558,2,0,L|192:192,14,35
352,96,251863,1,8,0:0:0:0:
352,96,251944,1,8,0:0:0:0:
160,96,252026,1,0,0:0:0:0:
160,96,252107,1,0,0:0:0:0:
352,96,252189,1,8,0:0:0:0:
352,96,252270,1,8,0:0:0:0:
160,96,252352,1,0,0:0:0:0:
160,96,252433,1,0,0:0:0:0:
352,96,252514,1,8,0:0:0:0:
352,96,252596,1,8,0:0:0:0:
160,96,252678,1,0,0:0:0:0:
352,96,252759,1,8,0:0:0:0:
160,96,252841,1,0,0:0:0:0:
160,96,252922,1,0,0:0:0:0:
160,96,253004,1,0,0:0:0:0:
352,288,253167,1,12,0:0:0:0:
160,96,253330,1,0,0:0:0:0:
160,96,253411,1,0,0:0:0:0:
352,96,253493,1,8,0:0:0:0:
160,96,253656,1,0,0:0:0:0:
352,96,253738,1,8,0:0:0:0:
352,96,253819,1,8,0:0:0:0:
352,96,253901,1,8,0:0:0:0:
160,96,253982,1,0,0:0:0:0:
352,96,254145,1,8,0:0:0:0:
160,96,254227,1,0,0:0:0:0:
352,96,254308,1,8,0:0:0:0:
352,96,254390,1,8,0:0:0:0:
160,96,254471,1,0,0:0:0:0:
160,96,254634,1,0,0:0:0:0:
160,96,254716,1,0,0:0:0:0:
352,96,254797,1,8,0:0:0:0:
352,96,254879,1,8,0:0:0:0:
160,96,254960,1,0,0:0:0:0:
352,96,255123,1,8,0:0:0:0:
160,96,255205,1,0,0:0:0:0:
160,96,255286,1,0,0:0:0:0:
160,96,255368,1,0,0:0:0:0:
352,96,255449,1,8,0:0:0:0:
352,96,255531,1,8,0:0:0:0:
352,96,255612,1,8,0:0:0:0:
352,96,255694,1,0,0:0:0:0:
352,96,255775,1,8,0:0:0:0:
352,96,255938,1,0,0:0:0:0:
160,96,256020,1,0,0:0:0:0:
352,96,256102,1,8,0:0:0:0:
160,96,256265,1,0,0:0:0:0:
160,96,256346,1,0,0:0:0:0:
352,96,256428,1,8,0:0:0:0:
352,96,256509,1,8,0:0:0:0:
160,96,256591,1,0,0:0:0:0:
352,96,256754,1,8,0:0:0:0:
160,96,256835,1,0,0:0:0:0:
352,96,256917,1,8,0:0:0:0:
160,96,256998,1,0,0:0:0:0:
352,96,257080,1,8,0:0:0:0:
352,96,257243,1,8,0:0:0:0:
160,96,257324,1,0,0:0:0:0:
352,96,257406,1,8,0:0:0:0:
352,96,257487,1,8,0:0:0:0:
160,96,257569,1,0,0:0:0:0:
352,96,257732,1,8,0:0:0:0:
352,96,257813,1,8,0:0:0:0:
160,96,257895,1,0,0:0:0:0:
352,96,257976,1,8,0:0:0:0:
352,96,258058,1,8,0:0:0:0:
160,96,258139,1,0,0:0:0:0:
352,96,258221,1,8,0:0:0:0:
160,96,258302,1,0,0:0:0:0:
352,96,258384,1,8,0:0:0:0:
160,96,258547,1,0,0:0:0:0:
352,96,258629,1,8,0:0:0:0:
352,96,258710,1,8,0:0:0:0:
352,96,258792,1,8,0:0:0:0:
160,96,258873,1,0,0:0:0:0:
352,96,259036,1,8,0:0:0:0:
160,96,259199,1,0,0:0:0:0:
160,96,259281,1,0,0:0:0:0:
352,96,259362,1,8,0:0:0:0:
160,96,259444,1,0,0:0:0:0:
352,96,259525,1,8,0:0:0:0:
352,96,259607,1,8,0:0:0:0:
352,96,259688,1,8,0:0:0:0:
160,96,259851,1,0,0:0:0:0:
160,96,259933,1,0,0:0:0:0:
352,96,260014,1,8,0:0:0:0:
352,96,260096,1,8,0:0:0:0:
160,96,260177,1,0,0:0:0:0:
160,96,260259,1,0,0:0:0:0:
352,96,260340,1,8,0:0:0:0:
160,96,260503,1,0,0:0:0:0:
352,96,260585,1,8,0:0:0:0:
352,96,260666,1,8,0:0:0:0:
352,96,260748,1,8,0:0:0:0:
160,96,260830,1,0,0:0:0:0:
352,96,260993,1,8,0:0:0:0:
160,96,261074,1,0,0:0:0:0:
160,96,261156,1,0,0:0:0:0:
160,96,261237,1,0,0:0:0:0:
160,96,261319,1,0,0:0:0:0:
160,96,261400,1,0,0:0:0:0:
352,96,261482,1,8,0:0:0:0:
160,96,261563,1,0,0:0:0:0:
352,96,261645,1,8,0:0:0:0:
160,96,261726,1,0,0:0:0:0:
160,96,261808,1,0,0:0:0:0:
160,96,261889,1,0,0:0:0:0:
352,96,261971,1,8,0:0:0:0:
352,96,262052,1,8,0:0:0:0:
160,96,262134,1,0,0:0:0:0:
352,96,262215,1,8,0:0:0:0:
352,96,262297,1,8,0:0:0:0:
160,96,262378,1,0,0:0:0:0:
160,96,262460,1,0,0:0:0:0:
160,96,262541,1,0,0:0:0:0:
160,96,262623,1,0,0:0:0:0:
160,96,262704,1,0,0:0:0:0:
352,96,262786,1,8,0:0:0:0:
160,96,262867,1,0,0:0:0:0:
352,96,262949,1,8,0:0:0:0:
160,96,263030,1,0,0:0:0:0:
160,96,263112,1,0,0:0:0:0:
160,96,263193,1,0,0:0:0:0:
352,96,263275,1,8,0:0:0:0:
352,96,263356,1,8,0:0:0:0:
352,96,263438,1,8,0:0:0:0:
160,288,263601,1,4,0:0:0:0:
160,96,263764,1,0,0:0:0:0:
160,96,263927,1,0,0:0:0:0:
352,96,264090,1,8,0:0:0:0:
352,96,264253,1,8,0:0:0:0:
160,96,264416,1,0,0:0:0:0:
352,96,264579,1,8,0:0:0:0:
160,96,264742,1,0,0:0:0:0:
160,96,264905,1,0,0:0:0:0:
160,96,265068,1,0,0:0:0:0:
352,96,265231,1,8,0:0:0:0:
160,96,265394,1,0,0:0:0:0:
352,96,265557,1,8,0:0:0:0:
160,96,265720,1,0,0:0:0:0:
352,96,265883,1,8,0:0:0:0:
160,96,265964,1,0,0:0:0:0:
160,96,266046,1,0,0:0:0:0:
160,96,266128,1,0,0:0:0:0:
352,96,266209,1,8,0:0:0:0:
160,96,266372,1,0,0:0:0:0:
160,96,266535,1,0,0:0:0:0:
352,96,266698,1,8,0:0:0:0:
352,96,266861,1,8,0:0:0:0:
160,96,267024,1,0,0:0:0:0:
352,96,267187,1,8,0:0:0:0:
160,96,267350,1,0,0:0:0:0:
160,96,267513,1,0,0:0:0:0:
352,96,267676,1,8,0:0:0:0:
160,96,267839,1,0,0:0:0:0:
160,96,268002,1,0,0:0:0:0:
352,96,268165,1,8,0:0:0:0:
160,96,268328,1,0,0:0:0:0:
160,96,268410,1,0,0:0:0:0:
352,96,268492,1,8,0:0:0:0:
352,96,268573,1,8,0:0:0:0:
160,96,268655,1,0,0:0:0:0:
160,96,268736,1,0,0:0:0:0:
352,96,268818,1,8,0:0:0:0:
160,96,268981,1,0,0:0:0:0:
160,96,269144,1,0,0:0:0:0:
352,96,269307,1,8,0:0:0:0:
352,96,269470,1,8,0:0:0:0:
160,96,269633,1,0,0:0:0:0:
352,96,269796,1,8,0:0:0:0:
352,96,269959,1,8,0:0:0:0:
160,96,270122,1,0,0:0:0:0:
160,96,270285,1,0,0:0:0:0:
352,96,270448,1,8,0:0:0:0:
160,96,270612,1,0,0:0:0:0:
352,96,270775,1,8,0:0:0:0:
160,96,270938,1,0,0:0:0:0:
160,96,271019,1,0,0:0:0:0:
352,96,271101,1,8,0:0:0:0:
352,96,271182,1,8,0:0:0:0:
160,96,271264,1,0,0:0:0:0:
160,96,271345,1,0,0:0:0:0:
160,96,271427,1,0,0:0:0:0:
160,96,271590,1,0,0:0:0:0:
352,96,271753,1,8,0:0:0:0:
160,96,271916,1,0,0:0:0:0:
352,96,272079,1,8,0:0:0:0:
352,96,272242,1,8,0:0:0:0:
352,96,272405,1,8,0:0:0:0:
160,96,272568,1,0,0:0:0:0:
352,96,272731,1,8,0:0:0:0:
160,96,272894,1,0,0:0:0:0:
352,96,273057,1,8,0:0:0:0:
160,96,273220,1,0,0:0:0:0:
160,96,273383,1,0,0:0:0:0:
160,96,273464,1,0,0:0:0:0:
160,96,273546,1,0,0:0:0:0:
160,96,273627,1,0,0:0:0:0:
160,96,273709,1,0,0:0:0:0:
160,96,273790,1,0,0:0:0:0:
160,96,273872,1,0,0:0:0:0:
352,288,274035,1,12,0:0:0:0:
160,96,274198,1,0,0:0:0:0:
352,96,274361,1,8,0:0:0:0:
160,96,274443,1,0,0:0:0:0:
160,96,274524,1,0,0:0:0:0:
160,96,274606,1,0,0:0:0:0:
352,96,274687,1,8,0:0:0:0:
160,96,274850,1,0,0:0:0:0:
352,96,275013,1,8,0:0:0:0:
160,96,275095,1,0,0:0:0:0:
352,96,275176,1,8,0:0:0:0:
352,96,275258,1,8,0:0:0:0:
160,96,275339,1,0,0:0:0:0:
160,96,275502,1,0,0:0:0:0:
352,96,275665,1,8,0:0:0:0:
352,96,275747,1,8,0:0:0:0:
160,96,275828,1,0,0:0:0:0:
352,96,275910,1,8,0:0:0:0:
160,96,275991,1,0,0:0:0:0:
160,96,276154,1,0,0:0:0:0:
160,96,276236,1,0,0:0:0:0:
352,96,276317,1,8,0:0:0:0:
160,96,276399,1,0,0:0:0:0:
352,96,276480,1,8,0:0:0:0:
352,96,276562,1,8,0:0:0:0:
160,96,276643,1,0,0:0:0:0:
160,96,276806,1,0,0:0:0:0:
352,96,276888,1,8,0:0:0:0:
160,96,276970,1,0,0:0:0:0:
160,96,277051,1,0,0:0:0:0:
352,96,277133,1,8,0:0:0:0:
160,96,277296,1,0,0:0:0:0:
352,96,277459,1,8,0:0:0:0:
160,96,277540,1,0,0:0:0:0:
352,96,277622,1,8,0:0:0:0:
352,96,277703,1,8,0:0:0:0:
160,96,277785,1,0,0:0:0:0:
160,96,277866,1,0,0:0:0:0:
352,96,277948,1,8,0:0:0:0:
160,96,278029,1,0,0:0:0:0:
352,96,278111,1,8,0:0:0:0:
160,96,278192,1,0,0:0:0:0:
352,96,278274,1,8,0:0:0:0:
160,96,278437,1,0,0:0:0:0:
352,96,278600,1,8,0:0:0:0:
160,96,278681,1,0,0:0:0:0:
160,96,278763,1,0,0:0:0:0:
352,96,278926,1,8,0:0:0:0:
352,96,279007,1,8,0:0:0:0:
352,96,279089,1,8,0:0:0:0:
160,288,279252,1,4,0:0:0:0:
160,96,279415,1,0,0:0:0:0:
160,96,279496,1,0,0:0:0:0:
352,96,279578,1,8,0:0:0:0:
352,96,279659,1,8,0:0:0:0:
160,96,279741,1,0,0:0:0:0:
160,96,279822,1,0,0:0:0:0:
352,96,279904,1,8,0:0:0:0:
160,96,280067,1,0,0:0:0:0:
160,96,280148,1,0,0:0:0:0:
352,96,280230,1,8,0:0:0:0:
160,96,280311,1,0,0:0:0:0:
352,96,280393,1,8,0:0:0:0:
352,96,280474,1,8,0:0:0:0:
160,96,280556,1,0,0:0:0:0:
160,96,280719,1,0,0:0:0:0:
160,96,280801,1,0,0:0:0:0:
352,96,280882,1,8,0:0:0:0:
352,96,280964,1,8,0:0:0:0:
352,96,281045,1,8,0:0:0:0:
160,96,281127,1,0,0:0:0:0:
352,96,281208,1,8,0:0:0:0:
352,96,281290,1,8,0:0:0:0:
160,96,281371,1,0,0:0:0:0:
160,96,281453,1,0,0:0:0:0:
352,96,281534,1,8,0:0:0:0:
160,96,281616,1,0,0:0:0:0:
160,96,281697,1,0,0:0:0:0:
352,96,281861,1,8,0:0:0:0:
160,96,281942,1,0,0:0:0:0:
160,96,282024,1,0,0:0:0:0:
160,96,282105,1,0,0:0:0:0:
352,96,282187,1,8,0:0:0:0:
160,96,282268,1,0,0:0:0:0:
352,96,282350,1,8,0:0:0:0:
352,96,282431,1,8,0:0:0:0:
160,96,282513,1,0,0:0:0:0:
160,96,282594,1,0,0:0:0:0:
352,96,282676,1,8,0:0:0:0:
160,96,282757,1,0,0:0:0:0:
352,96,282839,1,8,0:0:0:0:
352,96,282920,1,8,0:0:0:0:
160,96,283002,1,0,0:0:0:0:
160,96,283083,1,0,0:0:0:0:
352,96,283165,1,8,0:0:0:0:
160,96,283246,1,0,0:0:0:0:
160,96,283328,1,0,0:0:0:0:
160,96,283409,1,0,0:0:0:0:
352,96,283491,1,8,0:0:0:0:
160,96,283572,1,0,0:0:0:0:
352,96,283654,1,8,0:0:0:0:
160,96,283735,1,0,0:0:0:0:
160,96,283817,1,0,0:0:0:0:
160,96,283898,1,0,0:0:0:0:
352,96,283980,1,8,0:0:0:0:
160,96,284061,1,0,0:0:0:0:
352,96,284143,1,8,0:0:0:0:
160,96,284224,1,0,0:0:0:0:
160,96,284306,1,0,0:0:0:0:
352,288,284471,1,12,0:0:0:0:
160,96,284634,1,0,0:0:0:0:
160,96,284715,1,0,0:0:0:0:
352,96,284797,1,8,0:0:0:0:
352,96,284878,1,8,0:0:0:0:
352,96,284960,1,8,0:0:0:0:
352,96,285041,1,8,0:0:0:0:
160,96,285123,1,0,0:0:0:0:
160,96,285204,1,0,0:0:0:0:
160,96,285286,1,0,0:0:0:0:
160,96,285367,1,0,0:0:0:0:
352,96,285449,1,8,0:0:0:0:
160,96,285531,1,0,0:0:0:0:
160,96,285612,1,0,0:0:0:0:
160,96,285694,1,0,0:0:0:0:
352,96,285775,1,8,0:0:0:0:
352,96,285857,1,8,0:0:0:0:
160,96,285938,1,0,0:0:0:0:
160,96,286020,1,0,0:0:0:0:
352,96,286101,1,8,0:0:0:0:
160,96,286183,1,0,0:0:0:0:
352,96,286264,1,8,0:0:0:0:
352,96,286346,1,8,0:0:0:0:
160,96,286427,1,0,0:0:0:0:
160,96,286509,1,0,0:0:0:0:
352,96,286590,1,8,0:0:0:0:
160,96,286672,1,0,0:0:0:0:
352,96,286753,1,8,0:0:0:0:
160,96,286835,1,0,0:0:0:0:
160,96,286916,1,0,0:0:0:0:
160,96,286998,1,0,0:0:0:0:
352,96,287079,1,8,0:0:0:0:
352,96,287161,1,8,0:0:0:0:
352,96,287242,1,8,0:0:0:0:
160,96,287324,1,0,0:0:0:0:
352,96,287405,1,8,0:0:0:0:
352,96,287487,1,8,0:0:0:0:
160,96,287568,1,0,0:0:0:0:
160,96,287650,1,0,0:0:0:0:
352,96,287731,1,8,0:0:0:0:
160,96,287813,1,0,0:0:0:0:
160,96,287894,1,0,0:0:0:0:
352,96,287976,1,8,0:0:0:0:
352,96,288058,1,8,0:0:0:0:
352,96,288139,1,8,0:0:0:0:
160,96,288221,1,0,0:0:0:0:
160,96,288302,1,0,0:0:0:0:
352,96,288384,1,8,0:0:0:0:
160,96,288465,1,0,0:0:0:0:
352,96,288547,1,8,0:0:0:0:
352,96,288628,1,8,0:0:0:0:
160,96,288710,1,0,0:0:0:0:
160,96,288791,1,0,0:0:0:0:
352,96,288873,1,8,0:0:0:0:
160,96,288954,1,0,0:0:0:0:
352,96,289036,1,8,0:0:0:0:
160,96,289117,1,0,0:0:0:0:
352,96,289199,1,8,0:0:0:0:
160,96,289280,1,0,0:0:0:0:
352,96,289362,1,8,0:0:0:0:
352,96,289443,1,8,0:0:0:0:
160,96,289525,1,0,0:0:0:0:
160,96,289606,1,0,0:0:0:0:
352,96,289688,1,8,0:0:0:0:
352,96,289769,1,8,0:0:0:0:
352,96,289851,1,8,0:0:0:0:
160,96,289932,1,0,0:0:0:0:
352,96,290014,1,8,0:0:0:0:
160,96,290095,1,0,0:0:0:0:
352,96,290177,1,8,0:0:0:0:
352,96,290258,1,8,0:0:0:0:
160,96,290340,1,0,0:0:0:0:
160,96,290422,1,0,0:0:0:0:
160,96,290503,1,0,0:0:0:0:
160,96,290585,1,0,0:0:0:0:
352,96,290666,1,8,0:0:0:0:
352,96,290748,1,8,0:0:0:0:
160,96,290829,1,0,0:0:0:0:
352,96,290911,1,8,0:0:0:0:
352,96,290992,1,8,0:0:0:0:
160,96,291074,1,0,0:0:0:0:
160,96,291155,1,0,0:0:0:0:
160,96,291237,1,0,0:0:0:0:
352,96,291318,1,8,0:0:0:0:
160,96,291400,1,0,0:0:0:0:
352,96,291481,1,8,0:0:0:0:
352,96,291563,1,8,0:0:0:0:
160,96,291644,1,0,0:0:0:0:
352,96,291726,1,8,0:0:0:0:
352,96,291807,1,8,0:0:0:0:
160,96,291889,1,0,0:0:0:0:
352,96,291970,1,8,0:0:0:0:
160,96,292052,1,0,0:0:0:0:
160,96,292133,1,0,0:0:0:0:
160,96,292215,1,0,0:0:0:0:
352,96,292296,1,8,0:0:0:0:
352,96,292378,1,8,0:0:0:0:
160,96,292459,1,0,0:0:0:0:
160,96,292541,1,0,0:0:0:0:
352,96,292622,1,8,0:0:0:0:
160,96,292704,1,0,0:0:0:0:
160,96,292785,1,0,0:0:0:0:
352,96,292867,1,8,0:0:0:0:
160,96,292949,1,0,0:0:0:0:
160,96,293030,1,0,0:0:0:0:
352,96,293112,1,8,0:0:0:0:
160,96,293193,1,0,0:0:0:0:
352,96,293275,1,8,0:0:0:0:
352,96,293356,1,8,0:0:0:0:
160,96,293438,1,0,0:0:0:0:
160,96,293519,1,0,0:0:0:0:
352,96,293601,1,8,0:0:0:0:
352,96,293682,1,8,0:0:0:0:
352,96,293764,1,8,0:0:0:0:
160,96,293845,1,0,0:0:0:0:
352,96,293927,1,8,0:0:0:0:
352,96,294008,1,8,0:0:0:0:
160,96,294090,1,0,0:0:0:0:
352,96,294171,1,8,0:0:0:0:
352,96,294253,1,8,0:0:0:0:
352,96,294334,1,8,0:0:0:0:
160,96,294416,1,0,0:0:0:0:
160,96,294497,1,0,0:0:0:0:
352,96,294579,1,8,0:0:0:0:
352,96,294660,1,8,0:0:0:0:
352,96,294742,1,8,0:0:0:0:
352,288,294905,1,12,0:0:0:0:
160,96,295068,1,0,0:0:0:0:
160,96,295149,1,0,0:0:0:0:
352,96,295231,1,8,0:0:0:0:
352,96,295313,1,8,0:0:0:0:
352,96,295394,1,8,0:0:0:0:
352,96,295476,1,8,0:0:0:0:
160,96,295557,1,0,0:0:0:0:
160,96,295639,1,0,0:0:0:0:
160,96,295720,1,0,0:0:0:0:
160,96,295802,1,0,0:0:0:0:
352,96,295883,1,8,0:0:0:0:
352,96,295965,1,8,0:0:0:0:
160,96,296046,1,0,0:0:0:0:
160,96,296128,1,0,0:0:0:0:
352,96,296209,1,8,0:0:0:0:
160,96,296291,1,0,0:0:0:0:
160,96,296372,1,0,0:0:0:0:
160,96,296454,1,0,0:0:0:0:
352,96,296535,1,8,0:0:0:0:
160,96,296617,1,0,0:0:0:0:
352,96,296698,1,8,0:0:0:0:
352,96,296780,1,8,0:0:0:0:
160,96,296861,1,0,0:0:0:0:
160,96,296943,1,0,0:0:0:0:
352,96,297024,1,8,0:0:0:0:
160,96,297106,1,0,0:0:0:0:
352,96,297187,1,8,0:0:0:0:
352,96,297269,1,8,0:0:0:0:
160,96,297350,1,0,0:0:0:0:
160,96,297432,1,0,0:0:0:0:
352,96,297513,1,8,0:0:0:0:
352,96,297595,1,8,0:0:0:0:
352,96,297676,1,8,0:0:0:0:
160,96,297758,1,0,0:0:0:0:
352,96,297840,1,8,0:0:0:0:
352,96,297921,1,8,0:0:0:0:
160,96,298003,1,0,0:0:0:0:
160,96,298084,1,0,0:0:0:0:
352,96,298166,1,8,0:0:0:0:
160,96,298247,1,0,0:0:0:0:
160,96,298329,1,0,0:0:0:0:
352,96,298410,1,8,0:0:0:0:
352,96,298492,1,8,0:0:0:0:
352,96,298573,1,8,0:0:0:0:
160,96,298655,1,0,0:0:0:0:
160,96,298736,1,0,0:0:0:0:
352,96,298818,1,8,0:0:0:0:
352,96,298899,1,8,0:0:0:0:
160,96,298981,1,0,0:0:0:0:
160,96,299062,1,0,0:0:0:0:
352,96,299144,1,8,0:0:0:0:
352,96,299225,1,8,0:0:0:0:
352,96,299307,1,8,0:0:0:0:
352,96,299388,1,8,0:0:0:0:
160,96,299470,1,0,0:0:0:0:
352,96,299551,1,8,0:0:0:0:
160,96,299633,1,0,0:0:0:0:
160,96,299714,1,0,0:0:0:0:
352,96,299796,1,8,0:0:0:0:
160,96,299877,1,0,0:0:0:0:
352,96,299959,1,8,0:0:0:0:
160,96,300040,1,0,0:0:0:0:
352,96,300122,1,8,0:0:0:0:
352,96,300204,1,8,0:0:0:0:
160,96,300285,1,0,0:0:0:0:
160,96,300367,1,0,0:0:0:0:
352,96,300448,1,8,0:0:0:0:
160,96,300530,1,0,0:0:0:0:
352,96,300611,1,8,0:0:0:0:
352,96,300693,1,8,0:0:0:0:
352,96,300774,1,8,0:0:0:0:
160,96,300856,1,0,0:0:0:0:
160,96,300937,1,0,0:0:0:0:
160,96,301019,1,0,0:0:0:0:
352,96,301100,1,8,0:0:0:0:
352,96,301182,1,8,0:0:0:0:
160,96,301263,1,0,0:0:0:0:
352,96,301345,1,8,0:0:0:0:
352,96,301426,1,8,0:0:0:0:
160,96,301508,1,0,0:0:0:0:
160,96,301589,1,0,0:0:0:0:
160,96,301671,1,0,0:0:0:0:
352,96,301752,1,8,0:0:0:0:
160,96,301834,1,0,0:0:0:0:
160,96,301915,1,0,0:0:0:0:
352,96,301997,1,8,0:0:0:0:
352,96,302078,1,8,0:0:0:0:
160,96,302160,1,0,0:0:0:0:
352,96,302241,1,8,0:0:0:0:
160,96,302323,1,0,0:0:0:0:
352,96,302404,1,8,0:0:0:0:
160,96,302486,1,0,0:0:0:0:
160,96,302567,1,0,0:0:0:0:
160,96,302649,1,0,0:0:0:0:
352,96,302731,1,8,0:0:0:0:
352,96,302812,1,8,0:0:0:0:
352,96,302894,1,8,0:0:0:0:
160,96,302975,1,0,0:0:0:0:
352,96,303057,1,8,0:0:0:0:
160,96,303138,1,0,0:0:0:0:
352,96,303220,1,8,0:0:0:0:
352,96,303301,1,8,0:0:0:0:
160,96,303383,1,0,0:0:0:0:
352,96,303464,1,8,0:0:0:0:
352,96,303546,1,8,0:0:0:0:
160,96,303627,1,0,0:0:0:0:
352,96,303709,1,8,0:0:0:0:
160,96,303790,1,0,0:0:0:0:
160,96,303872,1,0,0:0:0:0:
160,96,303953,1,0,0:0:0:0:
352,96,304035,1,8,0:0:0:0:
352,96,304116,1,8,0:0:0:0:
160,96,304198,1,0,0:0:0:0:
352,96,304279,1,8,0:0:0:0:
160,96,304361,1,0,0:0:0:0:
160,96,304442,1,0,0:0:0:0:
352,96,304524,1,8,0:0:0:0:
352,96,304605,1,8,0:0:0:0:
160,96,304687,1,0,0:0:0:0:
352,96,304768,1,8,0:0:0:0:
160,96,304850,1,0,0:0:0:0:
160,96,304931,5,0,0:0:0:0:
352,96,305013,1,8,0:0:0:0:
352,96,305094,1,8,0:0:0:0:
352,96,305176,1,8,0:0:0:0:
160,288,305339,1,4,0:0:0:0:
160,96,305502,1,0,0:0:0:0:
352,96,305665,1,8,0:0:0:0:
160,96,305746,1,0,0:0:0:0:
160,96,305828,1,0,0:0:0:0:
160,96,305909,1,0,0:0:0:0:
160,96,305991,1,0,0:0:0:0:
160,96,306154,1,0,0:0:0:0:
352,96,306317,1,8,0:0:0:0:
160,96,306398,1,0,0:0:0:0:
160,96,306480,1,0,0:0:0:0:
160,96,306561,1,0,0:0:0:0:
160,96,306643,1,0,0:0:0:0:
160,96,306806,1,0,0:0:0:0:
352,96,306969,1,8,0:0:0:0:
352,96,307050,1,8,0:0:0:0:
160,96,307132,1,0,0:0:0:0:
160,96,307214,1,0,0:0:0:0:
160,96,307295,1,0,0:0:0:0:
160,96,307458,1,0,0:0:0:0:
160,96,307540,1,0,0:0:0:0:
352,96,307621,1,8,0:0:0:0:
160,96,307703,1,0,0:0:0:0:
352,96,307784,1,8,0:0:0:0:
160,96,307866,1,0,0:0:0:0:
160,96,307947,1,0,0:0:0:0:
160,96,308110,1,0,0:0:0:0:
352,96,308273,1,8,0:0:0:0:
160,96,308355,1,0,0:0:0:0:
160,96,308436,1,0,0:0:0:0:
160,96,308518,1,0,0:0:0:0:
160,96,308599,1,0,0:0:0:0:
160,96,308762,1,0,0:0:0:0:
352,96,308925,1,8,0:0:0:0:
160,96,309007,1,0,0:0:0:0:
160,96,309088,1,0,0:0:0:0:
160,96,309170,1,0,0:0:0:0:
160,96,309251,1,0,0:0:0:0:
160,96,309414,1,0,0:0:0:0:
352,96,309578,1,8,0:0:0:0:
352,96,309659,1,8,0:0:0:0:
160,96,309741,1,0,0:0:0:0:
160,96,309822,1,0,0:0:0:0:
160,96,309904,1,0,0:0:0:0:
160,96,310067,1,0,0:0:0:0:
160,96,310148,1,0,0:0:0:0:
352,96,310230,1,8,0:0:0:0:
352,96,310311,1,8,0:0:0:0:
160,96,310393,1,0,0:0:0:0:
160,96,310474,1,0,0:0:0:0:
160,96,310556,1,0,0:0:0:0:
160,96,310719,1,0,0:0:0:0:
352,96,310882,1,8,0:0:0:0:
160,96,310963,1,0,0:0:0:0:
160,96,311045,1,0,0:0:0:0:
160,96,311126,1,0,0:0:0:0:
160,96,311208,1,0,0:0:0:0:
160,96,311371,1,0,0:0:0:0:
352,96,311534,1,8,0:0:0:0:
160,96,311615,1,0,0:0:0:0:
160,96,311697,1,0,0:0:0:0:
160,96,311778,1,0,0:0:0:0:
160,96,311860,1,0,0:0:0:0:
160,96,312023,1,0,0:0:0:0:
352,96,312186,1,8,0:0:0:0:
352,96,312268,1,8,0:0:0:0:
160,96,312349,1,0,0:0:0:0:
160,96,312431,1,0,0:0:0:0:
160,96,312512,1,0,0:0:0:0:
160,96,312675,1,0,0:0:0:0:
160,96,312757,1,0,0:0:0:0:
352,96,312838,1,8,0:0:0:0:
352,96,312920,1,8,0:0:0:0:
352,96,313001,1,8,0:0:0:0:
160,96,313083,1,0,0:0:0:0:
160,96,313164,1,0,0:0:0:0:
160,96,313327,1,0,0:0:0:0:
352,96,313490,1,8,0:0:0:0:
160,96,313572,1,0,0:0:0:0:
160,96,313653,1,0,0:0:0:0:
160,96,313735,1,0,0:0:0:0:
160,96,313816,1,0,0:0:0:0:
160,96,313979,1,0,0:0:0:0:
352,96,314142,1,8,0:0:0:0:
160,96,314224,1,0,0:0:0:0:
160,96,314305,1,0,0:0:0:0:
160,96,314387,1,0,0:0:0:0:
160,96,314469,1,0,0:0:0:0:
160,96,314632,1,0,0:0:0:0:
352,96,314795,1,8,0:0:0:0:
352,96,314876,1,8,0:0:0:0:
160,96,314958,1,0,0:0:0:0:
160,96,315039,1,0,0:0:0:0:
352,96,315121,1,8,0:0:0:0:
352,96,315202,1,8,0:0:0:0:
352,96,315284,1,8,0:0:0:0:
352,96,315365,1,8,0:0:0:0:
352,96,315447,1,8,0:0:0:0:
352,96,315528,1,8,0:0:0:0:
352,96,315610,1,8,0:0:0:0:
352,96,315691,1,8,0:0:0:0:
160,96,315773,1,0,0:0:0:0:
160,96,315854,1,0,0:0:0:0:
160,96,315936,1,0,0:0:0:0:
352,288,316099,1,12,0:0:0:0:
160,96,316262,1,0,0:0:0:0:
160,96,316425,1,0,0:0:0:0:
160,96,316506,1,0,0:0:0:0:
160,96,316588,1,0,0:0:0:0:
352,288,316751,1,12,0:0:0:0:
160,96,316914,1,0,0:0:0:0:
160,96,317077,1,0,0:0:0:0:
352,96,317159,1,8,0:0:0:0:
160,96,317240,1,0,0:0:0:0:
352,288,317403,1,12,0:0:0:0:
160,96,317566,1,0,0:0:0:0:
160,96,317729,1,0,0:0:0:0:
160,96,317811,1,0,0:0:0:0:
352,96,317892,1,8,0:0:0:0:
352,96,317974,1,8,0:0:0:0:
160,96,318055,1,0,0:0:0:0:
352,96,318137,1,8,0:0:0:0:
352,96,318218,1,8,0:0:0:0:
352,96,318300,1,8,0:0:0:0:
160,96,318381,1,0,0:0:0:0:
160,96,318463,1,0,0:0:0:0:
160,96,318544,1,0,0:0:0:0:
352,288,318707,1,12,0:0:0:0:
160,96,318870,1,0,0:0:0:0:
160,96,319033,1,0,0:0:0:0:
352,96,319115,1,8,0:0:0:0:
160,96,319196,1,0,0:0:0:0:
352,288,319360,1,12,0:0:0:0:
160,96,319523,1,0,0:0:0:0:
352,96,319686,1,8,0:0:0:0:
352,96,319767,1,8,0:0:0:0:
160,96,319849,1,0,0:0:0:0:
352,288,320012,1,12,0:0:0:0:
160,96,320175,1,0,0:0:0:0:
160,96,320338,1,0,0:0:0:0:
160,96,320419,1,0,0:0:0:0:
352,96,320501,1,8,0:0:0:0:
160,96,320582,1,0,0:0:0:0:
352,96,320664,1,8,0:0:0:0:
352,96,320745,1,8,0:0:0:0:
352,96,320827,1,8,0:0:0:0:
352,96,320908,1,8,0:0:0:0:
160,96,320990,1,0,0:0:0:0:
160,96,321153,1,0,0:0:0:0:
160,96,321234,1,0,0:0:0:0:
352,96,321316,1,8,0:0:0:0:
352,96,321397,1,8,0:0:0:0:
160,96,321479,1,0,0:0:0:0:
160,96,321642,1,0,0:0:0:0:
352,96,321724,1,8,0:0:0:0:
160,96,321805,1,0,0:0:0:0:
160,96,321887,1,0,0:0:0:0:
352,96,321968,1,8,0:0:0:0:
352,96,322050,1,8,0:0:0:0:
160,96,322131,1,0,0:0:0:0:
160,96,322294,1,0,0:0:0:0:
160,96,322376,1,0,0:0:0:0:
352,96,322457,1,8,0:0:0:0:
160,96,322539,1,0,0:0:0:0:
352,96,322620,1,8,0:0:0:0:
352,96,322702,1,8,0:0:0:0:
160,96,322783,1,0,0:0:0:0:
160,96,322946,1,0,0:0:0:0:
160,96,323028,1,0,0:0:0:0:
352,96,323109,1,8,0:0:0:0:
352,96,323272,1,8,0:0:0:0:
352,96,323354,1,8,0:0:0:0:
352,96,323435,1,8,0:0:0:0:
352,96,323517,1,8,0:0:0:0:
160,96,323598,1,0,0:0:0:0:
352,96,323761,1,8,0:0:0:0:
352,96,323924,1,8,0:0:0:0:
160,96,324087,1,0,0:0:0:0:
160,96,324169,1,0,0:0:0:0:
352,96,324251,1,8,0:0:0:0:
352,96,324332,1,8,0:0:0:0:
160,96,324414,1,0,0:0:0:0:
160,96,324495,1,0,0:0:0:0:
352,96,324577,1,8,0:0:0:0:
160,96,324658,1,0,0:0:0:0:
352,96,324740,1,8,0:0:0:0:
352,96,324903,1,8,0:0:0:0:
160,96,324984,1,0,0:0:0:0:
352,96,325066,1,8,0:0:0:0:
160,96,325147,1,0,0:0:0:0:
352,96,325229,1,8,0:0:0:0:
352,96,325310,1,8,0:0:0:0:
352,96,325392,1,8,0:0:0:0:
160,96,325473,1,0,0:0:0:0:
352,96,325555,1,8,0:0:0:0:
352,96,325636,1,8,0:0:0:0:
352,96,325718,1,8,0:0:0:0:
352,96,325799,1,8,0:0:0:0:
160,96,325881,1,0,0:0:0:0:
160,96,325962,1,0,0:0:0:0:
160,96,326044,1,0,0:0:0:0:
160,288,326207,1,4,0:0:0:0:
160,96,326370,1,0,0:0:0:0:
352,96,326533,1,8,0:0:0:0:
160,96,326614,1,0,0:0:0:0:
352,96,326696,1,8,0:0:0:0:
160,96,326859,1,0,0:0:0:0:
160,96,327022,1,0,0:0:0:0:
352,96,327185,1,8,0:0:0:0:
352,96,327266,1,8,0:0:0:0:
352,96,327348,1,8,0:0:0:0:
160,96,327511,1,0,0:0:0:0:
160,96,327592,1,0,0:0:0:0:
160,96,327674,1,0,0:0:0:0:
352,96,327837,1,8,0:0:0:0:
160,96,327918,1,0,0:0:0:0:
352,96,328000,1,8,0:0:0:0:
160,96,328163,1,0,0:0:0:0:
352,288,328326,1,12,0:0:0:0:
160,96,328489,1,0,0:0:0:0:
352,288,328652,1,12,0:0:0:0:
160,288,328815,1,4,0:0:0:0:
160,96,328978,1,0,0:0:0:0:
352,96,329141,1,8,0:0:0:0:
160,96,329223,1,0,0:0:0:0:
352,96,329304,1,8,0:0:0:0:
160,96,329467,1,0,0:0:0:0:
160,96,329549,1,0,0:0:0:0:
160,96,329630,1,0,0:0:0:0:
352,96,329793,1,8,0:0:0:0:
352,96,329875,1,8,0:0:0:0:
352,96,329956,1,8,0:0:0:0:
160,96,330119,1,0,0:0:0:0:
160,96,330201,1,0,0:0:0:0:
160,96,330282,1,0,0:0:0:0:
160,96,330364,1,0,0:0:0:0:
352,96,330446,1,8,0:0:0:0:
160,96,330527,1,0,0:0:0:0:
352,96,330609,1,8,0:0:0:0:
160,96,330772,1,0,0:0:0:0:
352,288,330935,1,12,0:0:0:0:
160,96,331098,1,0,0:0:0:0:
352,288,331261,1,12,0:0:0:0:
160,288,331424,1,4,0:0:0:0:
160,96,331587,1,0,0:0:0:0:
160,96,331668,1,0,0:0:0:0:
352,96,331750,1,8,0:0:0:0:
160,96,331831,1,0,0:0:0:0:
352,96,331913,1,8,0:0:0:0:
160,96,332076,1,0,0:0:0:0:
160,96,332158,1,0,0:0:0:0:
160,96,332239,1,0,0:0:0:0:
160,96,332320,1,0,0:0:0:0:
352,96,332402,1,8,0:0:0:0:
352,96,332483,1,8,0:0:0:0:
352,96,332565,1,8,0:0:0:0:
160,96,332728,1,0,0:0:0:0:
160,96,332809,1,0,0:0:0:0:
160,96,332891,1,0,0:0:0:0:
160,96,332973,1,0,0:0:0:0:
352,96,333054,1,8,0:0:0:0:
160,96,333136,1,0,0:0:0:0:
352,96,333217,1,8,0:0:0:0:
160,96,333380,1,0,0:0:0:0:
352,288,333543,1,12,0:0:0:0:
160,96,333706,1,0,0:0:0:0:
352,288,333869,1,12,0:0:0:0:
160,288,334033,1,4,0:0:0:0:
160,96,334196,1,0,0:0:0:0:
160,96,334277,1,0,0:0:0:0:
352,96,334359,1,8,0:0:0:0:
160,96,334440,1,0,0:0:0:0:
352,96,334522,1,8,0:0:0:0:
160,96,334603,1,0,0:0:0:0:
160,96,334685,1,0,0:0:0:0:
160,96,334766,1,0,0:0:0:0:
160,96,334848,1,0,0:0:0:0:
160,96,334929,1,0,0:0:0:0:
352,96,335011,1,8,0:0:0:0:
352,96,335092,1,8,0:0:0:0:
352,96,335174,1,8,0:0:0:0:
160,96,335255,1,0,0:0:0:0:
352,96,335337,1,8,0:0:0:0:
352,96,335418,1,8,0:0:0:0:
352,96,335500,1,8,0:0:0:0:
352,96,335581,1,8,0:0:0:0:
160,96,335663,1,0,0:0:0:0:
160,96,335744,1,0,0:0:0:0:
160,96,335826,1,0,0:0:0:0:
160,96,335907,1,0,0:0:0:0:
352,96,335989,1,8,0:0:0:0:
352,288,336152,1,12,0:0:0:0:
160,96,336315,1,0,0:0:0:0:
352,288,336478,1,12,0:0:0:0:
352,96,336641,1,8,0:0:0:0:
160,96,336723,1,0,0:0:0:0:
160,96,336804,1,0,0:0:0:0:
160,96,336886,1,0,0:0:0:0:
352,96,336967,1,8,0:0:0:0:
160,96,337049,1,0,0:0:0:0:
160,96,337130,1,0,0:0:0:0:
160,96,337212,1,0,0:0:0:0:
352,96,337293,1,8,0:0:0:0:
160,96,337375,1,0,0:0:0:0:
160,96,337456,1,0,0:0:0:0:
160,96,337538,1,0,0:0:0:0:
352,96,337619,1,8,0:0:0:0:
160,96,337701,1,0,0:0:0:0:
160,96,337782,1,0,0:0:0:0:
160,96,337864,1,0,0:0:0:0:
352,288,337945,1,12,0:0:0:0:
