osu file format v14

[General]
AudioFilename: audio.mp3
AudioLeadIn: 0
PreviewTime: 93871
Countdown: 0
SampleSet: Normal
StackLeniency: 0.5
Mode: 0
LetterboxInBreaks: 0
WidescreenStoryboard: 1

[Editor]
DistanceSpacing: 0.6
BeatDivisor: 4
GridSize: 16
TimelineZoom: 2.400005

[Metadata]
Title:A Voice In The Dark
TitleUnicode:A Voice In The Dark
Artist:Blind Guardian
ArtistUnicode:Blind Guardian
Creator:nebuwua
Version:The Angel of Shadow Emerges Once More
Source:
Tags:english symphonic melodic power metal at the edge of time nuclear blast records epic tale fantasy myth Frederik Ehmke Hansi Kürsch André Olbrich Marcus Siepen
BeatmapID:3415931
BeatmapSetID:1672400

[Difficulty]
HPDrainRate:5.6
CircleSize:4.3
OverallDifficulty:9.5
ApproachRate:9.7
SliderMultiplier:2
SliderTickRate:1

[Events]
//Background and Video events
0,0,"philipp-a-urlich-cpncept263-c2.jpg",0,0
//Break Periods
//Storyboard Layer 0 (Background)
//Storyboard Layer 1 (Fail)
//Storyboard Layer 2 (Pass)
//Storyboard Layer 3 (Foreground)
//Storyboard Layer 4 (Overlay)
//Storyboard Sound Samples

[TimingPoints]
122,326.086956521739,4,1,1,75,1,0
448,-100,4,1,2,75,0,0
774,-100,4,1,1,75,0,0
1100,-100,4,1,2,75,0,0
1426,-100,4,1,1,75,0,0
1752,-100,4,1,2,75,0,0
2079,-100,4,1,3,75,0,0
2568,-100,4,1,4,75,0,0
2731,-100,4,1,1,75,0,0
3057,-100,4,1,2,75,0,0
3383,-100,4,1,1,75,0,0
3709,-100,4,1,2,75,0,0
4035,-100,4,1,1,75,0,0
4361,-100,4,1,2,75,0,0
4687,-100,4,1,3,75,0,0
5176,-100,4,1,4,75,0,0
5339,-100,4,1,5,75,0,0
5665,-100,4,1,3,75,0,0
5992,-100,4,1,5,75,0,0
6318,-100,4,1,3,75,0,0
6644,-100,4,1,5,75,0,0
6970,-100,4,1,3,75,0,0
7948,-100,4,1,5,75,0,0
8274,-100,4,1,3,75,0,0
8600,-100,4,1,5,75,0,0
8926,-100,4,1,3,75,0,0
9252,-100,4,1,5,75,0,0
9578,-100,4,1,3,75,0,0
12676,-100,4,1,4,75,0,0
13165,-100,4,1,3,75,0,0
15285,-100,4,1,4,75,0,0
15774,-100,4,1,3,75,0,0
17894,-100,4,1,4,75,0,0
18383,-100,4,1,3,75,0,0
19687,-100,4,1,2,75,0,0
20013,-100,4,1,6,75,0,0
20258,-100,4,1,7,75,0,0
20502,-100,4,1,2,75,0,0
20665,-100,4,1,8,75,0,0
20828,-100,4,1,7,75,0,0
20992,-100,4,1,4,75,0,0
23111,-100,4,1,3,75,0,0
23600,-100,4,1,4,75,0,0
25720,-100,4,1,3,75,0,0
26209,-100,4,1,4,75,0,0
28328,-100,4,1,3,75,0,0
28818,-100,4,1,4,75,0,0
30774,-100,4,1,2,75,0,0
31426,-100,4,1,3,75,0,0
32731,-100,4,1,4,75,0,0
33057,-100,4,1,3,75,0,0
35339,-100,4,1,4,75,0,0
35665,-100,4,1,3,75,0,0
35991,-100,4,1,2,75,0,0
36236,-100,4,1,6,75,0,0
36481,-100,4,1,7,75,0,0
36644,-100,4,1,3,75,0,0
37948,-100,4,1,4,75,0,0
38274,-100,4,1,3,75,0,0
40557,-100,4,1,4,75,0,0
41209,-100,4,1,2,75,0,0
41453,-100,4,1,6,75,0,0
41698,-100,4,1,7,75,0,0
41861,-100,4,1,3,75,0,0
42187,-100,4,1,4,75,0,0
44470,-100,4,1,3,75,0,0
44796,-100,4,1,4,75,0,0
45774,-100,4,1,3,75,0,0
46426,-100,4,1,4,75,0,0
46752,-100,4,1,3,75,0,0
47404,-100,4,1,4,75,0,0
49687,-100,4,1,3,75,0,0
50013,-100,4,1,4,75,0,0
50991,-100,4,1,3,75,0,0
51644,-100,4,1,2,75,0,0
51888,-100,4,1,6,75,0,0
52051,-100,4,1,7,75,0,0
52214,-100,4,1,8,75,0,0
52296,-100,4,1,3,75,0,0
52948,-100,4,1,4,75,0,0
53274,-100,4,1,3,75,0,0
53600,-100,4,1,4,75,0,0
53926,-100,4,1,3,75,0,0
54578,-100,4,1,4,75,0,0
54904,-100,4,1,3,75,0,0
55557,-100,4,1,4,75,0,0
55883,-100,4,1,3,75,0,0
56209,-100,4,1,4,75,0,0
56535,-100,4,1,3,75,0,0
57187,-100,4,1,4,75,0,0
57513,-100,4,1,3,75,0,0
58165,-100,4,1,4,75,0,0
58491,-100,4,1,3,75,0,0
58817,-100,4,1,4,75,0,0
59144,-100,4,1,3,75,0,0
59796,-100,4,1,4,75,0,0
60122,-100,4,1,3,75,0,0
60774,-100,4,1,4,75,0,0
61100,-100,4,1,3,75,0,0
61426,-100,4,1,4,75,0,0
61752,-100,4,1,6,75,0,0
61997,-100,4,1,7,75,0,0
62241,-100,4,1,8,75,0,0
62404,-100,4,1,2,75,0,0
62731,-100,4,1,5,75,0,0
63057,-100,4,1,9,75,0,0
63220,-100,4,1,10,75,0,0
63546,-100,4,1,9,75,0,0
63709,-100,4,1,11,75,0,0
64035,-100,4,1,9,75,0,0
64198,-100,4,1,11,75,0,0
64361,-100,4,1,9,75,0,0
65013,-100,4,1,5,75,0,0
65665,-100,4,1,9,75,0,0
65828,-100,4,1,10,75,0,0
66154,-100,4,1,9,75,0,0
66317,-100,4,1,11,75,0,0
66644,-100,4,1,9,75,0,0
66807,-100,4,1,11,75,0,0
66970,-100,4,1,9,75,0,0
67622,-100,4,1,5,75,0,0
67948,-100,4,1,12,75,0,0
68111,-100,4,1,7,75,0,0
68437,-100,4,1,13,75,0,0
68763,-100,4,1,7,75,0,0
68926,-100,4,1,13,75,0,0
69089,-100,4,1,14,75,0,0
69415,-100,4,1,13,75,0,0
69578,-100,4,1,7,75,0,0
69660,-100,4,1,3,75,0,0
69741,-100,4,1,7,75,0,0
69823,-100,4,1,3,75,0,0
69904,-100,4,1,3,75,0,0
70230,-100,4,1,4,75,0,0
70557,-100,4,1,12,75,0,0
70720,-100,4,1,7,75,0,0
71046,-100,4,1,13,75,0,0
71372,-100,4,1,7,75,0,0
71535,-100,4,1,13,75,0,0
71698,-100,4,1,14,75,0,0
72024,-100,4,1,13,75,0,0
72187,-100,4,1,3,75,0,0
72513,-100,4,1,3,75,0,0
72839,-100,4,1,2,75,0,0
73165,-100,4,1,3,75,0,0
75122,-100,4,1,4,75,0,0
75448,-100,4,1,3,75,0,0
77078,-100,4,1,4,75,0,0
77404,-100,4,1,3,75,0,0
80339,-100,4,1,4,75,0,0
80665,-100,4,1,3,75,0,0
82296,-100,4,1,4,75,0,0
82622,-100,4,1,3,75,0,0
82948,-100,4,1,2,75,0,0
83600,-100,4,1,3,75,0,0
83926,-100,4,1,4,75,0,0
86209,-100,4,1,3,75,0,0
86535,-100,4,1,4,75,0,0
88165,-100,4,1,3,75,0,0
88491,-100,4,1,2,75,0,0
88817,-100,4,1,3,75,0,0
89143,-100,4,1,4,75,0,0
91426,-100,4,1,3,75,0,0
91752,-100,4,1,4,75,0,0
92730,-100,4,1,6,75,0,0
92975,-100,4,1,3,75,0,0
93220,-100,4,1,7,75,0,0
93464,-100,4,1,3,75,0,0
93709,-100,4,1,2,75,0,0
94035,-83.3333333333333,4,1,3,75,0,1
94361,-83.3333333333333,4,1,4,75,0,1
99252,-83.3333333333333,4,1,3,75,0,1
100556,-83.3333333333333,4,1,4,75,0,1
100883,-83.3333333333333,4,1,3,75,0,1
103165,-83.3333333333333,4,1,2,75,0,1
103247,-83.3333333333333,4,1,15,75,0,1
103328,-83.3333333333333,4,1,9,75,0,1
103410,-83.3333333333333,4,1,15,75,0,1
103491,-83.3333333333333,4,1,9,75,0,1
103654,-83.3333333333333,4,1,2,75,0,1
103736,-83.3333333333333,4,1,15,75,0,1
103817,-83.3333333333333,4,1,9,75,0,1
103899,-83.3333333333333,4,1,15,75,0,1
103980,-83.3333333333333,4,1,9,75,0,1
104143,-83.3333333333333,4,1,2,75,0,1
104470,-83.3333333333333,4,1,3,75,0,1
104796,-83.3333333333333,4,1,4,75,0,1
109687,-83.3333333333333,4,1,3,75,0,1
110991,-83.3333333333333,4,1,4,75,0,1
111317,-83.3333333333333,4,1,3,75,0,1
113600,-83.3333333333333,4,1,2,75,0,1
113681,-83.3333333333333,4,1,15,75,0,1
113763,-83.3333333333333,4,1,9,75,0,1
113844,-83.3333333333333,4,1,15,75,0,1
113926,-83.3333333333333,4,1,9,75,0,1
114089,-83.3333333333333,4,1,2,75,0,1
114171,-83.3333333333333,4,1,15,75,0,1
114252,-83.3333333333333,4,1,9,75,0,1
114334,-83.3333333333333,4,1,15,75,0,1
114415,-83.3333333333333,4,1,9,75,0,1
114578,-83.3333333333333,4,1,2,75,0,1
114904,-100,4,1,3,75,0,0
115230,-100,4,1,2,75,0,0
115393,-100,4,1,3,75,0,0
116535,-100,4,1,2,75,0,0
116616,-100,4,1,2,5,0,0
116698,-100,4,1,3,75,0,0
116779,-100,4,1,3,5,0,0
116861,-100,4,1,3,75,0,0
117105,-100,4,1,3,5,0,0
117187,-100,4,1,3,75,0,0
117513,-100,4,1,4,75,0,0
117839,-100,4,1,2,75,0,0
118002,-100,4,1,3,75,0,0
119143,-100,4,1,2,75,0,0
119225,-100,4,1,2,5,0,0
119306,-100,4,1,3,75,0,0
119388,-100,4,1,3,5,0,0
119469,-100,4,1,3,75,0,0
119714,-100,4,1,3,5,0,0
119795,-76.9230769230769,4,1,3,75,0,0
120121,-100,4,1,3,75,0,0
120448,-100,4,1,2,75,0,0
120611,-100,4,1,3,75,0,0
121752,-100,4,1,2,75,0,0
121915,-100,4,1,3,75,0,0
122730,-100,4,1,4,75,0,0
123056,-100,4,1,2,75,0,0
123219,-100,4,1,3,75,0,0
124361,-100,4,1,2,75,0,0
124524,-100,4,1,3,75,0,0
124687,-100,4,1,2,75,0,0
125339,-100,4,1,3,75,0,0
127459,-100,4,1,4,75,0,0
127948,-100,4,1,3,75,0,0
130067,-100,4,1,4,75,0,0
130556,-100,4,1,3,75,0,0
132676,-100,4,1,4,75,0,0
133165,-100,4,1,3,75,0,0
134469,-100,4,1,6,75,0,0
134714,-100,4,1,7,75,0,0
134959,-100,4,1,8,75,0,0
135203,-100,4,1,7,75,0,0
135285,-100,4,1,2,75,0,0
135366,-100,4,1,3,75,0,0
135611,-100,4,1,2,75,0,0
135774,-100,4,1,16,75,0,0
135937,-100,4,1,3,75,0,0
136100,-100,4,1,2,75,0,0
136181,-100,4,1,3,75,0,0
136426,-100,4,1,2,75,0,0
136589,-100,4,1,3,75,0,0
136752,-100,4,1,2,75,0,0
136834,-100,4,1,3,75,0,0
137078,-100,4,1,2,75,0,0
137241,-100,4,1,3,75,0,0
137404,-100,4,1,2,75,0,0
137486,-100,4,1,3,75,0,0
137730,-100,4,1,2,75,0,0
137893,-100,4,1,3,75,0,0
138056,-100,4,1,2,75,0,0
138138,-100,4,1,3,75,0,0
138382,-100,4,1,2,75,0,0
138546,-100,4,1,3,75,0,0
138709,-100,4,1,2,75,0,0
138790,-100,4,1,3,75,0,0
139687,-100,4,1,16,75,0,0
140665,-100,4,1,7,75,0,0
140828,-100,4,1,8,75,0,0
140991,-100,4,1,4,75,0,0
141317,-100,4,1,2,75,0,0
141399,-100,4,1,3,75,0,0
141643,-100,4,1,2,75,0,0
141806,-100,4,1,3,75,0,0
141969,-100,4,1,2,75,0,0
142051,-100,4,1,3,75,0,0
142295,-100,4,1,2,75,0,0
142459,-100,4,1,3,75,0,0
142622,-100,4,1,2,75,0,0
142703,-100,4,1,3,75,0,0
142948,-100,4,1,2,75,0,0
143111,-100,4,1,3,75,0,0
143274,-100,4,1,2,75,0,0
143355,-100,4,1,3,75,0,0
143600,-100,4,1,2,75,0,0
143763,-100,4,1,3,75,0,0
143926,-100,4,1,2,75,0,0
144007,-100,4,1,3,75,0,0
144904,-100,4,1,16,75,0,0
146209,-100,4,1,3,75,0,0
146535,-100,4,1,4,75,0,0
148817,-100,4,1,3,75,0,0
149143,-100,4,1,4,75,0,0
151426,-100,4,1,3,75,0,0
151752,-100,4,1,4,75,0,0
154035,-100,4,1,3,75,0,0
154361,-100,4,1,4,75,0,0
156643,-100,4,1,11,75,0,0
157132,-100,4,1,7,75,0,0
157458,-100,4,1,8,75,0,0
157622,-100,4,1,5,75,0,0
158111,-100,4,1,7,75,0,0
158437,-100,4,1,8,75,0,0
158600,-100,4,1,16,75,0,0
159089,-100,4,1,3,75,0,0
159578,-100,4,1,17,75,0,0
161535,-100,4,1,18,75,0,0
161616,-100,4,1,17,75,0,0
164143,-100,4,1,18,75,0,0
164225,-100,4,1,17,75,0,0
166100,-100,4,1,2,75,0,0
167078,-100,4,1,3,75,0,0
169035,-100,4,1,4,75,0,0
169687,-100,4,1,3,75,0,0
170991,-100,4,1,4,75,0,0
171317,-100,4,1,3,75,0,0
171643,-100,4,1,4,75,0,0
172295,-100,4,1,3,75,0,0
174252,-100,4,1,4,75,0,0
174904,-100,4,1,3,75,0,0
176208,-100,4,1,4,75,0,0
176535,-100,4,1,3,75,0,0
176861,-100,4,1,2,75,0,0
177187,-100,4,1,7,75,0,0
177350,-100,4,1,8,75,0,0
177513,-100,4,1,3,75,0,0
177839,-100,4,1,4,75,0,0
180121,-100,4,1,3,75,0,0
180448,-100,4,1,4,75,0,0
182078,-100,4,1,6,75,0,0
182404,-100,4,1,7,75,0,0
182730,-100,4,1,3,75,0,0
183056,-100,4,1,4,75,0,0
185339,-100,4,1,3,75,0,0
185665,-100,4,1,4,75,0,0
186643,-100,4,1,6,75,0,0
186969,-100,4,1,7,75,0,0
187295,-100,4,1,8,75,0,0
187621,-100,4,1,7,75,0,0
187948,-83.3333333333333,4,1,3,75,0,1
188274,-83.3333333333333,4,1,4,75,0,1
193165,-83.3333333333333,4,1,3,75,0,1
194469,-83.3333333333333,4,1,4,75,0,1
194795,-83.3333333333333,4,1,3,75,0,1
197078,-83.3333333333333,4,1,2,75,0,1
197159,-83.3333333333333,4,1,15,75,0,1
197241,-83.3333333333333,4,1,9,75,0,1
197323,-83.3333333333333,4,1,15,75,0,1
197404,-83.3333333333333,4,1,9,75,0,1
197567,-83.3333333333333,4,1,2,75,0,1
197649,-83.3333333333333,4,1,15,75,0,1
197730,-83.3333333333333,4,1,9,75,0,1
197812,-83.3333333333333,4,1,15,75,0,1
197893,-83.3333333333333,4,1,9,75,0,1
198056,-83.3333333333333,4,1,2,75,0,1
198382,-83.3333333333333,4,1,3,75,0,1
198708,-83.3333333333333,4,1,4,75,0,1
203600,-83.3333333333333,4,1,3,75,0,1
204904,-83.3333333333333,4,1,4,75,0,1
205230,-83.3333333333333,4,1,3,75,0,1
207513,-83.3333333333333,4,1,2,75,0,1
207594,-83.3333333333333,4,1,15,75,0,1
207676,-83.3333333333333,4,1,9,75,0,1
207757,-83.3333333333333,4,1,15,75,0,1
207839,-83.3333333333333,4,1,9,75,0,1
208002,-83.3333333333333,4,1,2,75,0,1
208083,-83.3333333333333,4,1,15,75,0,1
208165,-83.3333333333333,4,1,9,75,0,1
208246,-83.3333333333333,4,1,15,75,0,1
208328,-83.3333333333333,4,1,9,75,0,1
208491,-83.3333333333333,4,1,2,75,0,1
208817,-100,4,1,3,75,0,0
209143,-100,4,1,2,75,0,0
209252,-100,4,1,3,75,0,0
209795,-100,4,1,2,75,0,0
209904,-100,4,1,3,75,0,0
210447,-100,4,1,2,75,0,0
210774,-100,4,1,3,75,0,0
211100,-100,4,1,2,75,0,0
211426,-100,4,1,3,75,0,0
211752,-100,4,1,2,75,0,0
211861,-100,4,1,3,75,0,0
212404,-100,4,1,2,75,0,0
212513,-100,4,1,3,75,0,0
213056,-100,4,1,2,75,0,0
213382,-100,4,1,3,75,0,0
213708,-100,4,1,2,75,0,0
214034,-100,4,1,3,75,0,0
214361,-100,4,1,2,75,0,0
214469,-100,4,1,3,75,0,0
215013,-100,4,1,2,75,0,0
215121,-100,4,1,3,75,0,0
215665,-100,4,1,2,75,0,0
215991,-100,4,1,3,75,0,0
216317,-100,4,1,2,75,0,0
216643,-100,4,1,3,75,0,0
216969,-100,4,1,2,75,0,0
217078,-100,4,1,3,75,0,0
217621,-100,4,1,2,75,0,0
217730,-100,4,1,3,75,0,0
218274,-100,4,1,2,75,0,0
218600,-100,4,1,3,75,0,0
218926,-100,4,1,2,75,0,0
219252,-100,4,1,13,75,0,0
219469,-100,4,1,9,75,0,0
219904,-100,4,1,1,75,0,0
220121,-100,4,1,19,75,0,0
220556,-100,4,1,1,75,0,0
220774,-100,4,1,9,75,0,0
221208,-100,4,1,2,75,0,0
221860,-100,4,1,3,75,0,0
222187,-100,4,1,4,75,0,0
224469,-100,4,1,3,75,0,0
224795,-100,4,1,4,75,0,0
226426,-100,4,1,3,75,0,0
226752,-100,4,1,15,75,0,0
226915,-100,4,1,9,75,0,0
227078,-100,4,1,3,75,0,0
227404,-100,4,1,4,75,0,0
229687,-100,4,1,3,75,0,0
230013,-100,4,1,4,75,0,0
230991,-100,4,1,9,75,0,0
231317,-100,4,1,19,75,0,0
231643,-100,4,1,2,75,0,0
232295,-100,4,1,3,75,0,0
234578,-100,4,1,4,75,0,0
234904,-100,4,1,3,75,0,0
236860,-100,4,1,17,75,0,0
237513,-100,4,1,3,75,0,0
239795,-100,4,1,4,75,0,0
240121,-100,4,1,3,75,0,0
240773,-100,4,1,4,75,0,0
241100,-100,4,1,3,75,0,0
242078,-100,4,1,5,75,0,0
242730,-100,4,1,3,75,0,0
243056,-100,4,1,4,75,0,0
245339,-100,4,1,3,75,0,0
245665,-100,4,1,4,75,0,0
247621,-100,4,1,2,75,0,0
247866,-100,4,1,3,75,0,0
248273,-100,4,1,4,75,0,0
250556,-100,4,1,3,75,0,0
250882,-100,4,1,4,75,0,0
251860,-100,4,1,2,75,0,0
251942,-100,4,1,6,75,0,0
252023,-100,4,1,7,75,0,0
252105,-100,4,1,6,75,0,0
252186,-100,4,1,2,75,0,0
252268,-100,4,1,6,75,0,0
252350,-100,4,1,7,75,0,0
252431,-100,4,1,6,75,0,0
252513,-100,4,1,2,75,0,0
252594,-100,4,1,7,75,0,0
252839,-100,4,1,8,75,0,0
253083,-100,4,1,7,75,0,0
253165,-100,4,1,3,75,0,0
255773,-100,4,1,4,75,0,0
256100,-100,4,1,3,75,0,0
261643,-100,4,1,4,75,0,0
261969,-100,4,1,3,75,0,0
265882,-100,4,1,16,75,0,0
265964,-100,4,1,3,75,0,0
268491,-100,4,1,16,75,0,0
268572,-100,4,1,3,75,0,0
271099,-100,4,1,16,75,0,0
271181,-100,4,1,3,75,0,0
273056,-100,4,1,16,75,0,0
273382,-100,4,1,6,75,0,0
273627,-100,4,1,7,75,0,0
273871,-100,4,1,8,75,0,0
274034,-100,4,1,3,75,0,0
274360,-100,4,1,4,75,0,0
276643,-100,4,1,3,75,0,0
276969,-100,4,1,4,75,0,0
279252,-100,4,1,3,75,0,0
279578,-100,4,1,4,75,0,0
281860,-100,4,1,3,75,0,0
282186,-100,4,1,4,75,0,0
283165,-100,4,1,6,75,0,0
283409,-100,4,1,3,75,0,0
283654,-100,4,1,7,75,0,0
283898,-100,4,1,3,75,0,0
284143,-100,4,1,7,75,0,0
284387,-100,4,1,3,75,0,0
284469,-83.3333333333333,4,1,3,75,0,1
284795,-83.3333333333333,4,1,4,75,0,1
289686,-83.3333333333333,4,1,3,75,0,1
290991,-83.3333333333333,4,1,4,75,0,1
291317,-83.3333333333333,4,1,3,75,0,1
293599,-83.3333333333333,4,1,2,75,0,1
293681,-83.3333333333333,4,1,15,75,0,1
293762,-83.3333333333333,4,1,9,75,0,1
293844,-83.3333333333333,4,1,15,75,0,1
293925,-83.3333333333333,4,1,9,75,0,1
294089,-83.3333333333333,4,1,2,75,0,1
294170,-83.3333333333333,4,1,15,75,0,1
294252,-83.3333333333333,4,1,9,75,0,1
294333,-83.3333333333333,4,1,15,75,0,1
294415,-83.3333333333333,4,1,9,75,0,1
294578,-83.3333333333333,4,1,2,75,0,1
294659,-83.3333333333333,4,1,15,75,0,1
294741,-83.3333333333333,4,1,9,75,0,1
294822,-83.3333333333333,4,1,15,75,0,1
294904,-83.3333333333333,4,1,3,75,0,1
295230,-83.3333333333333,4,1,4,75,0,1
300121,-83.3333333333333,4,1,3,75,0,1
301425,-83.3333333333333,4,1,4,75,0,1
301752,-83.3333333333333,4,1,3,75,0,1
304034,-83.3333333333333,4,1,5,75,0,1
305012,-83.3333333333333,4,1,2,75,0,1
305339,-100,4,1,5,75,0,0
307295,-100,4,1,1,75,0,0
307458,-100,4,1,9,75,0,0
307703,-100,4,1,19,75,0,0
307947,-100,4,1,5,75,0,0
309904,-100,4,1,1,75,0,0
310067,-100,4,1,9,75,0,0
310311,-100,4,1,19,75,0,0
310556,-100,4,1,5,75,0,0
312512,-100,4,1,1,75,0,0
312675,-100,4,1,9,75,0,0
312920,-100,4,1,19,75,0,0
313165,-100,4,1,5,75,0,0
315121,-100,4,1,2,75,0,0
315773,-100,4,1,3,75,0,0
316752,-100,4,1,4,75,0,0
317078,-100,4,1,3,75,0,0
317893,-100,4,1,4,75,0,0
318056,-100,4,1,2,75,0,0
318382,-100,4,1,3,75,0,0
319360,-100,4,1,4,75,0,0
319686,-100,4,1,3,75,0,0
320501,-100,4,1,4,75,0,0
320665,-100,4,1,2,75,0,0
320991,-100,4,1,3,75,0,0
321969,-100,4,1,4,75,0,0
322295,-100,4,1,3,75,0,0
323110,-100,4,1,4,75,0,0
323273,-100,4,1,2,75,0,0
323599,-100,4,1,3,75,0,0
324578,-100,4,1,4,75,0,0
324904,-100,4,1,3,75,0,0
325556,-100,4,1,2,75,0,0
325800,-100,4,1,6,75,0,0
326045,-100,4,1,7,75,0,0
326208,-100,4,1,3,75,0,0
328328,-100,4,1,4,75,0,0
328817,-100,4,1,3,75,0,0
330936,-100,4,1,4,75,0,0
331425,-100,4,1,3,75,0,0
333545,-100,4,1,4,75,0,0
334034,-100,4,1,3,75,0,0
335338,-100,4,1,2,75,0,0
335583,-100,4,1,15,75,0,0
335828,-100,4,1,9,75,0,0
335991,-100,4,1,16,75,0,0
336073,-100,4,1,16,5,0,0
336154,-100,4,1,2,75,0,0
336236,-100,4,1,3,75,0,0
336643,-100,4,1,5,75,0,0
337947,-100,4,1,20,75,0,0

[Colours]
Combo1 : 94,81,66
Combo2 : 215,217,169
Combo3 : 166,148,96
Combo4 : 140,109,70

[HitObjects]
304,368,122,5,8,3:3:0:0:
304,368,285,1,8,3:3:0:0:
384,272,448,5,8,3:3:0:0:
376,222,529,1,8,3:3:0:0:
368,172,611,1,8,3:3:0:0:
208,288,774,5,8,3:3:0:0:
208,288,937,1,8,3:3:0:0:
128,192,1100,5,8,3:3:0:0:
136,142,1181,1,8,3:3:0:0:
144,92,1263,1,8,3:3:0:0:
304,208,1426,5,8,3:3:0:0:
304,208,1589,1,8,3:3:0:0:
384,112,1752,5,8,3:3:0:0:
376,62,1833,1,8,3:3:0:0:
368,12,1915,1,8,3:3:0:0:
195,226,2078,5,0,3:3:0:0:
191,250,2160,1,0,3:3:0:0:
187,274,2241,5,12,3:3:0:0:
212,317,2323,1,0,3:3:0:0:
258,333,2404,1,0,3:3:0:0:
306,320,2486,1,0,3:3:0:0:
337,281,2567,1,12,3:3:0:0:
384,264,2649,1,0,3:3:0:0:
430,281,2730,5,8,3:3:0:0:
430,281,2893,1,8,3:3:0:0:
348,181,3056,5,8,3:3:0:0:
298,173,3137,1,8,3:3:0:0:
248,165,3219,1,8,3:3:0:0:
129,361,3382,5,8,3:3:0:0:
129,361,3545,1,8,3:3:0:0:
211,261,3708,5,8,3:3:0:0:
261,253,3789,1,8,3:3:0:0:
311,245,3871,1,8,3:3:0:0:
219,382,4035,5,8,3:3:0:0:
219,382,4198,1,8,3:3:0:0:
137,282,4361,5,8,3:3:0:0:
87,274,4442,1,8,3:3:0:0:
37,266,4524,1,8,3:3:0:0:
282,341,4687,5,0,3:3:0:0:
306,337,4768,1,0,3:3:0:0:
330,333,4850,5,12,3:3:0:0:
361,294,4931,1,0,3:3:0:0:
361,243,5013,1,0,3:3:0:0:
332,202,5094,1,0,3:3:0:0:
284,184,5176,1,12,3:3:0:0:
235,193,5257,1,0,3:3:0:0:
203,231,5339,5,8,3:3:0:0:
227,262,5420,1,0,3:3:0:0:
266,271,5502,1,8,3:3:0:0:
304,260,5583,1,0,3:3:0:0:
331,230,5665,5,8,3:3:0:0:
331,230,5746,1,8,3:3:0:0:
331,230,5828,2,0,L|322:143,1,50,8|0,3:3|3:3,0:0:0:0:
201,93,5991,5,8,3:3:0:0:
161,98,6073,1,0,3:3:0:0:
121,103,6154,1,8,3:3:0:0:
81,109,6236,1,0,3:3:0:0:
41,115,6317,5,8,3:3:0:0:
41,115,6399,1,8,3:3:0:0:
41,115,6480,2,0,L|25:179,1,50,8|0,3:3|3:3,0:0:0:0:
138,268,6643,5,8,3:3:0:0:
124,305,6725,1,0,3:3:0:0:
93,329,6806,1,8,3:3:0:0:
53,335,6888,1,0,3:3:0:0:
17,317,6969,5,8,3:3:0:0:
17,317,7051,1,8,3:3:0:0:
17,317,7132,2,0,L|7:256,1,50,8|0,3:3|3:3,0:0:0:0:
202,206,7295,5,0,3:3:0:0:
226,210,7377,1,0,3:3:0:0:
250,214,7458,5,12,3:3:0:0:
297,198,7540,1,0,3:3:0:0:
323,155,7621,1,0,3:3:0:0:
320,104,7703,1,0,3:3:0:0:
290,63,7785,1,12,3:3:0:0:
242,47,7866,1,0,3:3:0:0:
192,55,7948,5,8,3:3:0:0:
204,92,8029,1,0,3:3:0:0:
240,109,8111,1,8,3:3:0:0:
279,106,8192,1,0,3:3:0:0:
310,80,8274,5,8,3:3:0:0:
310,80,8355,1,8,3:3:0:0:
310,80,8437,2,0,L|318:6,1,50,8|0,3:3|3:3,0:0:0:0:
400,162,8600,5,8,3:3:0:0:
408,200,8681,1,0,3:3:0:0:
416,239,8763,1,8,3:3:0:0:
424,277,8844,1,0,3:3:0:0:
433,316,8926,5,8,3:3:0:0:
433,316,9007,1,8,3:3:0:0:
433,316,9089,2,0,L|351:300,1,50,8|0,3:3|3:3,0:0:0:0:
234,241,9252,5,8,3:3:0:0:
204,215,9333,1,0,3:3:0:0:
165,207,9415,1,8,3:3:0:0:
128,221,9496,1,0,3:3:0:0:
106,255,9578,5,8,3:3:0:0:
106,255,9660,1,8,3:3:0:0:
106,255,9741,2,0,L|116:323,1,50,8|0,3:3|3:3,0:0:0:0:
252,356,9904,5,8,3:3:0:0:
306,330,9986,1,8,3:3:0:0:
334,277,10067,1,8,3:3:0:0:
324,217,10149,1,8,3:3:0:0:
279,176,10230,1,8,3:3:0:0:
222,155,10312,1,8,3:3:0:0:
198,100,10393,1,8,3:3:0:0:
209,40,10475,1,8,3:3:0:0:
258,7,10556,5,12,3:3:0:0:
286,48,10638,1,0,3:3:0:0:
280,97,10719,1,0,3:3:0:0:
243,131,10801,1,0,3:3:0:0:
193,136,10882,1,10,3:3:0:0:
148,113,10964,1,0,3:3:0:0:
98,117,11045,1,0,3:3:0:0:
65,155,11127,1,0,3:3:0:0:
62,204,11208,1,10,3:3:0:0:
89,245,11290,1,0,3:3:0:0:
136,259,11371,1,0,3:3:0:0:
182,238,11453,1,0,3:3:0:0:
208,195,11535,1,10,3:3:0:0:
254,176,11616,1,0,3:3:0:0:
302,188,11698,1,0,3:3:0:0:
329,229,11779,1,0,3:3:0:0:
329,279,11861,5,10,3:3:0:0:
298,317,11942,1,0,3:3:0:0:
249,328,12024,1,0,3:3:0:0:
203,308,12105,1,0,3:3:0:0:
186,260,12187,1,10,3:3:0:0:
202,213,12268,1,0,3:3:0:0:
247,190,12350,1,0,3:3:0:0:
275,149,12431,1,0,3:3:0:0:
276,98,12513,2,0,L|217:108,1,50,10|0,3:3|3:3,0:0:0:0:
45,174,12676,5,12,3:3:0:0:
48,188,12757,1,0,3:3:0:0:
51,202,12839,1,0,3:3:0:0:
53,216,12920,1,0,3:3:0:0:
55,230,13002,2,0,L|114:240,1,50,12|0,3:3|3:3,0:0:0:0:
337,265,13165,5,12,3:3:0:0:
384,251,13246,1,0,3:3:0:0:
414,211,13328,1,0,3:3:0:0:
417,160,13410,1,0,3:3:0:0:
386,121,13491,1,10,3:3:0:0:
338,105,13573,1,0,3:3:0:0:
291,123,13654,1,0,3:3:0:0:
266,166,13736,1,0,3:3:0:0:
226,195,13817,1,10,3:3:0:0:
175,191,13899,1,0,3:3:0:0:
143,152,13980,1,0,3:3:0:0:
141,101,14062,1,0,3:3:0:0:
172,62,14143,1,10,3:3:0:0:
220,49,14225,1,0,3:3:0:0:
267,62,14306,1,0,3:3:0:0:
298,101,14388,1,0,3:3:0:0:
304,150,14469,5,10,3:3:0:0:
281,195,14551,1,0,3:3:0:0:
241,225,14632,1,0,3:3:0:0:
234,274,14714,1,0,3:3:0:0:
247,321,14795,1,10,3:3:0:0:
291,344,14877,1,0,3:3:0:0:
340,337,14958,1,0,3:3:0:0:
372,298,15040,1,0,3:3:0:0:
372,248,15121,2,0,L|361:181,1,50,10|0,3:3|3:3,0:0:0:0:
236,78,15285,5,12,3:3:0:0:
221,75,15366,1,0,3:3:0:0:
206,73,15448,1,0,3:3:0:0:
191,71,15529,1,0,3:3:0:0:
176,69,15611,2,0,L|165:136,1,50,12|0,3:3|3:3,0:0:0:0:
113,302,15774,5,12,3:3:0:0:
142,347,15855,1,0,3:3:0:0:
194,363,15937,1,0,3:3:0:0:
245,344,16018,1,0,3:3:0:0:
272,296,16100,1,10,3:3:0:0:
275,241,16181,1,0,3:3:0:0:
243,195,16263,1,0,3:3:0:0:
224,143,16344,1,0,3:3:0:0:
237,89,16426,1,10,3:3:0:0:
280,55,16507,1,0,3:3:0:0:
335,51,16589,1,0,3:3:0:0:
383,75,16670,1,0,3:3:0:0:
407,124,16752,1,10,3:3:0:0:
403,178,16833,1,0,3:3:0:0:
371,223,16915,1,0,3:3:0:0:
319,240,16996,1,0,3:3:0:0:
265,226,17078,5,10,3:3:0:0:
226,186,17160,1,0,3:3:0:0:
203,136,17241,1,0,3:3:0:0:
153,111,17323,1,0,3:3:0:0:
98,117,17404,1,10,3:3:0:0:
61,158,17486,1,0,3:3:0:0:
53,212,17567,1,0,3:3:0:0:
80,259,17649,1,0,3:3:0:0:
130,278,17730,2,0,L|208:270,1,50,10|0,3:3|3:3,0:0:0:0:
437,302,17893,5,12,3:3:0:0:
440,316,17975,1,0,3:3:0:0:
443,330,18056,1,0,3:3:0:0:
447,344,18138,1,0,3:3:0:0:
451,358,18219,2,0,L|373:350,1,50,12|0,3:3|3:3,0:0:0:0:
277,243,18382,5,12,3:3:0:0:
248,195,18464,1,0,3:3:0:0:
256,140,18545,1,0,3:3:0:0:
297,103,18627,1,0,3:3:0:0:
351,100,18708,1,10,3:3:0:0:
396,130,18790,1,0,3:3:0:0:
412,182,18871,1,0,3:3:0:0:
394,234,18953,1,0,3:3:0:0:
346,262,19035,1,10,3:3:0:0:
291,261,19116,1,0,3:3:0:0:
249,224,19198,1,0,3:3:0:0:
236,170,19279,1,0,3:3:0:0:
192,135,19361,1,10,3:3:0:0:
137,128,19442,1,0,3:3:0:0:
91,159,19524,1,0,3:3:0:0:
74,211,19605,1,0,3:3:0:0:
91,263,19687,5,8,3:3:0:0:
148,245,19768,1,8,3:3:0:0:
181,194,19850,1,8,3:3:0:0:
186,134,19931,1,8,3:3:0:0:
142,84,20013,5,8,3:3:0:0:
180,94,20094,1,8,3:3:0:0:
218,104,20176,1,8,3:3:0:0:
256,113,20257,1,8,3:3:0:0:
300,145,20339,5,8,3:3:0:0:
334,138,20420,1,8,3:3:0:0:
375,81,20502,5,8,3:3:0:0:
341,124,20583,1,8,3:3:0:0:
345,174,20665,1,8,3:3:0:0:
370,210,20746,1,8,3:3:0:0:
407,225,20828,1,8,3:3:0:0:
442,221,20910,1,8,3:3:0:0:
464,201,20991,6,0,L|449:130,1,50,12|0,3:3|3:3,0:0:0:0:
255,183,21154,2,0,L|240:254,1,50,0|0,3:3|3:3,0:0:0:0:
346,344,21317,5,12,3:3:0:0:
378,368,21399,1,0,3:3:0:0:
417,368,21480,1,0,3:3:0:0:
451,347,21562,1,0,3:3:0:0:
468,311,21643,2,0,L|401:297,1,50,12|0,3:3|3:3,0:0:0:0:
228,384,21806,2,0,L|295:370,1,50,0|0,3:3|3:3,0:0:0:0:
331,218,21969,5,12,3:3:0:0:
335,178,22051,1,0,3:3:0:0:
339,138,22132,1,0,3:3:0:0:
343,98,22214,1,0,3:3:0:0:
348,58,22295,2,0,L|411:47,1,50,12|0,3:3|3:3,0:0:0:0:
512,234,22458,2,0,L|449:223,1,50,0|0,3:3|3:3,0:0:0:0:
243,79,22621,5,12,3:3:0:0:
208,57,22703,1,0,3:3:0:0:
167,53,22785,1,0,3:3:0:0:
129,66,22866,1,0,3:3:0:0:
104,97,22948,2,0,L|91:167,1,50,12|0,3:3|3:3,0:0:0:0:
181,335,23111,5,12,3:3:0:0:
195,332,23192,1,0,3:3:0:0:
209,329,23274,1,0,3:3:0:0:
223,327,23355,1,0,3:3:0:0:
237,325,23437,2,0,L|224:255,1,50,12|0,3:3|3:3,0:0:0:0:
30,345,23600,6,0,L|100:332,1,50,12|0,3:3|3:3,0:0:0:0:
242,160,23763,2,0,L|172:147,1,50,0|0,3:3|3:3,0:0:0:0:
31,89,23926,5,12,3:3:0:0:
49,53,24007,1,0,3:3:0:0:
82,31,24089,1,0,3:3:0:0:
121,27,24170,1,0,3:3:0:0:
158,41,24252,2,0,L|167:109,1,50,12|0,3:3|3:3,0:0:0:0:
50,262,24415,2,0,L|59:194,1,50,0|0,3:3|3:3,0:0:0:0:
236,151,24578,5,12,3:3:0:0:
275,157,24660,1,0,3:3:0:0:
314,163,24741,1,0,3:3:0:0:
353,169,24823,1,0,3:3:0:0:
392,175,24904,2,0,L|452:186,1,50,12|0,3:3|3:3,0:0:0:0:
512,355,25067,2,0,L|452:366,1,50,0|0,3:3|3:3,0:0:0:0:
240,234,25230,5,12,3:3:0:0:
215,267,25312,1,0,3:3:0:0:
210,307,25393,1,0,3:3:0:0:
223,345,25475,1,0,3:3:0:0:
253,371,25556,2,0,L|313:380,1,50,12|0,3:3|3:3,0:0:0:0:
146,196,25719,5,12,3:3:0:0:
131,198,25800,1,0,3:3:0:0:
116,200,25882,1,0,3:3:0:0:
101,202,25963,1,0,3:3:0:0:
86,204,26045,2,0,L|26:213,1,50,12|0,3:3|3:3,0:0:0:0:
132,366,26208,6,0,L|145:288,1,50,12|0,3:3|3:3,0:0:0:0:
213,67,26371,2,0,L|226:145,1,50,0|0,3:3|3:3,0:0:0:0:
301,277,26535,5,12,3:3:0:0:
334,298,26616,1,0,3:3:0:0:
374,299,26698,1,0,3:3:0:0:
408,280,26779,1,0,3:3:0:0:
421,242,26861,2,0,L|432:162,1,50,12|0,3:3|3:3,0:0:0:0:
212,289,27024,2,0,L|223:369,1,50,0|0,3:3|3:3,0:0:0:0:
334,192,27187,5,12,3:3:0:0:
340,152,27268,1,0,3:3:0:0:
347,112,27350,1,0,3:3:0:0:
354,72,27431,1,0,3:3:0:0:
361,32,27513,2,0,L|293:19,1,50,12|0,3:3|3:3,0:0:0:0:
173,193,27676,2,0,L|241:180,1,50,0|0,3:3|3:3,0:0:0:0:
96,60,27839,5,12,3:3:0:0:
57,70,27920,1,0,3:3:0:0:
29,99,28002,1,0,3:3:0:0:
15,136,28083,1,0,3:3:0:0:
18,176,28165,2,0,L|78:190,1,50,12|0,3:3|3:3,0:0:0:0:
246,102,28328,5,12,3:3:0:0:
231,105,28409,1,0,3:3:0:0:
216,108,28491,1,0,3:3:0:0:
202,112,28572,1,0,3:3:0:0:
187,115,28654,2,0,L|127:129,1,50,12|0,3:3|3:3,0:0:0:0:
113,296,28817,6,0,L|173:310,1,50,12|0,3:3|3:3,0:0:0:0:
271,173,28980,2,0,L|211:187,1,50,0|0,3:3|3:3,0:0:0:0:
271,328,29143,5,12,3:3:0:0:
300,354,29225,1,0,3:3:0:0:
339,361,29306,1,0,3:3:0:0:
377,350,29388,1,0,3:3:0:0:
402,319,29469,2,0,L|391:245,1,50,12|0,3:3|3:3,0:0:0:0:
301,104,29632,2,0,L|290:178,1,50,0|0,3:3|3:3,0:0:0:0:
194,313,29795,5,12,3:3:0:0:
154,319,29877,1,0,3:3:0:0:
114,326,29958,1,0,3:3:0:0:
74,333,30040,1,0,3:3:0:0:
34,340,30121,2,0,L|51:269,1,50,12|0,3:3|3:3,0:0:0:0:
203,193,30285,2,0,L|220:264,1,50,0|0,3:3|3:3,0:0:0:0:
40,101,30448,5,12,3:3:0:0:
62,68,30529,1,0,3:3:0:0:
99,52,30611,1,0,3:3:0:0:
138,53,30692,1,0,3:3:0:0:
170,76,30774,5,8,3:3:0:0:
173,135,30855,1,8,3:3:0:0:
209,182,30937,1,8,3:3:0:0:
266,197,31018,1,8,3:3:0:0:
323,178,31100,1,8,3:3:0:0:
351,125,31181,1,8,3:3:0:0:
338,66,31263,2,0,L|264:76,1,50,8|8,3:3|3:3,0:0:0:0:
72,141,31426,5,12,3:3:0:0:
40,164,31507,1,0,3:3:0:0:
23,200,31589,1,0,3:3:0:0:
24,239,31670,1,0,3:3:0:0:
46,272,31752,1,10,3:3:0:0:
82,288,31833,1,0,3:3:0:0:
122,285,31915,1,0,3:3:0:0:
153,260,31996,1,0,3:3:0:0:
166,222,32078,5,10,3:3:0:0:
112,217,32160,1,0,3:3:0:0:
70,243,32241,1,0,3:3:0:0:
51,289,32323,1,0,3:3:0:0:
59,337,32404,1,10,3:3:0:0:
95,371,32486,1,0,3:3:0:0:
143,381,32567,1,0,3:3:0:0:
185,354,32649,1,0,3:3:0:0:
207,309,32730,5,12,3:3:0:0:
243,291,32812,1,0,3:3:0:0:
282,296,32893,1,0,3:3:0:0:
315,318,32975,1,0,3:3:0:0:
337,351,33056,1,10,3:3:0:0:
372,368,33138,1,0,3:3:0:0:
411,366,33219,1,0,3:3:0:0:
441,340,33301,1,0,3:3:0:0:
451,301,33382,5,10,3:3:0:0:
400,300,33464,1,0,3:3:0:0:
357,274,33545,1,0,3:3:0:0:
334,228,33627,1,0,3:3:0:0:
340,178,33708,1,10,3:3:0:0:
373,140,33790,1,0,3:3:0:0:
421,127,33871,1,0,3:3:0:0:
469,140,33953,1,0,3:3:0:0:
502,177,34035,5,12,3:3:0:0:
478,209,34116,1,0,3:3:0:0:
439,222,34198,1,0,3:3:0:0:
399,217,34279,1,0,3:3:0:0:
365,194,34361,1,10,3:3:0:0:
340,162,34442,1,0,3:3:0:0:
325,124,34524,1,0,3:3:0:0:
293,99,34605,1,0,3:3:0:0:
254,87,34687,6,0,L|189:94,1,50,10|0,3:3|3:3,0:0:0:0:
111,186,34850,1,0,3:3:0:0:
111,186,34931,2,0,L|176:193,1,50,0|10,3:3|3:3,0:0:0:0:
242,288,35094,1,0,3:3:0:0:
242,288,35175,2,0,L|177:295,1,50,0|0,3:3|3:3,0:0:0:0:
48,306,35339,5,12,3:3:0:0:
22,263,35420,1,0,3:3:0:0:
27,213,35502,1,0,3:3:0:0:
61,177,35583,1,0,3:3:0:0:
110,165,35665,1,10,3:3:0:0:
156,181,35746,1,0,3:3:0:0:
180,225,35828,1,0,3:3:0:0:
176,275,35910,1,0,3:3:0:0:
143,312,35991,5,8,3:3:0:0:
105,264,36073,1,8,3:3:0:0:
105,204,36154,1,8,3:3:0:0:
141,155,36236,1,8,3:3:0:0:
169,114,36317,1,8,3:3:0:0:
180,75,36399,1,8,3:3:0:0:
173,40,36480,1,8,3:3:0:0:
152,18,36562,1,8,3:3:0:0:
125,12,36643,5,12,3:3:0:0:
105,46,36724,1,0,3:3:0:0:
104,86,36806,1,0,3:3:0:0:
121,122,36887,1,0,3:3:0:0:
152,146,36969,1,10,3:3:0:0:
191,153,37050,1,0,3:3:0:0:
229,141,37132,1,0,3:3:0:0:
257,114,37213,1,0,3:3:0:0:
270,76,37295,5,10,3:3:0:0:
223,58,37377,1,0,3:3:0:0:
176,75,37458,1,0,3:3:0:0:
154,120,37540,1,0,3:3:0:0:
141,168,37621,1,10,3:3:0:0:
109,207,37703,1,0,3:3:0:0:
59,218,37785,1,0,3:3:0:0:
14,195,37866,1,0,3:3:0:0:
1,146,37948,5,12,3:3:0:0:
36,128,38029,1,0,3:3:0:0:
75,136,38111,1,0,3:3:0:0:
106,160,38192,1,0,3:3:0:0:
119,197,38274,1,10,3:3:0:0:
148,224,38355,1,0,3:3:0:0:
187,232,38437,1,0,3:3:0:0:
224,219,38518,1,0,3:3:0:0:
245,185,38600,5,10,3:3:0:0:
204,156,38681,1,0,3:3:0:0:
153,157,38763,1,0,3:3:0:0:
112,186,38844,1,0,3:3:0:0:
94,233,38926,1,10,3:3:0:0:
104,281,39007,1,0,3:3:0:0:
139,316,39089,1,0,3:3:0:0:
187,326,39170,1,0,3:3:0:0:
232,304,39252,2,0,L|225:241,3,50,12|0|0|0,3:3|3:3|3:3|3:3,0:0:0:0:
395,204,39578,5,10,3:3:0:0:
415,189,39660,1,0,3:3:0:0:
439,189,39741,2,0,P|463:192|492:219,1,50,0|0,3:3|3:3,0:0:0:0:
284,166,39904,5,10,3:3:0:0:
287,133,39986,1,0,3:3:0:0:
309,111,40067,2,0,P|335:94|382:98,1,50,0|0,3:3|3:3,0:0:0:0:
190,228,40230,5,10,3:3:0:0:
164,197,40312,1,0,3:3:0:0:
164,161,40393,2,0,P|171:125|213:90,1,50,0|0,3:3|3:3,0:0:0:0:
326,245,40556,5,12,3:3:0:0:
303,295,40638,1,0,3:3:0:0:
254,321,40719,1,0,3:3:0:0:
199,312,40801,1,0,3:3:0:0:
162,271,40882,1,0,3:3:0:0:
112,246,40964,1,0,3:3:0:0:
57,250,41045,1,0,3:3:0:0:
19,290,41127,1,0,3:3:0:0:
5,343,41208,5,8,3:3:0:0:
57,372,41290,1,8,3:3:0:0:
115,358,41371,1,8,3:3:0:0:
155,313,41453,1,8,3:3:0:0:
168,254,41535,1,8,3:3:0:0:
145,209,41616,1,8,3:3:0:0:
119,178,41698,1,8,3:3:0:0:
116,143,41779,1,8,3:3:0:0:
130,116,41861,2,0,L|191:111,3,50,12|0|0|0,3:3|3:3|3:3|3:3,0:0:0:0:
306,161,42187,5,10,3:3:0:0:
326,132,42268,1,0,3:3:0:0:
324,96,42350,2,0,P|315:68|279:47,1,50,0|0,3:3|3:3,0:0:0:0:
268,234,42513,5,10,3:3:0:0:
283,265,42594,1,0,3:3:0:0:
315,282,42676,2,0,P|343:288|379:267,1,50,0|0,3:3|3:3,0:0:0:0:
227,167,42839,5,10,3:3:0:0:
192,164,42920,1,0,3:3:0:0:
161,183,43002,2,0,P|141:204|141:246,1,50,0|0,3:3|3:3,0:0:0:0:
189,345,43165,5,12,3:3:0:0:
223,365,43246,1,0,3:3:0:0:
263,360,43328,1,0,3:3:0:0:
292,333,43410,1,0,3:3:0:0:
309,297,43491,1,10,3:3:0:0:
343,277,43573,1,0,3:3:0:0:
382,279,43654,1,0,3:3:0:0:
415,301,43736,1,0,3:3:0:0:
430,337,43817,2,0,L|379:347,3,50,10|0|0|0,3:3|3:3|3:3|3:3,0:0:0:0:
292,184,44143,2,0,L|343:194,3,50,10|0|0|0,3:3|3:3|3:3|3:3,0:0:0:0:
178,251,44469,5,12,3:3:0:0:
170,201,44551,1,0,3:3:0:0:
162,151,44632,1,0,3:3:0:0:
154,101,44714,1,0,3:3:0:0:
125,60,44795,1,10,3:3:0:0:
75,49,44877,1,0,3:3:0:0:
29,69,44958,1,0,3:3:0:0:
11,116,45040,1,0,3:3:0:0:
24,163,45121,2,0,L|98:151,3,50,10|0|0|0,3:3|3:3|3:3|3:3,0:0:0:0:
250,27,45448,2,0,L|176:15,3,50,10|0|0|0,3:3|3:3|3:3|3:3,0:0:0:0:
321,166,45774,5,12,3:3:0:0:
339,222,45855,1,0,3:3:0:0:
324,280,45937,1,0,3:3:0:0:
281,321,46018,1,0,3:3:0:0:
221,327,46100,1,2,3:3:0:0:
169,297,46181,1,0,3:3:0:0:
146,240,46263,1,0,3:3:0:0:
162,182,46344,1,0,3:3:0:0:
212,149,46426,5,12,3:3:0:0:
236,201,46507,1,0,3:3:0:0:
228,260,46589,1,0,3:3:0:0:
191,307,46670,1,0,3:3:0:0:
132,320,46752,1,2,3:3:0:0:
76,296,46833,1,0,3:3:0:0:
47,243,46915,1,0,3:3:0:0:
55,184,46996,1,0,3:3:0:0:
100,143,47078,2,0,L|116:215,3,50,12|0|0|0,3:3|3:3|3:3|3:3,0:0:0:0:
307,323,47404,5,10,3:3:0:0:
312,298,47486,1,0,3:3:0:0:
318,274,47567,2,0,L|332:212,1,50,0|0,3:3|3:3,0:0:0:0:
198,118,47730,5,10,3:3:0:0:
202,142,47812,1,0,3:3:0:0:
207,166,47893,2,0,L|221:228,1,50,0|0,3:3|3:3,0:0:0:0:
408,178,48056,5,10,3:3:0:0:
413,153,48138,1,0,3:3:0:0:
418,128,48219,2,0,L|432:66,1,50,0|0,3:3|3:3,0:0:0:0:
243,35,48382,5,12,3:3:0:0:
203,26,48464,1,0,3:3:0:0:
165,40,48545,1,0,3:3:0:0:
140,72,48627,1,0,3:3:0:0:
118,105,48708,1,10,3:3:0:0:
80,120,48790,1,0,3:3:0:0:
41,110,48871,1,0,3:3:0:0:
21,74,48953,1,0,3:3:0:0:
26,34,49035,2,0,L|87:26,3,50,10|0|0|0,3:3|3:3|3:3|3:3,0:0:0:0:
149,209,49361,2,0,L|88:201,3,50,10|0|0|0,3:3|3:3|3:3|3:3,0:0:0:0:
327,114,49687,5,12,3:3:0:0:
373,130,49768,1,0,3:3:0:0:
404,169,49850,1,0,3:3:0:0:
413,217,49931,1,0,3:3:0:0:
398,265,50013,1,10,3:3:0:0:
362,300,50094,1,0,3:3:0:0:
313,313,50176,1,0,3:3:0:0:
264,302,50257,1,0,3:3:0:0:
225,269,50339,2,0,L|219:214,3,50,10|0|0|0,3:3|3:3|3:3|3:3,0:0:0:0:
487,104,50665,2,0,L|481:159,3,50,10|0|0|0,3:3|3:3|3:3|3:3,0:0:0:0:
408,38,50991,5,12,3:3:0:0:
354,25,51073,1,0,3:3:0:0:
301,40,51154,1,0,3:3:0:0:
269,85,51236,1,0,3:3:0:0:
251,136,51317,1,2,3:3:0:0:
202,162,51399,1,0,3:3:0:0:
148,151,51480,1,0,3:3:0:0:
116,105,51562,1,0,3:3:0:0:
121,50,51643,5,8,3:3:0:0:
181,55,51725,1,8,3:3:0:0:
225,94,51806,1,8,3:3:0:0:
242,151,51888,1,8,3:3:0:0:
227,208,51969,1,8,3:3:0:0:
183,249,52051,1,8,3:3:0:0:
124,258,52132,1,8,3:3:0:0:
67,235,52214,1,8,3:3:0:0:
42,180,52295,2,0,L|53:101,3,50,12|0|0|0,3:3|3:3|3:3|3:3,0:0:0:0:
128,336,52621,5,2,3:3:0:0:
100,357,52703,1,0,3:3:0:0:
65,362,52785,2,0,P|40:357|9:337,1,50,0|0,3:3|3:3,0:0:0:0:
130,253,52948,5,12,3:3:0:0:
168,260,53029,1,0,3:3:0:0:
207,267,53111,1,0,3:3:0:0:
245,274,53192,1,0,3:3:0:0:
284,282,53274,2,0,L|341:293,1,50,2|0,3:3|3:3,0:0:0:0:
279,376,53437,5,0,3:3:0:0:
230,361,53518,1,0,3:3:0:0:
202,318,53600,1,12,3:3:0:0:
200,269,53681,1,0,3:3:0:0:
220,222,53763,1,0,3:3:0:0:
261,196,53844,1,0,3:3:0:0:
311,192,53926,5,12,3:3:0:0:
344,199,54007,1,0,3:3:0:0:
378,207,54089,2,0,L|430:220,1,50,0|0,3:3|3:3,0:0:0:0:
503,309,54252,5,12,3:3:0:0:
478,314,54333,1,0,3:3:0:0:
453,318,54415,2,0,L|401:331,1,50,0|0,3:3|3:3,0:0:0:0:
397,129,54578,5,12,3:3:0:0:
421,134,54659,1,0,3:3:0:0:
445,140,54741,2,0,L|497:153,1,50,0|0,3:3|3:3,0:0:0:0:
309,252,54904,5,12,3:3:0:0:
269,259,54986,1,0,3:3:0:0:
230,267,55067,1,0,3:3:0:0:
190,275,55149,1,0,3:3:0:0:
151,283,55230,2,0,L|141:339,3,50,2|0|0|0,3:3|3:3|3:3|3:3,0:0:0:0:
294,171,55556,5,12,3:3:0:0:
316,125,55638,1,0,3:3:0:0:
307,76,55719,1,0,3:3:0:0:
273,38,55801,1,0,3:3:0:0:
224,28,55882,1,2,3:3:0:0:
177,45,55964,1,0,3:3:0:0:
149,86,56045,2,0,L|161:155,1,50,0|0,3:3|3:3,0:0:0:0:
256,322,56208,6,0,L|268:253,3,50,12|0|0|0,3:3|3:3|3:3|3:3,0:0:0:0:
156,348,56535,2,0,L|168:279,3,50,12|0|0|0,3:3|3:3|3:3|3:3,0:0:0:0:
63,207,56861,5,12,3:3:0:0:
36,229,56942,1,0,3:3:0:0:
23,262,57024,2,0,P|23:298|54:333,1,50,0|0,3:3|3:3,0:0:0:0:
161,194,57187,5,12,3:3:0:0:
155,159,57268,1,0,3:3:0:0:
133,131,57350,2,0,P|101:112|56:122,1,50,0|0,3:3|3:3,0:0:0:0:
193,275,57513,6,0,P|224:257|238:212,1,50,12|0,3:3|3:3,0:0:0:0:
11,261,57676,2,0,P|11:297|42:332,1,50,0|0,3:3|3:3,0:0:0:0:
161,356,57839,5,2,3:3:0:0:
206,375,57920,1,0,3:3:0:0:
253,357,58002,1,0,3:3:0:0:
280,315,58083,1,0,3:3:0:0:
290,265,58165,1,12,3:3:0:0:
327,232,58246,1,0,3:3:0:0:
377,228,58328,1,0,3:3:0:0:
420,252,58410,1,0,3:3:0:0:
433,299,58491,2,0,L|365:310,3,50,2|0|0|0,3:3|3:3|3:3|3:3,0:0:0:0:
395,157,58817,5,12,3:3:0:0:
429,162,58899,1,0,3:3:0:0:
463,167,58980,2,0,L|515:175,1,50,0|0,3:3|3:3,0:0:0:0:
363,299,59143,5,12,3:3:0:0:
329,304,59225,1,0,3:3:0:0:
295,309,59306,2,0,L|243:317,1,50,0|0,3:3|3:3,0:0:0:0:
119,123,59469,5,12,3:3:0:0:
60,139,59551,1,0,3:3:0:0:
27,188,59632,1,0,3:3:0:0:
28,247,59714,1,0,3:3:0:0:
65,294,59795,1,12,3:3:0:0:
121,315,59877,1,0,3:3:0:0:
173,287,59958,2,0,L|161:214,1,50,0|0,3:3|3:3,0:0:0:0:
85,47,60121,5,12,3:3:0:0:
134,54,60203,1,0,3:3:0:0:
183,62,60285,1,0,3:3:0:0:
232,69,60366,1,0,3:3:0:0:
281,77,60448,1,2,3:3:0:0:
329,85,60529,1,0,3:3:0:0:
378,95,60611,1,0,3:3:0:0:
426,105,60692,1,0,3:3:0:0:
475,115,60774,5,12,3:3:0:0:
463,77,60855,1,0,3:3:0:0:
431,51,60937,1,0,3:3:0:0:
391,48,61018,1,0,3:3:0:0:
354,64,61100,1,2,3:3:0:0:
334,98,61181,1,0,3:3:0:0:
333,138,61263,1,0,3:3:0:0:
353,171,61344,1,0,3:3:0:0:
385,194,61426,2,0,L|450:183,3,50,12|0|0|0,3:3|3:3|3:3|3:3,0:0:0:0:
230,154,61752,5,8,3:3:0:0:
236,177,61833,1,8,3:3:0:0:
242,201,61915,1,8,3:3:0:0:
248,224,61996,1,8,3:3:0:0:
280,248,62078,5,8,3:3:0:0:
276,262,62160,1,8,3:3:0:0:
272,276,62241,1,8,3:3:0:0:
269,290,62323,1,8,3:3:0:0:
230,321,62404,5,8,3:3:0:0:
172,339,62486,1,8,3:3:0:0:
119,311,62567,1,8,3:3:0:0:
100,253,62649,1,8,3:3:0:0:
128,200,62730,5,8,3:3:0:0:
65,378,62893,1,8,3:3:0:0:
0,330,63056,1,8,3:3:0:0:
260,280,63219,5,8,3:3:0:0:
7,128,63382,2,0,B|36:112|36:112|118:128,1,100,8|8,3:3|3:3,0:0:0:0:
185,144,63708,1,8,3:3:0:0:
40,204,63871,5,8,3:3:0:0:
148,47,64035,2,0,L|255:35,1,100,8|8,3:3|3:3,0:0:0:0:
362,142,64361,2,0,L|255:130,1,100,8|8,3:3|3:3,0:0:0:0:
425,71,64687,1,8,3:3:0:0:
425,71,64850,1,8,3:3:0:0:
506,145,65013,5,8,3:3:0:0:
502,169,65094,1,0,3:3:0:0:
498,193,65176,1,0,3:3:0:0:
495,217,65257,1,0,3:3:0:0:
492,242,65339,1,8,3:3:0:0:
348,135,65502,1,8,3:3:0:0:
432,104,65665,1,8,3:3:0:0:
296,264,65828,5,8,3:3:0:0:
219,57,65991,2,0,B|202:85|202:85|219:175,1,100,8|8,3:3|3:3,0:0:0:0:
228,224,66317,1,8,3:3:0:0:
291,20,66480,5,8,3:3:0:0:
123,149,66643,2,0,L|21:164,1,100,8|8,3:3|3:3,0:0:0:0:
68,266,66969,1,8,3:3:0:0:
68,266,67132,1,8,3:3:0:0:
186,300,67295,1,8,3:3:0:0:
186,300,67458,1,8,3:3:0:0:
261,361,67621,5,8,3:3:0:0:
285,356,67703,1,0,3:3:0:0:
309,351,67785,1,0,3:3:0:0:
333,347,67866,1,0,3:3:0:0:
357,342,67948,2,0,B|372:311|372:311|346:231,1,100,12|8,3:3|3:3,0:0:0:0:
176,177,68274,6,0,L|280:196,1,100,8|8,3:3|3:3,0:0:0:0:
385,70,68600,2,0,L|281:89,1,100,8|8,3:3|3:3,0:0:0:0:
423,187,68926,1,8,3:3:0:0:
469,51,69089,5,12,3:3:0:0:
187,17,69252,2,0,B|172:62|172:62|201:133,1,100,12|8,3:3|3:3,0:0:0:0:
306,235,69578,5,8,3:3:0:0:
281,231,69660,1,0,3:3:0:0:
256,227,69741,1,8,3:3:0:0:
231,223,69823,1,0,3:3:0:0:
204,216,69904,2,0,B|181:236|181:236|193:313,1,100,12|0,3:3|3:3,0:0:0:0:
380,288,70230,2,0,B|403:268|403:268|391:191,1,100,12|0,3:3|3:3,0:0:0:0:
58,324,70556,5,12,3:3:0:0:
123,176,70719,1,8,3:3:0:0:
19,128,70882,2,0,B|9:170|9:170|11:175|11:175|-2:236,1,100,8|8,3:3|3:3,0:0:0:0:
161,259,71208,5,8,3:3:0:0:
161,259,71371,1,8,3:3:0:0:
271,231,71535,1,8,3:3:0:0:
164,94,71698,1,12,3:3:0:0:
185,343,71861,5,12,3:3:0:0:
93,300,72024,1,8,3:3:0:0:
322,246,72187,1,0,3:3:0:0:
351,249,72268,1,0,3:3:0:0:
380,252,72350,1,0,3:3:0:0:
409,255,72431,1,0,3:3:0:0:
438,258,72513,5,12,3:3:0:0:
416,302,72594,1,0,3:3:0:0:
369,322,72676,1,0,3:3:0:0:
321,309,72757,1,0,3:3:0:0:
288,270,72839,5,8,3:3:0:0:
278,211,72920,1,8,3:3:0:0:
268,151,73002,1,8,3:3:0:0:
259,92,73083,1,8,3:3:0:0:
250,32,73165,5,12,3:3:0:0:
285,13,73246,1,0,3:3:0:0:
324,21,73328,1,0,3:3:0:0:
349,52,73410,1,0,3:3:0:0:
367,86,73491,1,2,3:3:0:0:
405,98,73573,1,0,3:3:0:0:
443,90,73654,1,0,3:3:0:0:
466,57,73736,1,0,3:3:0:0:
463,17,73817,5,10,3:3:0:0:
423,11,73899,1,0,3:3:0:0:
384,21,73980,1,0,3:3:0:0:
356,50,74062,1,0,3:3:0:0:
344,87,74143,1,2,3:3:0:0:
349,126,74225,1,0,3:3:0:0:
372,158,74306,1,0,3:3:0:0:
409,173,74388,1,0,3:3:0:0:
448,171,74469,5,10,3:3:0:0:
428,136,74551,1,0,3:3:0:0:
389,127,74632,1,0,3:3:0:0:
350,137,74714,1,0,3:3:0:0:
320,163,74795,1,2,3:3:0:0:
310,202,74877,1,0,3:3:0:0:
317,241,74958,1,0,3:3:0:0:
324,280,75040,1,0,3:3:0:0:
331,319,75121,5,12,3:3:0:0:
363,332,75203,1,0,3:3:0:0:
397,324,75285,2,0,P|423:312|440:260,1,50,0|0,3:3|3:3,0:0:0:0:
244,247,75448,5,2,3:3:0:0:
216,268,75530,1,0,3:3:0:0:
206,301,75612,2,0,P|203:329|239:370,1,50,0|0,3:3|3:3,0:0:0:0:
345,189,75774,5,12,3:3:0:0:
354,140,75855,1,0,3:3:0:0:
364,90,75937,1,0,3:3:0:0:
391,48,76018,1,0,3:3:0:0:
439,35,76100,1,2,3:3:0:0:
483,56,76181,1,0,3:3:0:0:
502,102,76263,5,0,3:3:0:0:
460,130,76344,1,0,3:3:0:0:
409,130,76426,1,10,3:3:0:0:
366,104,76507,1,0,3:3:0:0:
332,66,76589,1,0,3:3:0:0:
282,61,76670,1,0,3:3:0:0:
238,86,76752,2,0,L|231:142,3,50,2|0|0|0,3:3|3:3|3:3|3:3,0:0:0:0:
313,269,77078,5,12,3:3:0:0:
276,303,77160,1,0,3:3:0:0:
226,306,77241,1,0,3:3:0:0:
180,283,77323,1,0,3:3:0:0:
156,239,77404,1,2,3:3:0:0:
112,214,77486,1,0,3:3:0:0:
62,214,77567,1,0,3:3:0:0:
21,243,77649,1,0,3:3:0:0:
8,291,77730,5,10,3:3:0:0:
52,315,77812,1,0,3:3:0:0:
100,303,77893,1,0,3:3:0:0:
129,262,77975,1,0,3:3:0:0:
134,212,78056,2,0,L|124:133,3,50,10|0|0|0,3:3|3:3|3:3|3:3,0:0:0:0:
4,53,78382,5,12,3:3:0:0:
57,61,78464,1,0,3:3:0:0:
111,68,78545,1,0,3:3:0:0:
165,76,78627,1,0,3:3:0:0:
218,85,78708,1,2,3:3:0:0:
272,93,78790,1,0,3:3:0:0:
326,101,78871,1,0,3:3:0:0:
379,110,78953,1,0,3:3:0:0:
434,118,79035,5,10,3:3:0:0:
442,172,79116,1,0,3:3:0:0:
414,220,79198,1,0,3:3:0:0:
366,246,79279,1,0,3:3:0:0:
311,239,79361,1,2,3:3:0:0:
270,201,79442,1,0,3:3:0:0:
214,195,79524,1,0,3:3:0:0:
171,229,79605,1,0,3:3:0:0:
163,283,79687,5,10,3:3:0:0:
217,284,79768,1,0,3:3:0:0:
260,249,79850,1,0,3:3:0:0:
276,196,79931,1,0,3:3:0:0:
261,142,80013,2,0,L|184:132,3,50,2|0|0|0,3:3|3:3|3:3|3:3,0:0:0:0:
142,358,80339,2,0,L|219:348,3,50,12|0|0|0,3:3|3:3|3:3|3:3,0:0:0:0:
79,211,80665,2,0,L|2:201,3,50,2|0|0|0,3:3|3:3|3:3|3:3,0:0:0:0:
154,358,80991,5,12,3:3:0:0:
204,380,81073,1,0,3:3:0:0:
257,370,81154,1,0,3:3:0:0:
295,330,81236,1,0,3:3:0:0:
306,276,81317,1,2,3:3:0:0:
285,224,81399,1,0,3:3:0:0:
237,196,81480,1,0,3:3:0:0:
181,199,81562,1,0,3:3:0:0:
142,238,81643,5,10,3:3:0:0:
178,279,81725,1,0,3:3:0:0:
232,284,81806,1,0,3:3:0:0:
281,259,81888,1,0,3:3:0:0:
301,208,81969,1,2,3:3:0:0:
286,154,82051,1,0,3:3:0:0:
243,120,82132,1,0,3:3:0:0:
187,120,82214,1,0,3:3:0:0:
146,156,82295,5,12,3:3:0:0:
181,198,82377,1,0,3:3:0:0:
235,206,82458,1,0,3:3:0:0:
283,180,82540,1,0,3:3:0:0:
305,130,82621,1,2,3:3:0:0:
349,96,82703,1,0,3:3:0:0:
404,96,82785,1,0,3:3:0:0:
446,130,82866,1,0,3:3:0:0:
460,183,82948,5,8,3:3:0:0:
401,196,83029,1,8,3:3:0:0:
344,174,83111,1,8,3:3:0:0:
316,121,83192,1,8,3:3:0:0:
291,66,83274,1,8,3:3:0:0:
240,33,83355,1,8,3:3:0:0:
179,35,83437,1,8,3:3:0:0:
139,79,83518,1,8,3:3:0:0:
136,139,83600,2,0,L|210:127,3,50,4|0|0|0,3:3|3:3|3:3|3:3,0:0:0:0:
26,38,83926,5,10,3:3:0:0:
31,72,84007,1,0,3:3:0:0:
37,106,84089,2,0,L|47:167,1,50,0|0,3:3|3:3,0:0:0:0:
200,228,84252,5,2,3:3:0:0:
205,194,84333,1,0,3:3:0:0:
211,160,84415,2,0,L|221:99,1,50,0|0,3:3|3:3,0:0:0:0:
22,175,84578,2,0,L|32:236,1,50,10|0,3:3|3:3,0:0:0:0:
103,330,84741,5,0,3:3:0:0:
109,305,84823,1,0,3:3:0:0:
115,280,84904,5,4,3:3:0:0:
147,256,84986,1,0,3:3:0:0:
186,252,85067,1,0,3:3:0:0:
224,264,85149,1,0,3:3:0:0:
252,291,85230,5,10,3:3:0:0:
254,331,85312,1,0,3:3:0:0:
281,359,85393,1,0,3:3:0:0:
320,367,85475,1,0,3:3:0:0:
355,348,85556,1,2,3:3:0:0:
374,312,85638,1,0,3:3:0:0:
410,296,85719,1,0,3:3:0:0:
449,304,85801,1,0,3:3:0:0:
478,330,85882,2,0,L|489:382,3,50,10|0|0|0,3:3|3:3|3:3|3:3,0:0:0:0:
318,269,86208,5,4,3:3:0:0:
324,229,86290,1,0,3:3:0:0:
330,189,86371,1,0,3:3:0:0:
337,149,86453,1,0,3:3:0:0:
344,109,86535,1,10,3:3:0:0:
352,70,86616,1,0,3:3:0:0:
359,30,86698,5,0,3:3:0:0:
398,23,86779,1,0,3:3:0:0:
433,41,86861,1,2,3:3:0:0:
452,75,86942,1,0,3:3:0:0:
456,114,87024,1,0,3:3:0:0:
437,149,87105,1,0,3:3:0:0:
399,164,87187,2,0,L|343:152,3,50,10|0|0|0,3:3|3:3|3:3|3:3,0:0:0:0:
266,43,87513,6,0,L|210:55,1,50,4|0,3:3|3:3,0:0:0:0:
176,140,87676,2,0,L|120:128,1,50,0|0,3:3|3:3,0:0:0:0:
75,29,87839,5,10,3:3:0:0:
33,56,87920,1,0,3:3:0:0:
18,104,88002,1,0,3:3:0:0:
35,150,88083,1,0,3:3:0:0:
78,175,88165,1,4,3:3:0:0:
111,211,88246,1,0,3:3:0:0:
115,261,88328,1,0,3:3:0:0:
88,303,88410,1,0,3:3:0:0:
43,324,88491,5,8,3:3:0:0:
32,264,88573,1,8,3:3:0:0:
65,214,88654,1,8,3:3:0:0:
123,200,88736,1,8,3:3:0:0:
179,218,88817,2,0,L|189:278,3,50,4|0|0|0,3:3|3:3|3:3|3:3,0:0:0:0:
143,384,89143,5,10,3:3:0:0:
167,378,89225,1,0,3:3:0:0:
191,374,89306,2,0,L|240:367,1,50,0|0,3:3|3:3,0:0:0:0:
360,194,89469,5,2,3:3:0:0:
335,191,89551,1,0,3:3:0:0:
310,187,89632,2,0,L|261:180,1,50,0|0,3:3|3:3,0:0:0:0:
374,311,89795,2,0,L|423:304,1,50,10|0,3:3|3:3,0:0:0:0:
471,172,89958,5,0,3:3:0:0:
475,147,90040,1,0,3:3:0:0:
479,122,90121,5,4,3:3:0:0:
455,89,90203,1,0,3:3:0:0:
415,79,90285,1,0,3:3:0:0:
375,84,90366,1,0,3:3:0:0:
346,111,90448,5,10,3:3:0:0:
306,105,90529,1,0,3:3:0:0:
275,78,90611,1,0,3:3:0:0:
264,39,90692,1,0,3:3:0:0:
274,0,90774,2,0,L|329:11,3,50,2|0|0|0,3:3|3:3|3:3|3:3,0:0:0:0:
188,82,91100,2,0,L|133:93,3,50,10|0|0|0,3:3|3:3|3:3|3:3,0:0:0:0:
64,52,91426,5,4,3:3:0:0:
28,87,91507,1,0,3:3:0:0:
30,137,91589,1,0,3:3:0:0:
66,171,91670,1,0,3:3:0:0:
115,181,91752,1,10,3:3:0:0:
152,213,91833,1,0,3:3:0:0:
164,261,91915,1,0,3:3:0:0:
149,308,91996,1,0,3:3:0:0:
106,334,92078,1,2,3:3:0:0:
55,332,92160,1,0,3:3:0:0:
15,301,92241,1,0,3:3:0:0:
3,252,92323,1,0,3:3:0:0:
26,208,92404,1,10,3:3:0:0:
72,188,92486,1,0,3:3:0:0:
120,200,92567,1,0,3:3:0:0:
154,236,92649,1,0,3:3:0:0:
161,285,92730,5,8,3:3:0:0:
102,301,92812,1,8,3:3:0:0:
46,278,92893,1,8,3:3:0:0:
26,220,92975,1,0,3:3:0:0:
45,163,93056,1,0,3:3:0:0:
95,130,93138,1,0,3:3:0:0:
154,137,93219,1,8,3:3:0:0:
195,180,93301,1,8,3:3:0:0:
217,235,93382,1,8,3:3:0:0:
237,291,93464,1,0,3:3:0:0:
287,322,93545,1,0,3:3:0:0:
346,313,93627,1,0,3:3:0:0:
383,266,93708,1,8,3:3:0:0:
385,200,93790,1,8,3:3:0:0:
337,148,93871,1,8,3:3:0:0:
264,143,93953,1,8,3:3:0:0:
205,190,94035,5,4,3:3:0:0:
256,220,94116,1,0,3:3:0:0:
316,214,94198,1,0,3:3:0:0:
356,169,94279,1,0,3:3:0:0:
361,108,94361,1,10,3:3:0:0:
324,60,94442,1,0,3:3:0:0:
264,47,94524,1,0,3:3:0:0:
207,66,94605,1,0,3:3:0:0:
180,119,94687,1,2,3:3:0:0:
133,156,94768,1,0,3:3:0:0:
72,152,94850,1,0,3:3:0:0:
32,107,94931,1,0,3:3:0:0:
32,46,95013,2,0,L|100:57,3,59.9999981689454,10|0|0|0,3:3|3:3|3:3|3:3,0:0:0:0:
273,146,95339,5,2,3:3:0:0:
299,199,95420,1,0,3:3:0:0:
297,259,95502,1,0,3:3:0:0:
266,309,95583,1,0,3:3:0:0:
207,325,95665,1,10,3:3:0:0:
150,306,95746,1,0,3:3:0:0:
112,259,95828,5,0,3:3:0:0:
159,252,95910,1,0,3:3:0:0:
206,245,95991,1,2,3:3:0:0:
253,238,96073,1,0,3:3:0:0:
300,232,96154,1,2,3:3:0:0:
347,226,96236,1,0,3:3:0:0:
394,220,96317,2,0,L|458:212,3,59.9999981689454,10|0|0|0,3:3|3:3|3:3|3:3,0:0:0:0:
349,42,96643,5,4,3:3:0:0:
293,19,96725,1,0,3:3:0:0:
235,33,96806,1,0,3:3:0:0:
195,78,96888,1,0,3:3:0:0:
179,135,96969,1,10,3:3:0:0:
162,193,97051,1,0,3:3:0:0:
114,229,97132,1,0,3:3:0:0:
53,234,97214,1,0,3:3:0:0:
2,201,97295,2,0,L|13:127,3,59.9999981689454,2|0|0|0,3:3|3:3|3:3|3:3,0:0:0:0:
201,75,97621,2,0,L|212:149,3,59.9999981689454,10|0|0|0,3:3|3:3|3:3|3:3,0:0:0:0:
209,313,97948,5,2,3:3:0:0:
163,351,98029,1,0,3:3:0:0:
102,352,98111,1,0,3:3:0:0:
56,313,98192,1,0,3:3:0:0:
43,254,98274,1,10,3:3:0:0:
71,201,98355,1,0,3:3:0:0:
125,175,98437,1,0,3:3:0:0:
183,186,98518,1,0,3:3:0:0:
222,231,98600,6,0,L|230:294,1,59.9999981689454,2|0,3:3|3:3,0:0:0:0:
0,197,98763,2,0,L|8:134,1,59.9999981689454,2|0,3:3|3:3,0:0:0:0:
129,105,98926,2,0,L|137:42,3,59.9999981689454,10|0|0|0,3:3|3:3|3:3|3:3,0:0:0:0:
254,114,99252,5,4,3:3:0:0:
309,136,99333,1,0,3:3:0:0:
339,188,99415,1,0,3:3:0:0:
340,247,99496,1,0,3:3:0:0:
304,296,99578,1,10,3:3:0:0:
248,320,99660,1,0,3:3:0:0:
189,310,99741,5,0,3:3:0:0:
222,275,99823,1,0,3:3:0:0:
269,271,99904,1,2,3:3:0:0:
308,298,99986,1,0,3:3:0:0:
343,329,100067,1,0,3:3:0:0:
390,338,100149,1,0,3:3:0:0:
427,308,100230,2,0,L|437:236,3,59.9999981689454,10|0|0|0,3:3|3:3|3:3|3:3,0:0:0:0:
414,140,100556,5,4,3:3:0:0:
354,147,100638,1,0,3:3:0:0:
294,154,100719,1,0,3:3:0:0:
234,162,100801,1,0,3:3:0:0:
174,170,100882,1,10,3:3:0:0:
114,178,100964,1,0,3:3:0:0:
59,154,101045,1,0,3:3:0:0:
39,96,101127,1,0,3:3:0:0:
56,39,101208,1,2,3:3:0:0:
109,10,101290,1,0,3:3:0:0:
166,26,101371,2,0,L|182:101,1,59.9999981689454,0|0,3:3|3:3,0:0:0:0:
87,318,101535,2,0,L|103:243,3,59.9999981689454,10|0|0|0,3:3|3:3|3:3|3:3,0:0:0:0:
237,172,101861,5,4,3:3:0:0:
282,159,101942,1,0,3:3:0:0:
328,173,102024,1,0,3:3:0:0:
357,210,102105,1,0,3:3:0:0:
383,250,102187,1,10,3:3:0:0:
429,262,102268,1,0,3:3:0:0:
474,246,102350,1,0,3:3:0:0:
497,204,102431,1,0,3:3:0:0:
492,155,102513,1,2,3:3:0:0:
454,125,102594,1,0,3:3:0:0:
405,123,102676,1,0,3:3:0:0:
366,150,102757,1,0,3:3:0:0:
352,195,102839,2,0,L|365:267,3,59.9999981689454,10|0|0|0,3:3|3:3|3:3|3:3,0:0:0:0:
294,62,103165,5,8,3:3:0:0:
233,23,103246,1,8,3:3:0:0:
160,26,103328,1,8,3:3:0:0:
111,79,103410,1,8,3:3:0:0:
109,150,103491,1,8,3:3:0:0:
155,205,103573,1,0,3:3:0:0:
225,214,103654,5,8,3:3:0:0:
207,143,103736,1,8,3:3:0:0:
141,115,103817,1,8,3:3:0:0:
69,126,103899,1,8,3:3:0:0:
27,184,103980,1,8,3:3:0:0:
28,256,104062,1,0,3:3:0:0:
81,303,104143,5,8,3:3:0:0:
111,230,104225,1,8,3:3:0:0:
140,158,104306,1,8,3:3:0:0:
170,85,104388,1,8,3:3:0:0:
201,14,104469,5,4,3:3:0:0:
260,4,104551,1,0,3:3:0:0:
314,28,104632,1,0,3:3:0:0:
343,80,104714,1,0,3:3:0:0:
338,139,104795,1,10,3:3:0:0:
294,180,104877,1,0,3:3:0:0:
268,233,104958,1,0,3:3:0:0:
281,291,105040,1,0,3:3:0:0:
323,332,105121,1,2,3:3:0:0:
382,339,105203,1,0,3:3:0:0:
433,307,105285,1,0,3:3:0:0:
448,249,105366,1,0,3:3:0:0:
424,193,105448,2,0,L|348:204,3,59.9999981689454,10|0|0|0,3:3|3:3|3:3|3:3,0:0:0:0:
195,307,105774,5,2,3:3:0:0:
141,334,105855,1,0,3:3:0:0:
83,316,105937,1,0,3:3:0:0:
50,266,106018,1,0,3:3:0:0:
53,205,106100,1,10,3:3:0:0:
94,162,106181,1,0,3:3:0:0:
153,154,106263,5,0,3:3:0:0:
154,201,106344,1,0,3:3:0:0:
122,237,106426,1,2,3:3:0:0:
74,245,106507,1,0,3:3:0:0:
29,226,106589,1,2,3:3:0:0:
9,182,106670,1,0,3:3:0:0:
14,134,106752,2,0,L|33:66,3,59.9999981689454,10|0|0|0,3:3|3:3|3:3|3:3,0:0:0:0:
189,6,107078,5,4,3:3:0:0:
245,26,107160,1,0,3:3:0:0:
278,75,107241,1,0,3:3:0:0:
274,135,107323,1,0,3:3:0:0:
238,183,107404,1,10,3:3:0:0:
184,209,107486,1,0,3:3:0:0:
148,257,107567,1,0,3:3:0:0:
159,316,107649,1,0,3:3:0:0:
205,353,107730,2,0,L|282:345,3,59.9999981689454,2|0|0|0,3:3|3:3|3:3|3:3,0:0:0:0:
378,205,108056,2,0,L|301:197,3,59.9999981689454,10|0|0|0,3:3|3:3|3:3|3:3,0:0:0:0:
461,384,108382,5,2,3:3:0:0:
473,325,108464,1,0,3:3:0:0:
486,266,108545,1,0,3:3:0:0:
499,207,108627,1,0,3:3:0:0:
512,148,108708,1,10,3:3:0:0:
490,91,108790,1,0,3:3:0:0:
437,63,108871,1,0,3:3:0:0:
377,71,108953,1,0,3:3:0:0:
341,119,109035,6,0,L|332:183,1,59.9999981689454,2|0,3:3|3:3,0:0:0:0:
505,223,109198,2,0,L|496:159,1,59.9999981689454,2|0,3:3|3:3,0:0:0:0:
429,60,109361,2,0,L|420:-4,3,59.9999981689454,10|0|0|0,3:3|3:3|3:3|3:3,0:0:0:0:
291,29,109687,5,4,3:3:0:0:
239,58,109768,1,0,3:3:0:0:
221,115,109850,1,0,3:3:0:0:
244,169,109931,1,0,3:3:0:0:
297,196,110013,1,10,3:3:0:0:
354,180,110094,1,0,3:3:0:0:
382,126,110176,5,0,3:3:0:0:
339,104,110257,1,0,3:3:0:0:
292,116,110339,1,2,3:3:0:0:
260,151,110420,1,0,3:3:0:0:
219,176,110502,1,0,3:3:0:0:
171,174,110583,1,0,3:3:0:0:
134,142,110665,2,0,L|129:77,3,59.9999981689454,10|0|0|0,3:3|3:3|3:3|3:3,0:0:0:0:
220,0,110991,5,4,3:3:0:0:
275,22,111073,1,0,3:3:0:0:
300,75,111154,1,0,3:3:0:0:
292,134,111236,1,0,3:3:0:0:
249,176,111317,1,10,3:3:0:0:
191,194,111399,1,0,3:3:0:0:
163,246,111480,1,0,3:3:0:0:
169,306,111562,1,0,3:3:0:0:
214,344,111643,1,2,3:3:0:0:
274,343,111725,1,0,3:3:0:0:
317,301,111806,2,0,L|236:286,1,59.9999981689454,0|0,3:3|3:3,0:0:0:0:
61,384,111969,2,0,L|142:369,3,59.9999981689454,10|0|0|0,3:3|3:3|3:3|3:3,0:0:0:0:
19,272,112295,5,4,3:3:0:0:
66,281,112377,1,0,3:3:0:0:
112,290,112458,1,0,3:3:0:0:
159,299,112540,1,0,3:3:0:0:
205,308,112621,1,10,3:3:0:0:
252,317,112703,1,0,3:3:0:0:
299,327,112785,1,0,3:3:0:0:
345,336,112866,1,0,3:3:0:0:
398,324,112948,1,2,3:3:0:0:
431,281,113029,1,0,3:3:0:0:
427,226,113111,2,0,L|358:240,1,59.9999981689454,0|0,3:3|3:3,0:0:0:0:
205,324,113274,2,0,L|274:338,3,59.9999981689454,10|0|0|0,3:3|3:3|3:3|3:3,0:0:0:0:
66,243,113600,5,8,3:3:0:0:
30,181,113681,1,8,3:3:0:0:
49,111,113763,1,8,3:3:0:0:
108,70,113844,1,8,3:3:0:0:
179,79,113926,1,8,3:3:0:0:
224,134,114007,1,0,3:3:0:0:
225,206,114089,5,8,3:3:0:0:
159,178,114170,1,8,3:3:0:0:
136,109,114252,1,8,3:3:0:0:
170,46,114333,1,8,3:3:0:0:
238,23,114415,1,8,3:3:0:0:
300,58,114496,1,0,3:3:0:0:
330,123,114578,5,8,3:3:0:0:
253,140,114660,1,8,3:3:0:0:
177,157,114741,1,8,3:3:0:0:
100,174,114823,1,8,3:3:0:0:
23,189,114904,5,4,3:3:0:0:
30,164,114986,1,0,3:3:0:0:
37,140,115067,1,0,3:3:0:0:
44,115,115149,1,0,3:3:0:0:
51,91,115230,2,0,B|103:87|103:87|110:89|110:89|165:85,1,100,10|0,3:3|3:3,0:0:0:0:
261,346,115556,5,2,3:3:0:0:
222,125,115719,1,0,3:3:0:0:
278,323,115882,1,10,3:3:0:0:
246,146,116045,1,0,3:3:0:0:
160,299,116208,5,2,3:3:0:0:
135,303,116290,1,0,3:3:0:0:
110,308,116371,1,0,3:3:0:0:
85,313,116453,1,0,3:3:0:0:
60,318,116535,2,0,L|75:251,1,50,10|0,3:3|0:0,0:0:0:0:
220,129,116698,2,0,L|235:196,1,50,0|0,3:3|0:0,0:0:0:0:
255,338,116861,6,0,B|292:357|292:357|421:333,1,150,2|0,3:3|0:0,0:0:0:0:
422,330,117187,1,10,3:3:0:0:
462,184,117350,1,0,3:3:0:0:
353,207,117513,5,4,3:3:0:0:
347,182,117594,1,0,3:3:0:0:
341,157,117676,1,0,3:3:0:0:
336,132,117757,1,0,3:3:0:0:
330,107,117839,2,0,B|274:101|274:101|269:98|269:98|207:91,1,100,10|0,3:3|3:3,0:0:0:0:
0,214,118165,5,2,3:3:0:0:
268,173,118328,1,0,3:3:0:0:
31,231,118491,1,10,3:3:0:0:
244,199,118654,1,0,3:3:0:0:
66,62,118817,5,2,3:3:0:0:
90,66,118899,1,0,3:3:0:0:
114,71,118980,1,0,3:3:0:0:
138,75,119062,1,0,3:3:0:0:
162,81,119143,2,0,L|222:93,1,50,10|0,3:3|0:0,0:0:0:0:
49,157,119306,2,0,L|-11:169,1,50,0|0,3:3|0:0,0:0:0:0:
184,10,119469,6,0,B|218:-6|218:-6|350:19,1,150,2|0,3:3|0:0,0:0:0:0:
349,29,119795,2,0,P|349:74|331:26,1,129.999994049073,10|0,3:3|3:3,0:0:0:0:
252,175,120121,5,4,3:3:0:0:
256,199,120203,1,0,3:3:0:0:
260,223,120285,1,0,3:3:0:0:
264,247,120366,1,0,3:3:0:0:
270,271,120448,1,10,3:3:0:0:
166,144,120611,1,0,3:3:0:0:
90,345,120774,6,0,B|115:363|115:363|209:348,1,100,2|0,3:3|3:3,0:0:0:0:
210,348,121018,1,0,0:0:0:0:
210,348,121100,1,10,3:3:0:0:
19,273,121263,1,0,3:3:0:0:
161,150,121426,5,2,3:3:0:0:
185,147,121507,1,0,3:3:0:0:
210,145,121589,1,0,3:3:0:0:
234,143,121670,1,0,3:3:0:0:
259,141,121752,1,10,3:3:0:0:
349,269,121915,1,0,3:3:0:0:
431,118,122078,6,0,B|442:69|442:69|430:17,1,100,2|0,3:3|3:3,0:0:0:0:
425,0,122323,1,0,0:0:0:0:
425,0,122404,1,10,3:3:0:0:
342,179,122567,1,0,3:3:0:0:
232,71,122730,5,4,3:3:0:0:
54,41,122893,1,0,3:3:0:0:
201,157,123056,1,10,3:3:0:0:
69,170,123219,1,0,3:3:0:0:
255,61,123382,5,2,3:3:0:0:
32,23,123545,1,0,3:3:0:0:
216,168,123708,1,10,3:3:0:0:
51,185,123871,1,0,3:3:0:0:
278,58,124035,5,2,3:3:0:0:
281,82,124116,1,0,3:3:0:0:
284,106,124198,1,0,3:3:0:0:
287,130,124279,1,0,3:3:0:0:
291,154,124361,1,10,3:3:0:0:
199,12,124524,1,0,3:3:0:0:
87,253,124687,5,8,3:3:0:0:
110,307,124768,1,8,3:3:0:0:
161,339,124850,1,8,3:3:0:0:
220,337,124931,1,8,3:3:0:0:
267,299,125013,1,8,3:3:0:0:
302,250,125094,1,8,3:3:0:0:
358,229,125176,1,8,3:3:0:0:
415,244,125257,1,8,3:3:0:0:
456,287,125339,5,2,3:3:0:0:
420,321,125420,1,0,3:3:0:0:
370,328,125502,1,0,3:3:0:0:
324,307,125583,1,0,3:3:0:0:
297,264,125665,1,12,3:3:0:0:
297,214,125746,1,0,3:3:0:0:
325,172,125828,1,0,3:3:0:0:
371,153,125910,1,0,3:3:0:0:
399,112,125991,1,2,3:3:0:0:
391,62,126073,1,0,3:3:0:0:
362,21,126154,1,0,3:3:0:0:
312,13,126236,1,0,3:3:0:0:
267,34,126317,1,12,3:3:0:0:
247,80,126399,1,0,3:3:0:0:
231,127,126480,1,0,3:3:0:0:
211,173,126562,1,0,3:3:0:0:
167,197,126643,5,2,3:3:0:0:
116,194,126725,1,0,3:3:0:0:
81,157,126806,1,0,3:3:0:0:
81,106,126888,1,0,3:3:0:0:
114,69,126969,1,12,3:3:0:0:
163,61,127051,1,0,3:3:0:0:
207,82,127132,1,0,3:3:0:0:
227,127,127214,1,0,3:3:0:0:
221,176,127295,2,0,L|207:245,1,50,2|0,3:3|3:3,0:0:0:0:
103,336,127458,5,12,3:3:0:0:
88,338,127540,1,0,3:3:0:0:
73,340,127621,1,0,3:3:0:0:
58,342,127703,1,0,3:3:0:0:
43,344,127785,2,0,L|57:275,1,50,12|0,3:3|3:3,0:0:0:0:
123,166,127948,5,2,3:3:0:0:
169,138,128029,1,0,3:3:0:0:
223,144,128111,1,0,3:3:0:0:
264,179,128192,1,0,3:3:0:0:
276,232,128274,1,12,3:3:0:0:
321,263,128356,1,0,3:3:0:0:
375,266,128437,1,0,3:3:0:0:
421,236,128519,1,0,3:3:0:0:
442,185,128600,1,2,3:3:0:0:
431,130,128682,1,0,3:3:0:0:
384,101,128763,1,0,3:3:0:0:
328,95,128845,1,0,3:3:0:0:
280,121,128926,1,12,3:3:0:0:
254,169,129008,1,0,3:3:0:0:
265,222,129089,1,0,3:3:0:0:
300,263,129170,1,0,3:3:0:0:
354,269,129252,5,2,3:3:0:0:
401,242,129333,1,0,3:3:0:0:
410,187,129415,1,0,3:3:0:0:
379,141,129496,1,0,3:3:0:0:
324,134,129578,1,12,3:3:0:0:
272,154,129660,1,0,3:3:0:0:
245,201,129741,1,0,3:3:0:0:
196,226,129823,1,0,3:3:0:0:
137,231,129904,2,0,L|79:213,1,50,2|0,3:3|3:3,0:0:0:0:
51,63,130067,5,12,3:3:0:0:
65,59,130149,1,0,3:3:0:0:
79,55,130230,1,0,3:3:0:0:
94,52,130312,1,0,3:3:0:0:
107,48,130393,2,0,L|161:36,1,50,12|0,3:3|3:3,0:0:0:0:
259,118,130556,5,2,3:3:0:0:
288,158,130638,1,0,3:3:0:0:
284,207,130719,1,0,3:3:0:0:
252,245,130801,1,0,3:3:0:0:
223,286,130882,1,12,3:3:0:0:
227,336,130964,1,0,3:3:0:0:
262,371,131045,1,0,3:3:0:0:
312,372,131127,1,0,3:3:0:0:
350,341,131208,1,2,3:3:0:0:
360,291,131290,1,0,3:3:0:0:
337,246,131371,1,0,3:3:0:0:
289,228,131453,1,0,3:3:0:0:
238,232,131535,1,12,3:3:0:0:
197,260,131616,1,0,3:3:0:0:
157,290,131698,1,0,3:3:0:0:
107,294,131779,1,0,3:3:0:0:
63,269,131861,5,2,3:3:0:0:
39,225,131942,1,0,3:3:0:0:
44,174,132024,1,0,3:3:0:0:
77,137,132105,1,0,3:3:0:0:
126,127,132187,1,12,3:3:0:0:
171,146,132268,1,0,3:3:0:0:
197,188,132350,1,0,3:3:0:0:
197,237,132431,1,0,3:3:0:0:
164,275,132513,2,0,L|95:262,1,50,2|0,3:3|3:3,0:0:0:0:
273,170,132676,5,12,3:3:0:0:
287,167,132757,1,0,3:3:0:0:
302,164,132839,1,0,3:3:0:0:
317,161,132920,1,0,3:3:0:0:
331,158,133002,2,0,L|400:145,1,50,12|0,3:3|3:3,0:0:0:0:
444,276,133165,5,2,3:3:0:0:
419,318,133246,1,0,3:3:0:0:
372,338,133328,1,0,3:3:0:0:
322,331,133410,1,0,3:3:0:0:
290,292,133491,1,12,3:3:0:0:
279,242,133573,1,0,3:3:0:0:
270,192,133654,1,0,3:3:0:0:
262,142,133736,1,0,3:3:0:0:
228,105,133817,1,2,3:3:0:0:
177,101,133899,1,0,3:3:0:0:
136,129,133980,1,0,3:3:0:0:
124,178,134062,1,0,3:3:0:0:
146,222,134143,1,12,3:3:0:0:
192,240,134225,1,0,3:3:0:0:
240,228,134306,1,0,3:3:0:0:
268,186,134388,1,0,3:3:0:0:
278,137,134469,5,8,3:3:0:0:
253,140,134551,1,8,3:3:0:0:
228,143,134632,1,8,3:3:0:0:
203,146,134714,1,8,3:3:0:0:
178,149,134795,1,8,3:3:0:0:
153,152,134877,1,8,3:3:0:0:
128,155,134958,1,8,3:3:0:0:
103,158,135040,1,8,3:3:0:0:
78,161,135121,2,0,L|18:169,1,50,8|8,3:3|3:3,0:0:0:0:
0,312,135285,5,12,3:3:0:0:
3,326,135366,1,0,3:3:0:0:
6,340,135448,1,0,3:3:0:0:
9,354,135529,1,0,3:3:0:0:
12,368,135611,2,0,L|72:376,1,50,12|0,3:3|3:3,0:0:0:0:
146,229,135774,5,12,3:3:0:0:
219,362,135937,1,0,3:3:0:0:
369,203,136100,1,10,3:3:0:0:
329,199,136181,1,0,3:3:0:0:
288,195,136263,1,0,3:3:0:0:
248,191,136344,1,0,3:3:0:0:
207,187,136426,1,10,3:3:0:0:
267,288,136589,1,0,3:3:0:0:
350,106,136752,5,10,3:3:0:0:
390,102,136833,1,0,3:3:0:0:
431,98,136915,1,0,3:3:0:0:
471,94,136996,1,0,3:3:0:0:
512,90,137078,1,10,3:3:0:0:
367,196,137241,1,0,3:3:0:0:
276,42,137404,5,10,3:3:0:0:
236,38,137485,1,0,3:3:0:0:
195,34,137567,1,0,3:3:0:0:
155,30,137648,1,0,3:3:0:0:
114,26,137730,1,10,3:3:0:0:
21,151,137893,1,0,3:3:0:0:
152,265,138056,5,10,3:3:0:0:
145,225,138137,1,0,3:3:0:0:
138,184,138219,1,0,3:3:0:0:
131,145,138300,1,0,3:3:0:0:
124,104,138382,1,10,3:3:0:0:
48,322,138545,1,0,3:3:0:0:
233,172,138708,5,10,3:3:0:0:
269,155,138790,1,0,3:3:0:0:
308,158,138871,1,0,3:3:0:0:
342,179,138953,1,0,3:3:0:0:
363,212,139035,1,10,3:3:0:0:
386,243,139116,1,0,3:3:0:0:
423,256,139198,1,0,3:3:0:0:
462,250,139279,1,0,3:3:0:0:
490,221,139361,1,10,3:3:0:0:
496,181,139442,1,0,3:3:0:0:
481,143,139524,1,0,3:3:0:0:
446,122,139605,1,0,3:3:0:0:
405,118,139687,5,12,3:3:0:0:
492,369,139850,1,12,3:3:0:0:
492,369,140176,1,12,3:3:0:0:
492,369,140502,1,12,3:3:0:0:
418,343,140665,5,8,3:3:0:0:
403,345,140746,1,8,3:3:0:0:
388,347,140828,1,8,3:3:0:0:
373,349,140910,1,8,3:3:0:0:
358,351,140991,5,4,3:3:0:0:
326,325,141073,1,0,3:3:0:0:
319,285,141154,1,0,3:3:0:0:
333,247,141236,1,0,3:3:0:0:
358,216,141317,1,10,3:3:0:0:
358,175,141399,1,0,3:3:0:0:
332,144,141480,1,0,3:3:0:0:
294,129,141562,1,0,3:3:0:0:
256,142,141643,1,10,3:3:0:0:
166,292,141806,1,0,3:3:0:0:
79,186,141969,5,10,3:3:0:0:
86,146,142051,1,0,3:3:0:0:
93,107,142132,1,0,3:3:0:0:
101,67,142214,1,0,3:3:0:0:
109,28,142295,1,10,3:3:0:0:
187,170,142458,1,0,3:3:0:0:
314,76,142621,5,10,3:3:0:0:
354,80,142703,1,0,3:3:0:0:
393,84,142784,1,0,3:3:0:0:
434,89,142866,1,0,3:3:0:0:
473,94,142947,1,10,3:3:0:0:
512,261,143111,1,0,3:3:0:0:
420,190,143273,5,10,3:3:0:0:
380,194,143355,1,0,3:3:0:0:
341,198,143436,1,0,3:3:0:0:
300,203,143518,1,0,3:3:0:0:
261,208,143599,1,10,3:3:0:0:
224,321,143763,1,0,3:3:0:0:
130,156,143926,5,10,3:3:0:0:
94,137,144007,1,0,3:3:0:0:
54,141,144089,1,0,3:3:0:0:
25,168,144170,1,0,3:3:0:0:
18,207,144252,1,10,3:3:0:0:
34,242,144333,1,0,3:3:0:0:
66,265,144415,1,0,3:3:0:0:
105,263,144496,1,0,3:3:0:0:
138,240,144578,1,10,3:3:0:0:
154,203,144660,1,0,3:3:0:0:
186,180,144741,1,0,3:3:0:0:
226,180,144823,1,0,3:3:0:0:
258,202,144904,5,12,3:3:0:0:
104,17,145067,1,12,3:3:0:0:
104,17,145393,1,12,3:3:0:0:
104,17,145719,1,12,3:3:0:0:
33,72,145882,5,8,3:3:0:0:
41,131,145964,1,8,3:3:0:0:
49,190,146045,1,8,3:3:0:0:
57,249,146127,1,8,3:3:0:0:
65,307,146208,5,4,3:3:0:0:
85,272,146290,1,0,3:3:0:0:
120,253,146371,1,0,3:3:0:0:
160,249,146453,1,0,3:3:0:0:
198,261,146535,5,10,3:3:0:0:
193,295,146616,1,0,3:3:0:0:
188,329,146698,2,0,L|181:383,1,50,0|0,3:3|3:3,0:0:0:0:
56,302,146861,5,2,3:3:0:0:
51,268,146942,1,0,3:3:0:0:
46,234,147024,2,0,L|39:180,1,50,0|0,3:3|3:3,0:0:0:0:
244,127,147187,5,10,3:3:0:0:
239,161,147268,1,0,3:3:0:0:
234,195,147350,2,0,L|227:249,1,50,0|0,3:3|3:3,0:0:0:0:
154,99,147513,5,4,3:3:0:0:
179,56,147594,1,0,3:3:0:0:
225,35,147676,1,0,3:3:0:0:
274,38,147757,1,0,3:3:0:0:
315,66,147839,1,10,3:3:0:0:
333,112,147920,1,0,3:3:0:0:
322,161,148002,5,0,3:3:0:0:
282,168,148083,1,0,3:3:0:0:
242,175,148165,1,2,3:3:0:0:
202,182,148246,1,0,3:3:0:0:
162,189,148328,1,0,3:3:0:0:
122,197,148410,1,0,3:3:0:0:
83,205,148491,2,0,L|68:261,3,50,10|0|0|0,3:3|3:3|3:3|3:3,0:0:0:0:
149,348,148817,5,4,3:3:0:0:
194,369,148899,1,0,3:3:0:0:
242,359,148980,1,0,3:3:0:0:
273,320,149062,1,0,3:3:0:0:
275,270,149143,1,10,3:3:0:0:
246,228,149225,1,0,3:3:0:0:
240,178,149306,1,0,3:3:0:0:
262,133,149388,1,0,3:3:0:0:
308,115,149469,2,0,L|368:125,3,50,2|0|0|0,3:3|3:3|3:3|3:3,0:0:0:0:
447,256,149795,2,0,L|387:266,3,50,10|0|0|0,3:3|3:3|3:3|3:3,0:0:0:0:
495,72,150121,5,4,3:3:0:0:
445,65,150203,1,0,3:3:0:0:
395,58,150285,1,0,3:3:0:0:
345,51,150366,1,0,3:3:0:0:
295,44,150448,2,0,L|232:33,1,50,10|0,3:3|3:3,0:0:0:0:
152,163,150611,5,0,3:3:0:0:
186,158,150692,1,0,3:3:0:0:
220,153,150774,2,0,L|288:143,1,50,2|0,3:3|3:3,0:0:0:0:
63,59,150937,5,0,3:3:0:0:
35,87,151018,1,0,3:3:0:0:
28,126,151100,1,10,3:3:0:0:
45,161,151181,1,0,3:3:0:0:
69,191,151263,1,0,3:3:0:0:
69,230,151344,1,0,3:3:0:0:
48,264,151426,2,0,L|-22:279,3,50,4|0|0|0,3:3|3:3|3:3|3:3,0:0:0:0:
110,112,151752,2,0,L|180:127,3,50,10|0|0|0,3:3|3:3|3:3|3:3,0:0:0:0:
238,205,152078,5,2,3:3:0:0:
245,239,152160,1,0,3:3:0:0:
251,273,152241,2,0,L|260:326,1,50,0|0,3:3|3:3,0:0:0:0:
106,384,152404,5,10,3:3:0:0:
113,350,152486,1,0,3:3:0:0:
119,316,152567,2,0,L|128:263,1,50,0|0,3:3|3:3,0:0:0:0:
328,295,152730,6,0,L|337:348,3,50,4|0|0|0,3:3|3:3|3:3|3:3,0:0:0:0:
162,195,153056,2,0,L|171:142,3,50,10|0|0|0,3:3|3:3|3:3|3:3,0:0:0:0:
311,96,153382,5,2,3:3:0:0:
345,91,153464,1,0,3:3:0:0:
379,86,153545,2,0,L|452:77,1,50,0|0,3:3|3:3,0:0:0:0:
505,254,153708,5,10,3:3:0:0:
471,249,153790,1,0,3:3:0:0:
437,244,153871,2,0,L|364:235,1,50,0|0,3:3|3:3,0:0:0:0:
215,152,154035,5,4,3:3:0:0:
167,137,154116,1,0,3:3:0:0:
119,152,154198,1,0,3:3:0:0:
89,191,154279,1,0,3:3:0:0:
87,241,154361,1,10,3:3:0:0:
112,283,154442,1,0,3:3:0:0:
158,302,154524,1,0,3:3:0:0:
207,296,154605,1,0,3:3:0:0:
241,259,154687,2,0,L|164:243,3,50,2|0|0|0,3:3|3:3|3:3|3:3,0:0:0:0:
284,357,155013,2,0,L|207:373,3,50,10|0|0|0,3:3|3:3|3:3|3:3,0:0:0:0:
348,261,155339,5,4,3:3:0:0:
357,212,155420,1,0,3:3:0:0:
366,162,155502,1,0,3:3:0:0:
375,113,155583,1,0,3:3:0:0:
385,63,155665,2,0,L|452:54,1,50,10|0,3:3|3:3,0:0:0:0:
287,136,155828,5,0,3:3:0:0:
250,153,155910,1,0,3:3:0:0:
210,149,155991,1,2,3:3:0:0:
180,121,156073,1,0,3:3:0:0:
170,82,156154,1,0,3:3:0:0:
181,43,156236,1,0,3:3:0:0:
214,21,156317,2,0,L|281:30,3,50,10|0|0|0,3:3|3:3|3:3|3:3,0:0:0:0:
100,123,156643,5,8,3:3:0:0:
75,128,156725,1,0,3:3:0:0:
50,133,156806,1,0,3:3:0:0:
25,139,156888,1,0,3:3:0:0:
0,144,156969,1,0,3:3:0:0:
166,194,157132,2,0,B|182:162|182:162|168:79,1,100,8|8,3:3|3:3,0:0:0:0:
99,239,157458,1,8,3:3:0:0:
244,81,157621,5,8,3:3:0:0:
268,84,157703,1,0,3:3:0:0:
292,87,157785,1,0,3:3:0:0:
316,91,157866,1,0,3:3:0:0:
340,95,157948,1,0,3:3:0:0:
452,205,158111,2,0,B|444:154|444:154|441:150|441:150|434:105,1,100,8|8,3:3|3:3,0:0:0:0:
362,186,158437,1,8,3:3:0:0:
476,297,158600,5,12,3:3:0:0:
236,233,158763,1,0,3:3:0:0:
405,353,158926,1,12,3:3:0:0:
380,356,159007,1,0,3:3:0:0:
355,360,159089,1,0,3:3:0:0:
330,364,159170,1,0,3:3:0:0:
303,368,159252,6,0,B|287:316|287:316|305:252,1,100,4|0,3:3|3:3,0:0:0:0:
412,189,159578,1,4,3:3:0:0:
212,294,159741,2,0,B|166:289|166:289|163:284|163:284|108:278,1,100,0|12,3:3|3:3,0:0:0:0:
31,156,160067,1,0,3:3:0:0:
180,0,160230,6,0,B|195:32|195:32|173:108,1,100,4|0,3:3|3:3,0:0:0:0:
79,221,160556,1,4,3:3:0:0:
0,86,160719,2,0,B|48:80|48:80|63:84|63:84|126:75,1,100,0|4,3:3|3:3,0:0:0:0:
206,209,161045,1,0,3:3:0:0:
330,110,161208,5,12,3:3:0:0:
336,75,161290,1,0,3:3:0:0:
321,43,161371,2,0,P|302:21|257:14,1,50,0|0,3:3|3:3,0:0:0:0:
203,218,161535,5,12,3:3:0:0:
230,240,161617,1,0,3:3:0:0:
265,243,161698,2,0,P|293:237|322:202,1,50,0|0,3:3|3:3,0:0:0:0:
105,139,161861,6,0,B|88:165|88:165|103:249,1,100,4|0,3:3|3:3,0:0:0:0:
200,350,162187,1,4,3:3:0:0:
275,156,162350,2,0,B|224:150|224:150|213:154|213:154|153:147,1,100,0|12,3:3|3:3,0:0:0:0:
306,301,162676,1,0,3:3:0:0:
395,180,162839,6,0,B|446:170|446:170|494:185,1,100,4|0,3:3|3:3,0:0:0:0:
304,288,163165,1,4,3:3:0:0:
395,105,163328,1,0,3:3:0:0:
478,317,163491,2,0,B|488:338|488:338|390:324,1,100,4|0,3:3|3:3,0:0:0:0:
168,263,163817,5,12,3:3:0:0:
162,298,163899,1,0,3:3:0:0:
177,330,163980,2,0,P|196:352|241:359,1,50,0|0,3:3|3:3,0:0:0:0:
232,177,164144,5,12,3:3:0:0:
205,155,164226,1,0,3:3:0:0:
170,152,164307,2,0,P|141:157|112:192,1,50,0|0,3:3|3:3,0:0:0:0:
14,279,164469,6,0,B|-7:292|-7:292|15:188,1,100,4|0,3:3|3:3,0:0:0:0:
58,99,164795,1,4,3:3:0:0:
81,316,164958,1,0,3:3:0:0:
164,149,165121,2,0,B|196:135|196:135|282:163,1,100,12|0,3:3|3:3,0:0:0:0:
347,260,165448,6,0,B|340:212|340:212|344:196|344:196|338:149,1,100,4|0,3:3|3:3,0:0:0:0:
262,302,165774,1,4,3:3:0:0:
262,302,165937,1,0,3:3:0:0:
355,360,166100,5,8,3:3:0:0:
411,341,166181,1,8,3:3:0:0:
443,290,166263,1,8,3:3:0:0:
437,230,166344,1,8,3:3:0:0:
397,184,166426,1,8,3:3:0:0:
346,152,166507,1,8,3:3:0:0:
325,95,166589,1,8,3:3:0:0:
345,38,166670,1,8,3:3:0:0:
398,9,166752,1,8,3:3:0:0:
456,18,166833,1,8,3:3:0:0:
492,66,166915,1,8,3:3:0:0:
496,125,166996,1,8,3:3:0:0:
453,168,167078,5,12,3:3:0:0:
423,140,167160,1,0,3:3:0:0:
383,134,167241,1,0,3:3:0:0:
345,149,167323,1,0,3:3:0:0:
325,183,167404,1,2,3:3:0:0:
289,201,167486,1,0,3:3:0:0:
249,196,167567,1,0,3:3:0:0:
220,167,167649,1,0,3:3:0:0:
215,127,167730,5,10,3:3:0:0:
255,123,167812,1,0,3:3:0:0:
291,138,167893,1,0,3:3:0:0:
311,172,167975,1,0,3:3:0:0:
311,211,168056,1,2,3:3:0:0:
288,244,168138,1,0,3:3:0:0:
250,258,168219,1,0,3:3:0:0:
209,255,168301,1,0,3:3:0:0:
179,228,168382,5,10,3:3:0:0:
215,211,168464,1,0,3:3:0:0:
253,220,168545,1,0,3:3:0:0:
281,248,168627,1,0,3:3:0:0:
294,285,168708,1,2,3:3:0:0:
316,318,168790,1,0,3:3:0:0:
354,329,168871,1,0,3:3:0:0:
392,316,168953,1,0,3:3:0:0:
412,281,169035,5,12,3:3:0:0:
405,246,169116,1,0,3:3:0:0:
398,211,169198,2,0,L|386:149,1,50,0|0,3:3|3:3,0:0:0:0:
225,132,169361,5,12,3:3:0:0:
218,167,169442,1,0,3:3:0:0:
211,202,169524,2,0,L|199:264,1,50,0|0,3:3|3:3,0:0:0:0:
193,49,169687,5,12,3:3:0:0:
154,16,169768,1,0,3:3:0:0:
103,11,169850,1,0,3:3:0:0:
59,35,169931,1,0,3:3:0:0:
41,82,170013,1,2,3:3:0:0:
51,130,170094,1,0,3:3:0:0:
88,164,170176,5,0,3:3:0:0:
137,157,170257,1,0,3:3:0:0:
186,150,170339,1,10,3:3:0:0:
235,144,170420,1,0,3:3:0:0:
285,137,170502,1,0,3:3:0:0:
333,131,170583,1,0,3:3:0:0:
383,125,170665,2,0,L|450:117,3,50,2|0|0|0,3:3|3:3|3:3|3:3,0:0:0:0:
380,245,170991,5,12,3:3:0:0:
341,277,171073,1,0,3:3:0:0:
291,285,171154,1,0,3:3:0:0:
244,265,171236,1,0,3:3:0:0:
220,221,171317,1,2,3:3:0:0:
186,183,171399,1,0,3:3:0:0:
137,173,171480,1,0,3:3:0:0:
89,188,171562,1,0,3:3:0:0:
64,231,171643,5,12,3:3:0:0:
103,262,171725,1,0,3:3:0:0:
152,256,171806,1,0,3:3:0:0:
183,217,171888,1,0,3:3:0:0:
186,167,171969,2,0,L|174:100,3,50,12|0|0|0,3:3|3:3|3:3|3:3,0:0:0:0:
72,13,172295,5,12,3:3:0:0:
82,72,172377,1,0,3:3:0:0:
92,130,172458,1,0,3:3:0:0:
102,189,172540,1,0,3:3:0:0:
112,247,172621,1,2,3:3:0:0:
152,291,172703,1,0,3:3:0:0:
209,308,172785,1,0,3:3:0:0:
264,286,172866,1,0,3:3:0:0:
292,232,172948,5,10,3:3:0:0:
251,203,173029,1,0,3:3:0:0:
200,203,173111,1,0,3:3:0:0:
158,230,173192,1,0,3:3:0:0:
139,276,173274,1,2,3:3:0:0:
148,324,173355,1,0,3:3:0:0:
179,362,173437,1,0,3:3:0:0:
227,373,173518,1,0,3:3:0:0:
272,352,173600,5,10,3:3:0:0:
251,306,173681,1,0,3:3:0:0:
205,285,173763,1,0,3:3:0:0:
155,285,173844,1,0,3:3:0:0:
114,314,173926,2,0,L|122:376,3,50,2|0|0|0,3:3|3:3|3:3|3:3,0:0:0:0:
294,246,174252,2,0,L|302:184,3,50,12|0|0|0,3:3|3:3|3:3|3:3,0:0:0:0:
137,160,174578,2,0,L|145:222,3,50,12|0|0|0,3:3|3:3|3:3|3:3,0:0:0:0:
159,67,174904,5,12,3:3:0:0:
203,27,174986,1,0,3:3:0:0:
262,24,175067,1,0,3:3:0:0:
312,56,175149,1,0,3:3:0:0:
327,113,175230,1,2,3:3:0:0:
369,155,175312,1,0,3:3:0:0:
428,161,175393,1,0,3:3:0:0:
479,131,175475,1,0,3:3:0:0:
493,73,175556,5,10,3:3:0:0:
447,52,175638,1,0,3:3:0:0:
398,60,175719,1,0,3:3:0:0:
362,95,175801,1,0,3:3:0:0:
350,143,175882,1,2,3:3:0:0:
365,190,175964,1,0,3:3:0:0:
402,222,176045,1,0,3:3:0:0:
451,228,176127,1,0,3:3:0:0:
492,200,176208,5,12,3:3:0:0:
467,156,176290,1,0,3:3:0:0:
420,138,176371,1,0,3:3:0:0:
371,151,176453,1,0,3:3:0:0:
334,185,176535,1,2,3:3:0:0:
285,195,176616,1,0,3:3:0:0:
242,168,176698,1,0,3:3:0:0:
223,121,176779,1,0,3:3:0:0:
242,74,176861,5,8,3:3:0:0:
292,105,176942,1,8,3:3:0:0:
312,161,177024,1,8,3:3:0:0:
300,219,177105,1,8,3:3:0:0:
256,260,177187,1,8,3:3:0:0:
207,272,177268,1,8,3:3:0:0:
168,258,177350,1,8,3:3:0:0:
150,233,177431,1,8,3:3:0:0:
148,207,177513,2,0,L|206:197,3,50,12|0|0|0,3:3|3:3|3:3|3:3,0:0:0:0:
399,257,177839,5,10,3:3:0:0:
395,281,177920,1,0,3:3:0:0:
391,305,178002,2,0,L|384:356,1,50,0|0,3:3|3:3,0:0:0:0:
277,276,178165,5,10,3:3:0:0:
272,251,178246,1,0,3:3:0:0:
267,226,178328,2,0,L|260:175,1,50,0|0,3:3|3:3,0:0:0:0:
472,122,178491,5,10,3:3:0:0:
468,146,178572,1,0,3:3:0:0:
465,170,178654,2,0,L|458:221,1,50,0|0,3:3|3:3,0:0:0:0:
324,160,178817,5,12,3:3:0:0:
292,135,178899,1,0,3:3:0:0:
280,96,178980,1,0,3:3:0:0:
290,57,179062,1,0,3:3:0:0:
319,30,179143,1,10,3:3:0:0:
358,24,179225,1,0,3:3:0:0:
394,39,179306,5,0,3:3:0:0:
379,76,179388,1,0,3:3:0:0:
344,96,179469,1,10,3:3:0:0:
303,99,179551,1,0,3:3:0:0:
267,81,179632,1,0,3:3:0:0:
250,44,179714,1,0,3:3:0:0:
254,4,179795,2,0,L|313:13,3,50,10|0|0|0,3:3|3:3|3:3|3:3,0:0:0:0:
175,83,180121,5,12,3:3:0:0:
169,122,180203,1,0,3:3:0:0:
163,161,180285,1,0,3:3:0:0:
157,200,180366,1,0,3:3:0:0:
151,239,180448,1,10,3:3:0:0:
145,278,180529,1,0,3:3:0:0:
140,317,180611,5,0,3:3:0:0:
107,340,180692,1,0,3:3:0:0:
66,343,180774,1,10,3:3:0:0:
33,320,180855,1,0,3:3:0:0:
22,281,180937,1,0,3:3:0:0:
36,244,181018,1,0,3:3:0:0:
73,228,181100,2,0,L|134:241,3,50,10|0|0|0,3:3|3:3|3:3|3:3,0:0:0:0:
199,341,181426,6,0,L|260:328,1,50,12|0,3:3|3:3,0:0:0:0:
311,277,181589,2,0,L|372:290,1,50,0|0,3:3|3:3,0:0:0:0:
465,339,181752,5,10,3:3:0:0:
504,309,181833,1,0,3:3:0:0:
512,259,181915,1,0,3:3:0:0:
486,216,181996,1,0,3:3:0:0:
439,196,182078,5,8,3:3:0:0:
404,204,182160,1,8,3:3:0:0:
370,212,182241,1,8,3:3:0:0:
335,220,182323,1,8,3:3:0:0:
295,241,182404,5,8,3:3:0:0:
275,236,182486,1,8,3:3:0:0:
255,231,182567,1,8,3:3:0:0:
235,226,182649,1,8,3:3:0:0:
194,182,182730,5,12,3:3:0:0:
165,209,182812,1,0,3:3:0:0:
125,215,182893,1,0,3:3:0:0:
87,199,182975,1,0,3:3:0:0:
68,164,183056,5,10,3:3:0:0:
73,139,183138,1,0,3:3:0:0:
80,115,183219,2,0,L|95:57,1,50,0|0,3:3|3:3,0:0:0:0:
275,107,183382,5,10,3:3:0:0:
278,131,183464,1,0,3:3:0:0:
284,154,183545,2,0,L|299:212,1,50,0|0,3:3|3:3,0:0:0:0:
54,172,183708,2,0,L|69:114,1,50,10|0,3:3|3:3,0:0:0:0:
210,215,183871,5,0,3:3:0:0:
217,238,183953,1,0,3:3:0:0:
224,261,184035,5,12,3:3:0:0:
256,284,184116,1,0,3:3:0:0:
295,288,184198,1,0,3:3:0:0:
330,270,184279,1,0,3:3:0:0:
351,236,184361,5,10,3:3:0:0:
390,231,184442,1,0,3:3:0:0:
424,251,184524,1,0,3:3:0:0:
442,286,184605,1,0,3:3:0:0:
443,326,184687,2,0,L|435:381,3,50,10|0|0|0,3:3|3:3|3:3|3:3,0:0:0:0:
286,288,185013,2,0,L|278:233,3,50,10|0|0|0,3:3|3:3|3:3|3:3,0:0:0:0:
192,341,185339,5,12,3:3:0:0:
151,369,185420,1,0,3:3:0:0:
100,364,185502,1,0,3:3:0:0:
61,332,185583,1,0,3:3:0:0:
52,282,185665,1,10,3:3:0:0:
68,235,185746,1,0,3:3:0:0:
111,209,185828,1,0,3:3:0:0:
161,205,185910,1,0,3:3:0:0:
202,232,185991,1,10,3:3:0:0:
224,276,186073,1,0,3:3:0:0:
264,305,186154,1,0,3:3:0:0:
314,304,186236,1,0,3:3:0:0:
351,271,186317,1,10,3:3:0:0:
358,221,186399,1,0,3:3:0:0:
336,176,186480,1,0,3:3:0:0:
289,155,186562,1,0,3:3:0:0:
240,164,186643,5,8,3:3:0:0:
244,224,186725,1,8,3:3:0:0:
289,262,186806,1,8,3:3:0:0:
349,267,186888,1,8,3:3:0:0:
394,228,186969,1,8,3:3:0:0:
408,169,187051,1,8,3:3:0:0:
375,118,187132,1,8,3:3:0:0:
318,97,187214,1,8,3:3:0:0:
262,117,187295,1,8,3:3:0:0:
233,170,187377,1,8,3:3:0:0:
185,205,187458,1,8,3:3:0:0:
124,203,187540,1,8,3:3:0:0:
76,167,187621,1,8,3:3:0:0:
53,105,187703,1,8,3:3:0:0:
84,42,187785,1,8,3:3:0:0:
154,18,187866,1,8,3:3:0:0:
223,46,187948,5,4,3:3:0:0:
211,104,188029,1,0,3:3:0:0:
199,163,188111,1,0,3:3:0:0:
187,221,188192,1,0,3:3:0:0:
175,280,188274,1,10,3:3:0:0:
188,337,188355,1,0,3:3:0:0:
234,375,188437,1,0,3:3:0:0:
293,372,188518,1,0,3:3:0:0:
336,329,188600,1,2,3:3:0:0:
343,269,188681,1,0,3:3:0:0:
309,219,188763,1,0,3:3:0:0:
252,201,188844,1,0,3:3:0:0:
194,223,188926,2,0,L|176:297,3,59.9999981689454,10|0|0|0,3:3|3:3|3:3|3:3,0:0:0:0:
45,253,189252,5,2,3:3:0:0:
12,203,189333,1,0,3:3:0:0:
20,143,189415,1,0,3:3:0:0:
59,98,189496,1,0,3:3:0:0:
117,84,189578,1,10,3:3:0:0:
174,102,189660,1,0,3:3:0:0:
205,152,189741,5,0,3:3:0:0:
163,176,189823,1,0,3:3:0:0:
115,168,189904,1,2,3:3:0:0:
76,138,189986,1,0,3:3:0:0:
62,92,190067,1,2,3:3:0:0:
74,45,190149,1,0,3:3:0:0:
110,14,190230,2,0,L|173:8,3,59.9999981689454,10|0|0|0,3:3|3:3|3:3|3:3,0:0:0:0:
212,158,190556,5,4,3:3:0:0:
256,198,190638,1,0,3:3:0:0:
315,199,190719,1,0,3:3:0:0:
363,163,190801,1,0,3:3:0:0:
422,158,190882,1,10,3:3:0:0:
472,190,190964,1,0,3:3:0:0:
489,246,191045,1,0,3:3:0:0:
473,304,191127,1,0,3:3:0:0:
419,329,191208,2,0,L|341:320,3,59.9999981689454,2|0|0|0,3:3|3:3|3:3|3:3,0:0:0:0:
254,124,191535,2,0,L|332:115,3,59.9999981689454,10|0|0|0,3:3|3:3|3:3|3:3,0:0:0:0:
206,296,191861,5,2,3:3:0:0:
154,326,191942,1,0,3:3:0:0:
94,315,192024,1,0,3:3:0:0:
63,264,192105,1,0,3:3:0:0:
69,203,192187,1,10,3:3:0:0:
113,163,192268,1,0,3:3:0:0:
139,108,192350,1,0,3:3:0:0:
120,51,192431,1,0,3:3:0:0:
66,23,192513,6,0,L|2:15,1,59.9999981689454,2|0,3:3|3:3,0:0:0:0:
118,156,192676,2,0,L|182:148,1,59.9999981689454,2|0,3:3|3:3,0:0:0:0:
57,261,192839,2,0,L|121:253,3,59.9999981689454,10|0|0|0,3:3|3:3|3:3|3:3,0:0:0:0:
234,90,193165,5,4,3:3:0:0:
283,57,193246,1,0,3:3:0:0:
342,65,193328,1,0,3:3:0:0:
388,104,193410,1,0,3:3:0:0:
391,163,193491,1,10,3:3:0:0:
357,213,193573,1,0,3:3:0:0:
298,223,193654,5,0,3:3:0:0:
290,175,193736,1,0,3:3:0:0:
313,133,193817,1,2,3:3:0:0:
356,111,193899,1,0,3:3:0:0:
403,118,193980,1,0,3:3:0:0:
439,149,194062,1,0,3:3:0:0:
453,194,194143,2,0,L|373:209,3,59.9999981689454,10|0|0|0,3:3|3:3|3:3|3:3,0:0:0:0:
280,301,194469,5,4,3:3:0:0:
220,293,194551,1,0,3:3:0:0:
160,285,194632,1,0,3:3:0:0:
100,277,194714,1,0,3:3:0:0:
41,265,194795,1,10,3:3:0:0:
4,217,194877,1,0,3:3:0:0:
5,157,194958,1,0,3:3:0:0:
42,109,195040,1,0,3:3:0:0:
100,99,195121,1,2,3:3:0:0:
154,125,195203,1,0,3:3:0:0:
176,181,195285,2,0,L|94:201,1,59.9999981689454,0|0,3:3|3:3,0:0:0:0:
0,28,195448,2,0,L|82:48,3,59.9999981689454,10|0|0|0,3:3|3:3|3:3|3:3,0:0:0:0:
0,244,195774,5,4,3:3:0:0:
18,287,195855,1,0,3:3:0:0:
58,313,195937,1,0,3:3:0:0:
105,312,196018,1,0,3:3:0:0:
146,288,196100,1,10,3:3:0:0:
167,245,196181,1,0,3:3:0:0:
182,199,196263,1,0,3:3:0:0:
218,168,196344,1,0,3:3:0:0:
266,164,196426,1,2,3:3:0:0:
307,186,196507,1,0,3:3:0:0:
318,233,196589,1,0,3:3:0:0:
302,278,196670,1,0,3:3:0:0:
258,299,196752,2,0,L|192:289,3,59.9999981689454,10|0|0|0,3:3|3:3|3:3|3:3,0:0:0:0:
157,92,197078,5,8,3:3:0:0:
89,117,197160,1,8,3:3:0:0:
65,184,197241,1,8,3:3:0:0:
83,253,197323,1,8,3:3:0:0:
144,290,197404,1,8,3:3:0:0:
215,280,197486,1,0,3:3:0:0:
256,221,197567,5,8,3:3:0:0:
199,175,197649,1,8,3:3:0:0:
127,178,197730,1,8,3:3:0:0:
70,223,197812,1,8,3:3:0:0:
60,293,197893,1,8,3:3:0:0:
94,356,197975,1,0,3:3:0:0:
162,377,198056,5,8,3:3:0:0:
238,358,198138,1,8,3:3:0:0:
313,340,198219,1,8,3:3:0:0:
389,322,198301,1,8,3:3:0:0:
464,304,198382,5,4,3:3:0:0:
433,355,198464,1,0,3:3:0:0:
375,371,198545,1,0,3:3:0:0:
322,341,198627,1,0,3:3:0:0:
307,283,198708,1,10,3:3:0:0:
336,230,198790,1,0,3:3:0:0:
393,213,198871,1,0,3:3:0:0:
431,166,198953,1,0,3:3:0:0:
428,105,199035,1,2,3:3:0:0:
383,64,199116,1,0,3:3:0:0:
322,59,199198,1,0,3:3:0:0:
271,91,199279,1,0,3:3:0:0:
258,150,199361,2,0,L|331:140,3,59.9999981689454,10|0|0|0,3:3|3:3|3:3|3:3,0:0:0:0:
196,55,199687,5,2,3:3:0:0:
141,31,199768,1,0,3:3:0:0:
81,42,199850,1,0,3:3:0:0:
46,90,199931,1,0,3:3:0:0:
51,150,200013,1,10,3:3:0:0:
91,193,200094,1,0,3:3:0:0:
151,193,200176,5,0,3:3:0:0:
110,168,200257,1,0,3:3:0:0:
62,173,200339,1,2,3:3:0:0:
30,208,200420,1,0,3:3:0:0:
27,256,200502,1,2,3:3:0:0:
56,293,200583,1,0,3:3:0:0:
102,307,200665,2,0,L|173:296,3,59.9999981689454,10|0|0|0,3:3|3:3|3:3|3:3,0:0:0:0:
393,271,200991,5,4,3:3:0:0:
360,322,201073,1,0,3:3:0:0:
303,339,201154,1,0,3:3:0:0:
245,321,201236,1,0,3:3:0:0:
216,268,201317,1,10,3:3:0:0:
223,208,201399,1,0,3:3:0:0:
267,168,201480,1,0,3:3:0:0:
327,165,201562,1,0,3:3:0:0:
372,203,201643,2,0,L|298:221,3,59.9999981689454,2|0|0|0,3:3|3:3|3:3|3:3,0:0:0:0:
229,22,201969,2,0,L|303:40,3,59.9999981689454,10|0|0|0,3:3|3:3|3:3|3:3,0:0:0:0:
207,207,202295,5,2,3:3:0:0:
159,244,202377,1,0,3:3:0:0:
99,242,202458,1,0,3:3:0:0:
53,202,202540,1,0,3:3:0:0:
43,143,202621,1,10,3:3:0:0:
70,89,202703,1,0,3:3:0:0:
126,66,202785,1,0,3:3:0:0:
184,78,202866,1,0,3:3:0:0:
218,127,202948,6,0,L|226:190,1,59.9999981689454,2|0,3:3|3:3,0:0:0:0:
0,249,203111,2,0,L|8:186,1,59.9999981689454,2|0,3:3|3:3,0:0:0:0:
131,162,203274,2,0,L|139:99,3,59.9999981689454,10|0|0|0,3:3|3:3|3:3|3:3,0:0:0:0:
85,321,203600,5,4,3:3:0:0:
122,367,203681,1,0,3:3:0:0:
181,375,203763,1,0,3:3:0:0:
231,343,203844,1,0,3:3:0:0:
251,286,203926,1,10,3:3:0:0:
296,247,204007,1,0,3:3:0:0:
356,248,204089,5,0,3:3:0:0:
352,295,204170,1,0,3:3:0:0:
320,331,204252,1,2,3:3:0:0:
274,344,204333,1,0,3:3:0:0:
228,328,204415,1,0,3:3:0:0:
201,288,204496,1,0,3:3:0:0:
205,239,204578,2,0,L|264:233,3,59.9999981689454,10|0|0|0,3:3|3:3|3:3|3:3,0:0:0:0:
466,186,204904,5,4,3:3:0:0:
444,129,204986,1,0,3:3:0:0:
395,93,205067,1,0,3:3:0:0:
334,95,205149,1,0,3:3:0:0:
288,133,205230,1,10,3:3:0:0:
251,180,205312,1,0,3:3:0:0:
193,197,205393,1,0,3:3:0:0:
137,173,205475,1,0,3:3:0:0:
115,117,205556,1,2,3:3:0:0:
126,57,205638,1,0,3:3:0:0:
175,24,205719,2,0,L|188:92,1,59.9999981689454,0|0,3:3|3:3,0:0:0:0:
22,212,205882,2,0,L|35:144,3,59.9999981689454,10|0|0|0,3:3|3:3|3:3|3:3,0:0:0:0:
72,328,206208,5,4,3:3:0:0:
119,322,206290,1,0,3:3:0:0:
166,316,206371,1,0,3:3:0:0:
213,310,206453,1,0,3:3:0:0:
260,304,206535,1,10,3:3:0:0:
307,298,206616,1,0,3:3:0:0:
354,292,206698,1,0,3:3:0:0:
391,254,206779,1,0,3:3:0:0:
396,199,206861,1,2,3:3:0:0:
363,156,206942,1,0,3:3:0:0:
310,144,207024,2,0,L|299:215,1,59.9999981689454,0|0,3:3|3:3,0:0:0:0:
492,255,207187,2,0,L|481:184,3,59.9999981689454,10|0|0|0,3:3|3:3|3:3|3:3,0:0:0:0:
375,76,207513,5,8,3:3:0:0:
308,48,207594,1,8,3:3:0:0:
239,72,207676,1,8,3:3:0:0:
211,138,207757,1,8,3:3:0:0:
234,206,207839,1,8,3:3:0:0:
297,238,207920,1,0,3:3:0:0:
368,226,208002,5,8,3:3:0:0:
334,162,208083,1,8,3:3:0:0:
263,146,208165,1,8,3:3:0:0:
200,180,208246,1,8,3:3:0:0:
178,249,208328,1,8,3:3:0:0:
210,313,208410,1,0,3:3:0:0:
272,347,208491,5,8,3:3:0:0:
284,269,208573,1,8,3:3:0:0:
296,192,208654,1,8,3:3:0:0:
308,114,208736,1,8,3:3:0:0:
319,37,208817,6,0,P|356:34|395:48,2,66.6666666666667,4|0|0,3:3|3:3|3:3,0:0:0:0:
452,232,209143,2,0,P|415:235|376:221,2,66.6666666666667,10|0|0,3:3|3:3|3:3,0:0:0:0:
510,79,209469,1,2,3:3:0:0:
157,176,209795,5,10,3:3:0:0:
157,176,209904,2,0,P|148:129|160:89,1,66.6666666666667,0|0,3:3|3:3,0:0:0:0:
303,232,210121,1,2,3:3:0:0:
303,232,210230,2,0,P|312:185|300:145,1,66.6666666666667,0|0,3:3|3:3,0:0:0:0:
211,299,210448,1,10,3:3:0:0:
41,242,210774,5,2,3:3:0:0:
46,274,210882,1,0,3:3:0:0:
51,306,210991,1,0,3:3:0:0:
57,338,211100,1,12,3:3:0:0:
172,17,211426,6,0,P|187:46|187:94,2,66.6666666666667,4|0|0,3:3|3:3|3:3,0:0:0:0:
32,104,211752,2,0,P|17:133|17:181,2,66.6666666666667,10|0|0,3:3|3:3|3:3,0:0:0:0:
255,31,212078,1,2,3:3:0:0:
198,310,212404,5,10,3:3:0:0:
198,310,212513,2,0,P|236:323|287:313,1,66.6666666666667,0|0,3:3|3:3,0:0:0:0:
356,222,212730,1,2,3:3:0:0:
356,222,212839,2,0,P|394:209|445:219,1,66.6666666666667,0|0,3:3|3:3,0:0:0:0:
501,347,213056,1,10,3:3:0:0:
267,236,213382,5,2,3:3:0:0:
233,231,213491,1,0,3:3:0:0:
199,226,213600,1,0,3:3:0:0:
166,222,213708,1,12,3:3:0:0:
441,39,214035,6,0,P|448:79|435:134,2,66.6666666666667,4|0|0,3:3|3:3|3:3,0:0:0:0:
277,99,214361,2,0,P|270:139|283:194,2,66.6666666666667,10|0|0,3:3|3:3|3:3,0:0:0:0:
357,13,214687,1,2,3:3:0:0:
278,340,215013,5,10,3:3:0:0:
278,340,215121,2,0,P|240:346|194:332,1,66.6666666666667,0|0,3:3|3:3,0:0:0:0:
100,190,215339,1,2,3:3:0:0:
100,190,215447,2,0,P|138:184|184:198,1,66.6666666666667,0|0,3:3|3:3,0:0:0:0:
50,343,215665,1,10,3:3:0:0:
279,242,215991,5,2,3:3:0:0:
311,248,216100,1,0,3:3:0:0:
343,253,216208,1,0,3:3:0:0:
375,259,216317,1,12,3:3:0:0:
185,119,216643,6,0,P|212:141|266:147,2,66.6666666666667,4|0|0,3:3|3:3|3:3,0:0:0:0:
85,42,216969,2,0,P|112:20|166:14,2,66.6666666666667,10|0|0,3:3|3:3|3:3,0:0:0:0:
27,173,217295,1,2,3:3:0:0:
326,237,217621,5,10,3:3:0:0:
326,237,217730,2,0,P|338:192|321:135,1,66.6666666666667,0|0,3:3|3:3,0:0:0:0:
172,213,217948,1,2,3:3:0:0:
172,213,218057,2,0,P|160:258|177:315,1,66.6666666666667,0|0,3:3|3:3,0:0:0:0:
371,331,218274,1,10,3:3:0:0:
473,79,218600,5,2,3:3:0:0:
440,84,218708,1,0,3:3:0:0:
407,89,218817,1,0,3:3:0:0:
374,94,218926,1,12,3:3:0:0:
91,361,219252,6,0,L|103:273,1,66.6666666666667,8|0,3:3|3:3,0:0:0:0:
202,180,219469,1,8,3:3:0:0:
220,160,219578,1,8,3:3:0:0:
222,133,219687,1,8,3:3:0:0:
207,111,219795,1,8,3:3:0:0:
183,104,219904,6,0,L|100:113,1,66.6666666666667,8|0,3:3|3:3,0:0:0:0:
48,252,220121,1,8,3:3:0:0:
30,232,220230,1,8,3:3:0:0:
28,205,220339,1,8,3:3:0:0:
43,183,220447,1,8,3:3:0:0:
67,176,220556,6,0,L|150:185,1,66.6666666666667,8|0,3:3|3:3,0:0:0:0:
278,274,220774,1,8,3:3:0:0:
275,300,220882,1,8,3:3:0:0:
258,320,220991,1,8,3:3:0:0:
232,326,221100,1,8,3:3:0:0:
207,316,221208,5,8,3:3:0:0:
183,253,221317,1,8,3:3:0:0:
221,198,221426,1,8,3:3:0:0:
287,190,221535,1,8,3:3:0:0:
345,220,221643,1,8,3:3:0:0:
409,202,221752,1,8,3:3:0:0:
433,139,221861,6,0,L|374:127,3,50,12|0|0|0,3:3|3:3|3:3|3:3,0:0:0:0:
324,304,222187,2,0,L|383:292,3,50,2|0|0|0,3:3|3:3|3:3|3:3,0:0:0:0:
215,191,222513,5,10,3:3:0:0:
169,170,222594,1,0,3:3:0:0:
119,176,222676,1,0,3:3:0:0:
83,210,222757,1,0,3:3:0:0:
63,256,222839,5,2,3:3:0:0:
102,262,222920,1,0,3:3:0:0:
136,241,223002,1,0,3:3:0:0:
153,205,223083,1,0,3:3:0:0:
147,163,223165,2,0,L|82:150,3,50,12|0|0|0,3:3|3:3|3:3|3:3,0:0:0:0:
148,69,223491,5,2,3:3:0:0:
188,64,223573,1,0,3:3:0:0:
227,59,223654,1,0,3:3:0:0:
267,55,223736,1,0,3:3:0:0:
306,51,223817,5,10,3:3:0:0:
343,84,223899,1,0,3:3:0:0:
351,132,223980,1,0,3:3:0:0:
327,176,224062,1,0,3:3:0:0:
289,208,224143,5,2,3:3:0:0:
276,246,224225,1,0,3:3:0:0:
286,284,224306,1,0,3:3:0:0:
315,311,224388,1,0,3:3:0:0:
354,316,224469,2,0,L|368:249,3,50,12|0|0|0,3:3|3:3|3:3|3:3,0:0:0:0:
427,84,224795,5,2,3:3:0:0:
462,103,224877,1,0,3:3:0:0:
479,138,224958,1,0,3:3:0:0:
479,178,225040,1,0,3:3:0:0:
463,214,225121,5,10,3:3:0:0:
416,232,225203,1,0,3:3:0:0:
368,215,225285,1,0,3:3:0:0:
342,172,225366,1,0,3:3:0:0:
316,128,225448,1,2,3:3:0:0:
269,111,225529,1,0,3:3:0:0:
220,125,225611,1,0,3:3:0:0:
192,166,225692,1,0,3:3:0:0:
194,216,225774,5,12,3:3:0:0:
226,228,225855,1,0,3:3:0:0:
261,224,225937,2,0,P|292:204|308:169,1,50,0|0,3:3|3:3,3:3:0:0:
156,41,226100,5,0,3:3:0:0:
129,62,226181,1,0,3:3:0:0:
115,95,226263,2,0,P|116:131|139:163,1,50,0|0,3:3|3:3,3:3:0:0:
302,41,226426,6,0,L|235:32,1,50,12|0,3:3|3:3,3:3:0:0:
400,133,226589,2,0,L|467:124,1,50,0|0,3:3|3:3,3:3:0:0:
313,56,226752,6,0,L|246:47,1,50,8|8,3:3|3:3,3:3:0:0:
390,123,226915,2,0,L|457:114,1,50,8|8,3:3|3:3,3:3:0:0:
286,157,227078,6,0,L|273:218,3,50,12|0|0|0,3:3|3:3|3:3|3:3,0:0:0:0:
379,256,227404,2,0,L|366:195,3,50,2|0|0|0,3:3|3:3|3:3|3:3,0:0:0:0:
410,331,227730,5,10,3:3:0:0:
360,338,227812,1,0,3:3:0:0:
310,345,227893,1,0,3:3:0:0:
260,352,227975,1,0,3:3:0:0:
211,360,228056,5,2,3:3:0:0:
183,330,228138,1,0,3:3:0:0:
179,290,228219,1,0,3:3:0:0:
196,253,228301,1,0,3:3:0:0:
229,232,228382,2,0,L|281:241,3,50,12|0|0|0,3:3|3:3|3:3|3:3,0:0:0:0:
97,308,228708,5,2,3:3:0:0:
68,279,228790,1,0,3:3:0:0:
60,239,228871,1,0,3:3:0:0:
75,201,228953,1,0,3:3:0:0:
107,177,229035,5,10,3:3:0:0:
142,142,229116,1,0,3:3:0:0:
149,92,229198,1,0,3:3:0:0:
124,48,229279,1,0,3:3:0:0:
75,33,229361,5,2,3:3:0:0:
40,81,229442,1,0,3:3:0:0:
53,139,229524,1,0,3:3:0:0:
103,171,229605,1,0,3:3:0:0:
162,160,229687,1,12,3:3:0:0:
195,110,229768,1,0,3:3:0:0:
244,75,229850,1,0,3:3:0:0:
303,81,229931,1,0,3:3:0:0:
347,121,230013,2,0,L|335:187,3,50,2|0|0|0,3:3|3:3|3:3|3:3,0:0:0:0:
246,301,230339,5,10,3:3:0:0:
189,320,230420,1,0,3:3:0:0:
129,307,230502,1,0,3:3:0:0:
90,261,230583,1,0,3:3:0:0:
82,201,230665,1,2,3:3:0:0:
108,147,230746,1,0,3:3:0:0:
161,119,230828,1,0,3:3:0:0:
221,124,230910,1,0,3:3:0:0:
265,163,230991,5,8,3:3:0:0:
238,193,231073,1,8,3:3:0:0:
198,200,231154,1,8,3:3:0:0:
162,181,231236,1,8,3:3:0:0:
148,143,231317,1,8,3:3:0:0:
156,103,231399,1,8,3:3:0:0:
187,78,231480,1,8,3:3:0:0:
227,79,231562,1,8,3:3:0:0:
259,101,231643,5,8,3:3:0:0:
269,160,231725,1,8,3:3:0:0:
279,218,231806,1,8,3:3:0:0:
290,277,231888,1,8,3:3:0:0:
326,323,231969,1,8,3:3:0:0:
384,336,232051,1,8,3:3:0:0:
437,310,232132,1,8,3:3:0:0:
459,253,232214,1,8,3:3:0:0:
434,198,232295,2,0,L|368:188,3,50,12|0|0|0,3:3|3:3|3:3|3:3,0:0:0:0:
206,349,232621,2,0,L|272:339,3,50,10|0|0|0,3:3|3:3|3:3|3:3,0:0:0:0:
151,234,232948,5,10,3:3:0:0:
114,218,233029,1,0,3:3:0:0:
73,221,233111,1,0,3:3:0:0:
41,245,233192,1,0,3:3:0:0:
27,283,233274,2,0,L|85:298,1,50,10|0,3:3|3:3,0:0:0:0:
247,158,233437,2,0,L|189:173,1,50,0|0,3:3|3:3,0:0:0:0:
34,127,233600,5,10,3:3:0:0:
34,127,233681,2,0,L|25:47,1,50,0|0,3:3|3:3,0:0:0:0:
89,17,233844,1,0,3:3:0:0:
128,23,233926,1,10,3:3:0:0:
167,29,234007,1,0,3:3:0:0:
206,36,234089,2,0,L|269:47,1,50,0|0,3:3|3:3,0:0:0:0:
334,163,234252,6,0,L|397:152,2,50,10|0|0,3:3|3:3|3:3,0:0:0:0:
448,56,234496,2,0,L|385:45,2,50,0|12|0,3:3|3:3|3:3,0:0:0:0:
494,163,234741,1,0,3:3:0:0:
500,187,234823,1,0,3:3:0:0:
506,210,234904,5,12,3:3:0:0:
480,241,234986,1,0,3:3:0:0:
442,253,235067,1,0,3:3:0:0:
404,239,235149,1,0,3:3:0:0:
379,207,235230,1,10,3:3:0:0:
340,195,235312,1,0,3:3:0:0:
301,202,235393,1,0,3:3:0:0:
278,235,235475,1,0,3:3:0:0:
275,274,235556,6,0,L|328:284,2,50,10|0|0,3:3|3:3|3:3,0:0:0:0:
201,158,235801,2,0,L|148:168,2,50,0|10|0,3:3|3:3|3:3,0:0:0:0:
286,286,236045,2,0,L|339:296,1,50,0|0,3:3|3:3,0:0:0:0:
437,157,236208,5,10,3:3:0:0:
438,106,236290,1,0,3:3:0:0:
410,64,236371,1,0,3:3:0:0:
362,46,236453,1,0,3:3:0:0:
313,60,236535,1,10,3:3:0:0:
283,99,236616,1,0,3:3:0:0:
250,137,236698,1,0,3:3:0:0:
201,148,236779,1,0,3:3:0:0:
155,125,236861,5,12,3:3:0:0:
183,97,236942,1,0,3:3:0:0:
223,94,237024,1,0,3:3:0:0:
260,107,237105,1,0,3:3:0:0:
280,141,237187,1,12,3:3:0:0:
279,180,237268,1,0,3:3:0:0:
258,214,237350,1,0,3:3:0:0:
221,230,237431,1,0,3:3:0:0:
180,232,237513,6,0,L|99:213,1,50,12|0,3:3|3:3,0:0:0:0:
165,236,237676,2,0,L|84:217,1,50,0|0,3:3|3:3,0:0:0:0:
0,318,237839,6,0,L|81:299,1,50,10|0,3:3|3:3,0:0:0:0:
15,322,238002,2,0,L|96:303,1,50,0|0,3:3|3:3,0:0:0:0:
270,170,238165,6,0,L|189:151,1,50,10|0,3:3|3:3,0:0:0:0:
255,174,238328,2,0,L|174:155,1,50,0|0,3:3|3:3,0:0:0:0:
172,341,238491,6,0,L|253:322,1,50,10|0,3:3|3:3,0:0:0:0:
187,345,238654,2,0,L|268:326,1,50,0|0,3:3|3:3,0:0:0:0:
292,273,238817,5,10,3:3:0:0:
350,286,238899,1,0,3:3:0:0:
408,299,238980,1,0,3:3:0:0:
466,312,239062,1,0,3:3:0:0:
494,352,239143,5,10,3:3:0:0:
484,302,239225,1,0,3:3:0:0:
474,253,239306,1,0,3:3:0:0:
464,203,239388,1,0,3:3:0:0:
429,183,239469,5,10,3:3:0:0:
436,143,239551,1,0,3:3:0:0:
444,104,239632,1,0,3:3:0:0:
452,64,239714,1,0,3:3:0:0:
478,49,239795,6,0,L|466:-25,3,50,12|0|0|0,3:3|3:3|3:3|3:3,0:0:0:0:
312,124,240121,5,12,3:3:0:0:
279,147,240203,1,0,3:3:0:0:
238,149,240285,1,0,3:3:0:0:
202,130,240366,1,0,3:3:0:0:
182,94,240448,1,2,3:3:0:0:
180,54,240529,1,0,3:3:0:0:
201,20,240611,2,0,P|224:4|255:0,1,50,0|0,3:3|3:3,3:3:0:0:
383,132,240774,5,12,3:3:0:0:
376,181,240855,1,0,3:3:0:0:
341,217,240937,1,0,3:3:0:0:
293,231,241018,1,0,3:3:0:0:
246,212,241100,1,2,3:3:0:0:
217,171,241181,1,0,3:3:0:0:
169,153,241263,2,0,P|136:153|106:173,1,50,0|0,3:0|3:0,3:0:0:0:
18,272,241426,5,12,3:3:0:0:
58,316,241507,1,0,3:3:0:0:
118,316,241589,1,0,3:3:0:0:
160,273,241670,1,0,3:3:0:0:
192,221,241752,1,2,3:3:0:0:
249,205,241833,1,0,3:3:0:0:
306,222,241915,1,0,3:3:0:0:
341,270,241996,1,0,3:3:0:0:
334,329,242078,6,0,L|254:317,1,50,8|0,3:3|3:3,0:0:0:0:
257,134,242241,1,0,3:3:0:0:
257,134,242323,1,0,3:3:0:0:
257,134,242404,2,0,L|337:122,1,50,8|0,3:3|3:3,3:3:0:0:
185,226,242567,2,0,L|105:214,1,50,0|0,3:3|3:3,3:3:0:0:
21,169,242730,5,12,3:3:0:0:
30,218,242812,1,0,3:3:0:0:
39,266,242893,1,0,3:3:0:0:
48,315,242975,1,0,3:3:0:0:
79,353,243056,1,10,3:3:0:0:
126,368,243138,1,0,3:3:0:0:
172,350,243219,1,0,3:3:0:0:
195,305,243301,1,0,3:3:0:0:
190,255,243382,2,0,L|133:245,2,50,10|0|0,3:3|3:3|3:3,0:0:0:0:
243,355,243627,2,0,L|300:345,2,50,0|10|0,3:3|3:3|3:3,0:0:0:0:
366,194,243871,2,0,L|309:184,1,50,0|0,3:3|3:3,0:0:0:0:
488,361,244035,6,0,L|501:287,2,50,12|0|0,3:3|3:3|3:3,0:0:0:0:
334,315,244279,2,0,L|321:241,2,50,0|10|0,3:3|3:3|3:3,0:0:0:0:
459,238,244524,2,0,L|472:164,1,50,0|0,3:3|3:3,0:0:0:0:
367,101,244687,5,10,3:3:0:0:
360,76,244768,1,0,3:3:0:0:
384,70,244850,1,0,3:3:0:0:
391,94,244931,1,0,3:3:0:0:
376,86,245013,2,0,L|310:74,1,50,10|0,3:3|3:3,0:0:0:0:
223,233,245176,2,0,L|289:221,1,50,0|0,3:3|3:3,0:0:0:0:
210,119,245339,5,12,3:3:0:0:
171,127,245420,1,0,3:3:0:0:
141,154,245502,1,0,3:3:0:0:
130,192,245583,1,0,3:3:0:0:
104,222,245665,1,10,3:3:0:0:
64,229,245746,1,0,3:3:0:0:
28,211,245828,1,0,3:3:0:0:
13,173,245910,1,0,3:3:0:0:
25,135,245991,6,0,L|87:127,1,50,10|0,3:3|3:3,0:0:0:0:
14,125,246154,2,0,L|76:117,1,50,0|0,3:3|3:3,0:0:0:0:
187,237,246317,6,0,L|125:229,1,50,10|0,3:3|3:3,0:0:0:0:
196,250,246480,2,0,L|134:242,1,50,0|0,3:3|3:3,0:0:0:0:
236,136,246643,6,0,L|174:128,1,50,12|0,3:3|3:3,0:0:0:0:
247,126,246806,2,0,L|185:118,1,50,0|0,3:3|3:3,0:0:0:0:
9,249,246969,6,0,L|71:241,1,50,10|0,3:3|3:3,0:0:0:0:
0,262,247132,2,0,L|62:254,1,50,0|0,3:3|3:3,0:0:0:0:
133,40,247295,5,10,3:3:0:0:
100,16,247377,1,0,3:3:0:0:
60,14,247458,1,0,3:3:0:0:
23,31,247540,1,0,3:3:0:0:
4,65,247621,5,8,3:3:0:0:
12,124,247703,1,8,3:3:0:0:
20,183,247785,1,8,3:3:0:0:
29,241,247866,1,0,3:3:0:0:
38,300,247948,5,12,3:3:0:0:
74,316,248029,1,0,3:3:0:0:
114,312,248111,1,0,3:3:0:0:
147,290,248192,1,0,3:3:0:0:
164,253,248274,1,10,3:3:0:0:
192,225,248355,1,0,3:3:0:0:
229,211,248437,2,0,L|282:219,1,50,0|0,3:3|3:3,0:0:0:0:
463,347,248600,6,0,L|472:298,1,50,10|0,3:3|3:3,0:0:0:0:
478,335,248763,2,0,L|487:286,1,50,0|0,3:3|3:3,0:0:0:0:
367,294,248926,6,0,L|357:234,1,50,10|0,3:3|3:3,0:0:0:0:
352,282,249089,2,0,L|342:222,1,50,0|0,3:3|3:3,0:0:0:0:
447,165,249252,5,12,3:3:0:0:
451,140,249333,1,0,3:3:0:0:
455,115,249415,5,0,3:3:0:0:
417,82,249496,1,0,3:3:0:0:
366,80,249578,1,10,3:3:0:0:
326,110,249660,1,0,3:3:0:0:
309,156,249741,5,0,3:3:0:0:
260,167,249823,1,0,3:3:0:0:
216,142,249904,1,10,3:3:0:0:
198,94,249986,1,0,3:3:0:0:
214,47,250067,2,0,L|279:41,3,50,0|0|10|0,3:3|3:3|3:3|3:3,0:0:0:0:
98,157,250393,5,0,3:3:0:0:
73,153,250475,1,0,3:3:0:0:
48,149,250556,5,12,3:3:0:0:
20,178,250638,1,0,3:3:0:0:
13,217,250719,1,0,3:3:0:0:
32,252,250801,1,0,3:3:0:0:
67,269,250882,1,10,3:3:0:0:
106,263,250964,1,0,3:3:0:0:
137,238,251045,1,0,3:3:0:0:
158,204,251127,1,0,3:3:0:0:
195,191,251208,1,10,3:3:0:0:
234,196,251290,1,0,3:3:0:0:
263,222,251371,1,0,3:3:0:0:
274,260,251453,1,0,3:3:0:0:
266,299,251535,2,0,L|199:309,3,50,10|0|0|0,3:3|3:3|3:3|3:3,0:0:0:0:
129,190,251861,5,8,3:3:0:0:
122,223,251942,1,8,3:3:0:0:
117,258,252024,2,0,L|105:317,1,50,8|8,3:3|3:3,0:0:0:0:
309,329,252187,5,8,3:3:0:0:
302,296,252268,1,8,3:3:0:0:
297,261,252350,2,0,L|285:201,1,50,8|8,3:3|3:3,0:0:0:0:
251,112,252513,5,8,3:3:0:0:
208,86,252594,1,8,3:3:0:0:
162,84,252676,1,8,3:3:0:0:
126,101,252757,1,8,3:3:0:0:
105,129,252839,1,8,3:3:0:0:
78,142,252920,1,8,3:3:0:0:
52,142,253002,1,8,3:3:0:0:
35,131,253083,1,8,3:3:0:0:
24,117,253165,2,0,L|36:53,3,50,12|0|0|0,3:3|3:3|3:3|3:3,0:0:0:0:
102,218,253491,5,10,3:3:0:0:
131,245,253573,1,0,3:3:0:0:
170,250,253654,1,0,3:3:0:0:
208,237,253736,1,0,3:3:0:0:
235,208,253817,1,10,3:3:0:0:
251,171,253899,1,0,3:3:0:0:
283,148,253980,1,0,3:3:0:0:
323,143,254062,1,0,3:3:0:0:
360,157,254143,1,10,3:3:0:0:
381,191,254225,1,0,3:3:0:0:
388,229,254306,2,0,L|314:220,1,50,0|0,3:3|3:3,0:0:0:0:
253,26,254469,6,0,L|327:17,3,50,10|0|0|0,3:3|3:3|3:3|3:3,0:0:0:0:
424,79,254795,2,0,L|350:70,3,50,10|0|0|0,3:3|3:3|3:3|3:3,0:0:0:0:
244,14,255121,2,0,L|318:5,3,50,10|0|0|0,3:3|3:3|3:3|3:3,0:0:0:0:
436,89,255448,2,0,L|362:80,3,50,10|0|0|0,3:3|3:3|3:3|3:3,0:0:0:0:
265,135,255774,5,12,3:3:0:0:
231,155,255855,1,0,3:3:0:0:
190,156,255937,1,0,3:3:0:0:
156,135,256018,1,0,3:3:0:0:
116,126,256100,1,10,3:3:0:0:
77,136,256181,1,0,3:3:0:0:
46,162,256263,1,0,3:3:0:0:
34,200,256344,1,0,3:3:0:0:
45,238,256426,1,10,3:3:0:0:
73,265,256507,1,0,3:3:0:0:
111,277,256589,1,0,3:3:0:0:
148,264,256670,1,0,3:3:0:0:
174,233,256752,1,10,3:3:0:0:
183,194,256833,1,0,3:3:0:0:
169,156,256915,2,0,L|106:164,1,50,0|0,3:3|3:3,0:0:0:0:
16,353,257078,6,0,L|7:291,3,50,10|0|0|0,3:3|3:3|3:3|3:3,0:0:0:0:
181,241,257404,2,0,L|172:303,3,50,10|0|0|0,3:3|3:3|3:3|3:3,0:0:0:0:
8,365,257730,2,0,L|-1:303,3,50,10|0|0|0,3:3|3:3|3:3|3:3,0:0:0:0:
195,236,258056,2,0,L|186:298,3,50,10|0|0|0,3:3|3:3|3:3|3:3,0:0:0:0:
258,372,258382,5,12,3:3:0:0:
302,381,258464,1,0,3:3:0:0:
344,368,258545,1,0,3:3:0:0:
375,335,258627,1,0,3:3:0:0:
383,291,258708,1,10,3:3:0:0:
366,249,258790,1,0,3:3:0:0:
329,222,258871,1,0,3:3:0:0:
300,187,258953,1,0,3:3:0:0:
289,142,259035,1,10,3:3:0:0:
302,99,259116,1,0,3:3:0:0:
337,70,259198,1,0,3:3:0:0:
381,62,259279,1,0,3:3:0:0:
424,72,259361,1,10,3:3:0:0:
455,103,259442,1,0,3:3:0:0:
467,146,259524,2,0,L|394:158,1,50,0|0,3:3|3:3,0:0:0:0:
185,48,259687,6,0,L|258:60,3,50,10|0|0|0,3:3|3:3|3:3|3:3,0:0:0:0:
319,261,260013,2,0,L|246:273,3,50,10|0|0|0,3:3|3:3|3:3|3:3,0:0:0:0:
175,32,260339,2,0,L|248:44,3,50,10|0|0|0,3:3|3:3|3:3|3:3,0:0:0:0:
332,283,260665,2,0,L|259:295,3,50,10|0|0|0,3:3|3:3|3:3|3:3,0:0:0:0:
113,130,260991,5,12,3:3:0:0:
66,149,261073,1,0,3:3:0:0:
44,194,261154,1,0,3:3:0:0:
51,243,261236,1,0,3:3:0:0:
82,281,261317,1,2,3:3:0:0:
128,300,261399,1,0,3:3:0:0:
176,288,261480,1,0,3:3:0:0:
209,250,261562,1,0,3:3:0:0:
214,200,261643,5,12,3:3:0:0:
163,203,261725,1,0,3:3:0:0:
126,237,261806,1,0,3:3:0:0:
117,286,261888,1,0,3:3:0:0:
133,332,261969,1,2,3:3:0:0:
177,355,262051,1,0,3:3:0:0:
226,355,262132,1,0,3:3:0:0:
264,322,262214,1,0,3:3:0:0:
278,274,262295,5,10,3:3:0:0:
228,280,262377,1,0,3:3:0:0:
178,285,262458,1,0,3:3:0:0:
128,291,262540,1,0,3:3:0:0:
79,278,262621,1,2,3:3:0:0:
52,235,262703,1,0,3:3:0:0:
54,184,262785,1,0,3:3:0:0:
87,147,262866,1,0,3:3:0:0:
136,136,262948,5,10,3:3:0:0:
157,180,263029,1,0,3:3:0:0:
199,206,263111,1,0,3:3:0:0:
248,203,263192,1,0,3:3:0:0:
285,169,263274,1,2,3:3:0:0:
305,123,263355,1,0,3:3:0:0:
338,85,263437,1,0,3:3:0:0:
387,77,263518,1,0,3:3:0:0:
433,96,263600,6,0,B|441:146|441:146|436:162|436:162|444:216,1,100,4|0,3:3|3:3,0:0:0:0:
408,285,263926,1,4,3:3:0:0:
302,131,264089,2,0,B|274:113|274:113|173:129,1,100,0|12,3:3|3:3,0:0:0:0:
321,228,264415,1,0,3:3:0:0:
230,317,264578,6,0,B|202:335|202:335|101:319,1,100,4|0,3:3|3:3,0:0:0:0:
68,252,264904,1,4,3:3:0:0:
68,252,265067,1,0,3:3:0:0:
135,167,265230,2,0,B|143:117|143:117|138:100|138:100|144:50,1,100,4|0,3:3|3:3,0:0:0:0:
36,167,265556,5,12,3:3:0:0:
199,17,265719,1,0,3:3:0:0:
277,108,265882,1,12,3:3:0:0:
302,105,265964,1,0,3:3:0:0:
326,102,266045,1,0,3:3:0:0:
351,99,266127,1,0,3:3:0:0:
375,94,266208,6,0,B|387:37|387:37|363:-12,1,100,4|0,3:3|3:3,0:0:0:0:
237,174,266535,1,4,3:3:0:0:
403,230,266698,2,0,B|363:224|363:224|339:235|339:235|292:228,1,100,0|12,3:3|3:3,0:0:0:0:
165,203,267024,1,0,3:3:0:0:
474,185,267187,6,0,B|490:233|490:233|472:287,1,100,4|0,3:3|3:3,0:0:0:0:
374,333,267513,1,4,3:3:0:0:
374,333,267676,1,0,3:3:0:0:
259,298,267839,1,4,3:3:0:0:
259,298,268002,1,0,3:3:0:0:
137,358,268165,5,12,3:3:0:0:
166,331,268246,1,0,3:3:0:0:
176,292,268328,1,0,3:3:0:0:
166,253,268410,1,0,3:3:0:0:
139,222,268491,1,12,3:3:0:0:
110,193,268573,1,0,3:3:0:0:
103,153,268654,1,0,3:3:0:0:
116,115,268736,1,0,3:3:0:0:
147,90,268817,6,0,B|186:87|186:87|210:93|210:93|262:90,1,100,4|0,3:3|3:3,0:0:0:0:
355,82,269143,1,4,3:3:0:0:
253,258,269306,2,0,B|237:226|237:226|263:142,1,100,0|12,3:3|3:3,0:0:0:0:
328,312,269632,1,0,3:3:0:0:
453,190,269795,6,0,B|469:158|469:158|443:74,1,100,4|0,3:3|3:3,0:0:0:0:
379,238,270121,1,4,3:3:0:0:
379,238,270285,1,0,3:3:0:0:
486,358,270448,2,0,B|437:359|437:359|432:363|432:363|365:366,1,100,4|0,3:3|3:3,0:0:0:0:
218,290,270774,5,12,3:3:0:0:
374,252,270937,1,0,3:3:0:0:
154,235,271100,1,12,3:3:0:0:
125,263,271181,1,0,3:3:0:0:
111,300,271263,1,0,3:3:0:0:
118,338,271344,1,0,3:3:0:0:
138,372,271426,2,0,B|192:367|192:367|198:369|198:369|263:364,1,100,4|0,3:3|3:3,0:0:0:0:
48,205,271752,6,0,B|26:233|26:233|42:316,1,100,4|0,3:3|3:3,0:0:0:0:
265,111,272078,2,0,B|287:139|287:139|271:222,1,100,12|0,3:3|3:3,0:0:0:0:
116,59,272404,2,0,B|94:87|94:87|110:170,1,100,4|0,3:3|3:3,0:0:0:0:
268,284,272730,5,4,3:3:0:0:
268,284,272893,1,0,3:3:0:0:
437,250,273056,2,0,B|386:244|386:244|379:248|379:248|328:241,1,100,12|0,3:3|3:3,0:0:0:0:
161,276,273382,5,8,3:3:0:0:
124,292,273464,1,8,3:3:0:0:
84,291,273545,1,8,3:3:0:0:
48,271,273627,1,8,3:3:0:0:
28,236,273708,1,8,3:3:0:0:
26,195,273790,1,8,3:3:0:0:
43,159,273871,1,8,3:3:0:0:
76,136,273953,1,8,3:3:0:0:
115,129,274035,2,0,L|123:188,3,50,12|0|0|0,3:3|3:3|3:3|3:3,0:0:0:0:
294,86,274361,5,10,3:3:0:0:
269,83,274442,1,0,3:3:0:0:
244,79,274524,2,0,L|189:70,1,50,0|0,3:3|3:3,0:0:0:0:
273,243,274687,5,10,3:3:0:0:
297,237,274768,1,0,3:3:0:0:
321,232,274850,2,0,L|379:222,1,50,0|0,3:3|3:3,0:0:0:0:
505,130,275013,2,0,L|447:120,1,50,10|0,3:3|3:3,0:0:0:0:
501,269,275176,5,0,3:3:0:0:
506,293,275257,1,0,3:3:0:0:
511,317,275339,5,12,3:3:0:0:
473,305,275420,1,0,3:3:0:0:
433,310,275502,1,0,3:3:0:0:
405,338,275583,1,0,3:3:0:0:
395,376,275665,5,10,3:3:0:0:
356,383,275746,1,0,3:3:0:0:
319,366,275828,1,0,3:3:0:0:
305,328,275910,1,0,3:3:0:0:
314,289,275991,1,10,3:3:0:0:
344,263,276073,1,0,3:3:0:0:
360,226,276154,1,0,3:3:0:0:
351,186,276236,1,0,3:3:0:0:
318,162,276317,2,0,L|256:170,3,50,10|0|0|0,3:3|3:3|3:3|3:3,0:0:0:0:
141,225,276643,5,12,3:3:0:0:
102,236,276725,1,0,3:3:0:0:
63,224,276806,1,0,3:3:0:0:
44,188,276888,1,0,3:3:0:0:
50,148,276969,1,10,3:3:0:0:
79,120,277051,1,0,3:3:0:0:
118,115,277132,5,0,3:3:0:0:
111,154,277214,1,0,3:3:0:0:
104,193,277295,1,10,3:3:0:0:
97,232,277377,1,0,3:3:0:0:
91,271,277458,1,0,3:3:0:0:
85,310,277540,1,0,3:3:0:0:
76,348,277621,2,0,L|140:335,3,50,10|0|0|0,3:3|3:3|3:3|3:3,0:0:0:0:
232,251,277948,6,0,L|296:264,1,50,12|0,3:3|3:3,0:0:0:0:
359,352,278111,2,0,L|423:339,1,50,0|0,3:3|3:3,0:0:0:0:
482,236,278274,5,10,3:3:0:0:
504,191,278355,1,0,3:3:0:0:
496,141,278437,1,0,3:3:0:0:
457,109,278518,1,0,3:3:0:0:
406,105,278600,1,10,3:3:0:0:
364,131,278681,1,0,3:3:0:0:
335,172,278763,1,0,3:3:0:0:
286,181,278844,1,0,3:3:0:0:
240,159,278926,2,0,L|234:106,3,50,10|0|0|0,3:3|3:3|3:3|3:3,0:0:0:0:
89,73,279252,5,12,3:3:0:0:
55,94,279333,1,0,3:3:0:0:
38,130,279415,1,0,3:3:0:0:
40,169,279496,1,0,3:3:0:0:
56,205,279578,5,10,3:3:0:0:
81,202,279660,1,0,3:3:0:0:
105,198,279741,2,0,L|165:191,1,50,0|0,3:3|3:3,0:0:0:0:
257,41,279904,5,10,3:3:0:0:
232,38,279986,1,0,3:3:0:0:
207,35,280067,2,0,L|147:28,1,50,0|0,3:3|3:3,0:0:0:0:
252,212,280230,2,0,L|312:205,1,50,10|0,3:3|3:3,0:0:0:0:
414,100,280393,5,0,3:3:0:0:
438,105,280474,1,0,3:3:0:0:
462,110,280556,5,12,3:3:0:0:
480,145,280638,1,0,3:3:0:0:
473,184,280719,1,0,3:3:0:0:
442,209,280801,1,0,3:3:0:0:
402,216,280882,5,10,3:3:0:0:
374,186,280964,1,0,3:3:0:0:
334,181,281045,1,0,3:3:0:0:
298,198,281127,1,0,3:3:0:0:
287,236,281208,2,0,L|296:295,3,50,10|0|0|0,3:3|3:3|3:3|3:3,0:0:0:0:
440,338,281535,2,0,L|449:279,3,50,10|0|0|0,3:3|3:3|3:3|3:3,0:0:0:0:
376,93,281861,5,12,3:3:0:0:
339,58,281942,1,0,3:3:0:0:
288,53,282024,1,0,3:3:0:0:
244,76,282105,1,0,3:3:0:0:
230,124,282187,1,10,3:3:0:0:
242,172,282268,1,0,3:3:0:0:
277,207,282350,1,0,3:3:0:0:
284,256,282431,1,0,3:3:0:0:
258,299,282513,1,10,3:3:0:0:
213,320,282594,1,0,3:3:0:0:
163,313,282676,1,0,3:3:0:0:
130,275,282757,1,0,3:3:0:0:
130,224,282839,1,10,3:3:0:0:
157,182,282920,1,0,3:3:0:0:
205,167,283002,1,0,3:3:0:0:
253,177,283083,1,0,3:3:0:0:
282,217,283165,5,8,3:3:0:0:
229,244,283246,1,8,3:3:0:0:
173,219,283328,1,8,3:3:0:0:
154,161,283410,1,0,3:3:0:0:
173,104,283491,1,0,3:3:0:0:
228,79,283573,1,0,3:3:0:0:
285,93,283654,1,8,3:3:0:0:
317,144,283736,1,8,3:3:0:0:
328,202,283817,1,8,3:3:0:0:
373,241,283899,1,0,3:3:0:0:
431,231,283980,1,0,3:3:0:0:
457,177,284062,1,0,3:3:0:0:
436,120,284143,1,8,3:3:0:0:
377,90,284225,1,8,3:3:0:0:
308,104,284306,1,8,3:3:0:0:
271,170,284388,1,0,3:3:0:0:
296,239,284469,5,4,3:3:0:0:
341,199,284551,1,0,3:3:0:0:
347,139,284632,1,0,3:3:0:0:
305,95,284714,1,0,3:3:0:0:
246,85,284795,1,10,3:3:0:0:
197,121,284877,1,0,3:3:0:0:
182,178,284958,1,0,3:3:0:0:
138,220,285040,1,0,3:3:0:0:
78,223,285121,1,2,3:3:0:0:
33,182,285203,1,0,3:3:0:0:
28,121,285285,1,0,3:3:0:0:
64,73,285366,1,0,3:3:0:0:
123,64,285448,2,0,L|130:131,3,59.9999981689454,10|0|0|0,3:3|3:3|3:3|3:3,0:0:0:0:
144,324,285774,5,2,3:3:0:0:
191,360,285855,1,0,3:3:0:0:
251,360,285937,1,0,3:3:0:0:
297,322,286018,1,0,3:3:0:0:
316,264,286100,1,10,3:3:0:0:
362,226,286181,1,0,3:3:0:0:
422,231,286263,5,0,3:3:0:0:
392,268,286344,1,0,3:3:0:0:
343,269,286426,1,2,3:3:0:0:
302,244,286507,1,0,3:3:0:0:
286,198,286589,1,2,3:3:0:0:
301,153,286670,1,0,3:3:0:0:
343,130,286752,2,0,L|413:139,3,59.9999981689454,10|0|0|0,3:3|3:3|3:3|3:3,0:0:0:0:
508,315,287078,5,4,3:3:0:0:
447,321,287160,1,0,3:3:0:0:
387,328,287241,1,0,3:3:0:0:
327,335,287323,1,0,3:3:0:0:
267,342,287404,1,10,3:3:0:0:
210,321,287486,1,0,3:3:0:0:
187,265,287567,1,0,3:3:0:0:
204,207,287649,1,0,3:3:0:0:
255,177,287730,2,0,L|269:245,3,59.9999981689454,2|0|0|0,3:3|3:3|3:3|3:3,0:0:0:0:
93,337,288056,2,0,L|107:269,3,59.9999981689454,10|0|0|0,3:3|3:3|3:3|3:3,0:0:0:0:
180,131,288382,5,2,3:3:0:0:
173,70,288464,1,0,3:3:0:0:
125,34,288545,1,0,3:3:0:0:
64,36,288627,1,0,3:3:0:0:
22,79,288708,1,10,3:3:0:0:
17,139,288790,1,0,3:3:0:0:
53,186,288871,1,0,3:3:0:0:
112,198,288953,1,0,3:3:0:0:
158,159,289035,6,0,L|167:98,1,59.9999981689454,2|0,3:3|3:3,0:0:0:0:
0,234,289198,2,0,L|9:295,1,59.9999981689454,2|0,3:3|3:3,0:0:0:0:
87,269,289361,2,0,L|96:330,3,59.9999981689454,10|0|0|0,3:3|3:3|3:3|3:3,0:0:0:0:
175,327,289687,5,4,3:3:0:0:
231,345,289768,1,0,3:3:0:0:
287,323,289850,1,0,3:3:0:0:
315,270,289931,1,0,3:3:0:0:
336,213,290013,1,10,3:3:0:0:
384,178,290094,1,0,3:3:0:0:
444,181,290176,5,0,3:3:0:0:
438,228,290257,1,0,3:3:0:0:
400,258,290339,1,2,3:3:0:0:
352,258,290420,1,0,3:3:0:0:
314,228,290502,1,0,3:3:0:0:
304,181,290583,1,0,3:3:0:0:
324,137,290665,2,0,L|392:128,3,59.9999981689454,10|0|0|0,3:3|3:3|3:3|3:3,0:0:0:0:
475,55,290991,5,4,3:3:0:0:
414,48,291073,1,0,3:3:0:0:
354,42,291154,1,0,3:3:0:0:
293,35,291236,1,0,3:3:0:0:
233,29,291317,1,10,3:3:0:0:
175,45,291399,1,0,3:3:0:0:
139,92,291480,1,0,3:3:0:0:
143,152,291562,1,0,3:3:0:0:
179,199,291643,1,2,3:3:0:0:
211,249,291725,1,0,3:3:0:0:
194,306,291806,2,0,L|125:317,1,59.9999981689454,0|0,3:3|3:3,0:0:0:0:
243,158,291969,2,0,L|312:169,3,59.9999981689454,10|0|0|0,3:3|3:3|3:3|3:3,0:0:0:0:
454,274,292295,5,4,3:3:0:0:
438,319,292377,1,0,3:3:0:0:
401,349,292458,1,0,3:3:0:0:
352,350,292540,1,0,3:3:0:0:
315,319,292621,1,10,3:3:0:0:
300,273,292703,1,0,3:3:0:0:
268,236,292785,1,0,3:3:0:0:
221,226,292866,1,0,3:3:0:0:
175,241,292948,1,2,3:3:0:0:
153,283,293029,1,0,3:3:0:0:
160,330,293111,1,0,3:3:0:0:
196,360,293192,1,0,3:3:0:0:
244,360,293274,2,0,L|303:350,3,59.9999981689454,10|0|0|0,3:3|3:3|3:3|3:3,0:0:0:0:
379,188,293600,5,8,3:3:0:0:
412,124,293681,1,8,3:3:0:0:
388,55,293763,1,8,3:3:0:0:
323,24,293844,1,8,3:3:0:0:
253,45,293926,1,8,3:3:0:0:
223,109,294007,1,0,3:3:0:0:
245,177,294089,5,8,3:3:0:0:
302,135,294170,1,8,3:3:0:0:
299,62,294252,1,8,3:3:0:0:
245,14,294333,1,8,3:3:0:0:
172,15,294415,1,8,3:3:0:0:
125,68,294496,1,0,3:3:0:0:
131,140,294578,5,8,3:3:0:0:
208,129,294660,1,8,3:3:0:0:
284,118,294741,1,8,3:3:0:0:
361,108,294823,1,8,3:3:0:0:
437,98,294904,5,4,3:3:0:0:
484,135,294986,1,0,3:3:0:0:
498,192,295067,1,0,3:3:0:0:
476,248,295149,1,0,3:3:0:0:
424,277,295230,1,10,3:3:0:0:
364,270,295312,1,0,3:3:0:0:
322,226,295393,1,0,3:3:0:0:
294,172,295475,1,0,3:3:0:0:
240,145,295556,1,2,3:3:0:0:
182,163,295638,1,0,3:3:0:0:
155,216,295719,1,0,3:3:0:0:
167,274,295801,1,0,3:3:0:0:
216,307,295882,2,0,L|236:224,3,59.9999981689454,10|0|0|0,3:3|3:3|3:3|3:3,0:0:0:0:
355,40,296208,5,2,3:3:0:0:
414,29,296290,1,0,3:3:0:0:
467,54,296371,1,0,3:3:0:0:
485,111,296453,1,0,3:3:0:0:
468,168,296535,1,10,3:3:0:0:
415,196,296616,1,0,3:3:0:0:
356,182,296698,5,0,3:3:0:0:
394,154,296779,1,0,3:3:0:0:
442,157,296861,1,2,3:3:0:0:
480,185,296942,1,0,3:3:0:0:
492,231,297024,1,2,3:3:0:0:
479,276,297105,1,0,3:3:0:0:
438,301,297187,2,0,L|372:295,3,59.9999981689454,10|0|0|0,3:3|3:3|3:3|3:3,0:0:0:0:
251,222,297513,5,4,3:3:0:0:
191,230,297594,1,0,3:3:0:0:
131,238,297676,1,0,3:3:0:0:
72,246,297757,1,0,3:3:0:0:
17,219,297839,1,10,3:3:0:0:
4,160,297920,1,0,3:3:0:0:
25,103,298002,1,0,3:3:0:0:
80,81,298083,1,0,3:3:0:0:
138,93,298165,2,0,L|150:167,3,59.9999981689454,2|0|0|0,3:3|3:3|3:3|3:3,0:0:0:0:
7,363,298491,2,0,L|19:289,3,59.9999981689454,10|0|0|0,3:3|3:3|3:3|3:3,0:0:0:0:
194,246,298817,5,2,3:3:0:0:
247,217,298899,1,0,3:3:0:0:
305,227,298980,1,0,3:3:0:0:
348,268,299062,1,0,3:3:0:0:
391,309,299143,1,10,3:3:0:0:
451,309,299225,1,0,3:3:0:0:
495,269,299306,1,0,3:3:0:0:
505,209,299388,1,0,3:3:0:0:
472,159,299469,6,0,L|411:169,1,59.9999981689454,2|0,3:3|3:3,0:0:0:0:
341,369,299632,2,0,L|402:379,1,59.9999981689454,2|0,3:3|3:3,0:0:0:0:
435,236,299795,2,0,L|496:246,3,59.9999981689454,10|0|0|0,3:3|3:3|3:3|3:3,0:0:0:0:
353,128,300121,5,4,3:3:0:0:
303,93,300203,1,0,3:3:0:0:
242,94,300285,1,0,3:3:0:0:
195,131,300366,1,0,3:3:0:0:
165,183,300448,1,10,3:3:0:0:
108,200,300529,1,0,3:3:0:0:
50,182,300611,5,0,3:3:0:0:
66,137,300692,1,0,3:3:0:0:
109,116,300774,1,2,3:3:0:0:
156,117,300855,1,0,3:3:0:0:
196,143,300937,1,0,3:3:0:0:
213,187,301018,1,0,3:3:0:0:
199,233,301100,2,0,L|123:245,3,59.9999981689454,10|0|0|0,3:3|3:3|3:3|3:3,0:0:0:0:
71,47,301426,5,4,3:3:0:0:
58,105,301507,1,0,3:3:0:0:
45,163,301589,1,0,3:3:0:0:
33,221,301670,1,0,3:3:0:0:
41,280,301752,1,10,3:3:0:0:
86,319,301833,1,0,3:3:0:0:
145,327,301915,1,0,3:3:0:0:
197,298,301996,1,0,3:3:0:0:
230,247,302078,1,2,3:3:0:0:
287,227,302160,1,0,3:3:0:0:
341,251,302241,2,0,L|351:323,1,59.9999981689454,0|0,3:3|3:3,0:0:0:0:
130,234,302404,2,0,L|140:162,3,59.9999981689454,10|0|0|0,3:3|3:3|3:3|3:3,0:0:0:0:
229,99,302730,5,4,3:3:0:0:
273,79,302812,1,0,3:3:0:0:
319,88,302893,1,0,3:3:0:0:
351,123,302975,1,0,3:3:0:0:
388,152,303056,1,10,3:3:0:0:
435,157,303138,1,0,3:3:0:0:
477,135,303219,1,0,3:3:0:0:
490,88,303301,1,0,3:3:0:0:
475,42,303382,1,2,3:3:0:0:
431,21,303464,1,0,3:3:0:0:
384,29,303545,2,0,L|364:103,1,59.9999981689454,0|0,3:3|3:3,0:0:0:0:
491,288,303708,2,0,L|471:214,3,59.9999981689454,10|0|0|0,3:3|3:3|3:3|3:3,0:0:0:0:
241,95,304035,5,8,3:3:0:0:
172,73,304116,1,0,3:3:0:0:
103,97,304198,1,0,3:3:0:0:
77,163,304279,1,0,3:3:0:0:
94,233,304361,1,0,3:3:0:0:
155,269,304442,1,0,3:3:0:0:
226,258,304524,5,8,3:3:0:0:
188,196,304605,1,0,3:3:0:0:
115,192,304687,1,0,3:3:0:0:
60,237,304768,1,0,3:3:0:0:
49,308,304850,1,0,3:3:0:0:
91,365,304931,1,0,3:3:0:0:
162,375,305013,5,8,3:3:0:0:
178,299,305094,1,8,3:3:0:0:
195,222,305176,1,8,3:3:0:0:
212,146,305257,1,8,3:3:0:0:
230,67,305339,6,0,B|262:57|262:57|360:86,1,100,8|8,3:3|3:3,0:0:0:0:
449,230,305665,1,8,3:3:0:0:
444,205,305746,1,0,3:3:0:0:
439,180,305828,1,0,3:3:0:0:
434,155,305910,1,0,3:3:0:0:
430,130,305991,1,8,3:3:0:0:
366,274,306154,1,8,3:3:0:0:
215,194,306317,5,8,3:3:0:0:
220,169,306398,1,0,3:3:0:0:
225,144,306480,1,0,3:3:0:0:
230,119,306562,1,0,3:3:0:0:
234,94,306643,1,8,3:3:0:0:
290,242,306806,1,8,3:3:0:0:
131,261,306969,5,8,3:3:0:0:
106,256,307050,1,0,3:3:0:0:
81,251,307132,1,0,3:3:0:0:
56,246,307214,1,0,3:3:0:0:
31,242,307295,1,8,3:3:0:0:
170,189,307458,5,8,3:3:0:0:
200,214,307540,1,8,3:3:0:0:
214,251,307621,1,8,3:3:0:0:
208,290,307703,1,8,3:3:0:0:
184,322,307785,1,8,3:3:0:0:
148,339,307866,1,8,3:3:0:0:
107,339,307948,6,0,B|93:285|93:285|114:232,1,100,8|8,3:3|3:3,0:0:0:0:
319,185,308274,1,8,3:3:0:0:
344,190,308355,1,0,3:3:0:0:
369,195,308437,1,0,3:3:0:0:
394,200,308519,1,0,3:3:0:0:
419,204,308600,1,8,3:3:0:0:
512,145,308763,1,8,3:3:0:0:
320,91,308926,5,8,3:3:0:0:
295,96,309007,1,0,3:3:0:0:
270,101,309089,1,0,3:3:0:0:
245,106,309171,1,0,3:3:0:0:
220,110,309252,1,8,3:3:0:0:
155,203,309415,1,8,3:3:0:0:
54,93,309578,5,8,3:3:0:0:
49,118,309659,1,0,3:3:0:0:
44,143,309741,1,0,3:3:0:0:
39,168,309823,1,0,3:3:0:0:
35,193,309904,1,8,3:3:0:0:
62,321,310067,5,8,3:3:0:0:
94,344,310149,1,8,3:3:0:0:
133,345,310230,1,8,3:3:0:0:
168,325,310312,1,8,3:3:0:0:
193,294,310393,1,8,3:3:0:0:
232,284,310475,1,8,3:3:0:0:
270,292,310556,6,0,B|289:322|289:322|272:388,1,100,8|8,3:3|3:3,0:0:0:0:
373,204,310882,5,8,3:3:0:0:
398,209,310963,1,0,3:3:0:0:
423,214,311045,1,0,3:3:0:0:
448,219,311127,1,0,3:3:0:0:
473,223,311208,1,8,3:3:0:0:
418,123,311371,1,8,3:3:0:0:
228,89,311535,5,8,3:3:0:0:
233,114,311616,1,0,3:3:0:0:
238,139,311698,1,0,3:3:0:0:
243,164,311780,1,0,3:3:0:0:
247,189,311861,1,8,3:3:0:0:
175,246,312024,1,8,3:3:0:0:
31,140,312187,5,8,3:3:0:0:
56,145,312268,1,0,3:3:0:0:
81,150,312350,1,0,3:3:0:0:
106,155,312432,1,0,3:3:0:0:
131,159,312513,1,8,3:3:0:0:
314,39,312676,5,8,3:3:0:0:
353,32,312757,1,8,3:3:0:0:
391,42,312839,1,8,3:3:0:0:
413,74,312920,1,8,3:3:0:0:
419,113,313002,1,8,3:3:0:0:
402,149,313083,1,8,3:3:0:0:
366,168,313165,6,0,B|325:162|325:162|311:167|311:167|241:156,1,100,8|8,3:3|3:3,0:0:0:0:
137,330,313491,1,8,3:3:0:0:
162,325,313572,1,0,3:3:0:0:
187,320,313654,1,0,3:3:0:0:
212,315,313736,1,0,3:3:0:0:
237,311,313817,1,8,3:3:0:0:
154,243,313980,1,8,3:3:0:0:
338,232,314143,5,8,3:3:0:0:
363,237,314224,1,0,3:3:0:0:
388,242,314306,1,0,3:3:0:0:
413,247,314388,1,0,3:3:0:0:
438,251,314469,1,8,3:3:0:0:
377,334,314632,1,8,3:3:0:0:
446,168,314795,5,8,3:3:0:0:
441,143,314876,1,0,3:3:0:0:
436,118,314958,1,0,3:3:0:0:
431,93,315040,1,0,3:3:0:0:
427,68,315121,5,8,3:3:0:0:
372,42,315203,1,8,3:3:0:0:
312,50,315285,1,8,3:3:0:0:
272,94,315366,1,8,3:3:0:0:
266,154,315448,1,8,3:3:0:0:
238,206,315529,1,8,3:3:0:0:
185,235,315611,1,8,3:3:0:0:
126,225,315692,1,8,3:3:0:0:
90,176,315774,5,2,3:3:0:0:
130,147,315855,1,0,3:3:0:0:
179,152,315937,1,0,3:3:0:0:
215,186,316018,1,0,3:3:0:0:
225,235,316100,1,12,3:3:0:0:
253,276,316181,1,0,3:3:0:0:
300,292,316263,1,0,3:3:0:0:
348,281,316344,1,0,3:3:0:0:
380,242,316426,5,2,3:3:0:0:
346,221,316507,1,0,3:3:0:0:
306,226,316589,1,0,3:3:0:0:
277,253,316670,1,0,3:3:0:0:
266,291,316752,1,12,3:3:0:0:
276,329,316833,1,0,3:3:0:0:
305,356,316915,1,0,3:3:0:0:
343,364,316996,1,0,3:3:0:0:
380,350,317078,5,2,3:3:0:0:
370,300,317160,1,0,3:3:0:0:
360,251,317241,1,0,3:3:0:0:
350,201,317323,1,0,3:3:0:0:
341,152,317404,1,12,3:3:0:0:
311,111,317486,1,0,3:3:0:0:
262,99,317567,1,0,3:3:0:0:
215,118,317649,1,0,3:3:0:0:
191,161,317730,5,2,3:3:0:0:
224,183,317812,1,0,3:3:0:0:
263,182,317893,2,0,L|275:112,1,50,12|0,3:3|3:3,0:0:0:0:
67,75,318056,2,0,L|79:145,1,50,8|8,3:3|3:3,0:0:0:0:
129,300,318219,5,8,3:3:0:0:
129,300,318301,1,8,3:3:0:0:
129,300,318382,2,0,L|141:230,1,50,2|0,3:3|3:3,0:0:0:0:
347,174,318545,2,0,L|359:244,1,50,0|0,3:3|3:3,0:0:0:0:
361,333,318708,5,12,3:3:0:0:
328,356,318790,1,0,3:3:0:0:
288,363,318871,1,0,3:3:0:0:
251,346,318953,1,0,3:3:0:0:
233,310,319035,1,2,3:3:0:0:
237,270,319116,1,0,3:3:0:0:
260,237,319198,1,0,3:3:0:0:
261,197,319279,1,0,3:3:0:0:
235,165,319361,1,12,3:3:0:0:
195,159,319442,1,0,3:3:0:0:
160,178,319524,1,0,3:3:0:0:
145,215,319605,1,0,3:3:0:0:
154,254,319687,5,2,3:3:0:0:
187,274,319768,1,0,3:3:0:0:
227,276,319850,1,0,3:3:0:0:
259,253,319931,1,0,3:3:0:0:
277,217,320013,1,12,3:3:0:0:
310,195,320094,1,0,3:3:0:0:
350,193,320176,1,0,3:3:0:0:
386,209,320257,1,0,3:3:0:0:
405,244,320339,1,2,3:3:0:0:
408,283,320420,1,0,3:3:0:0:
385,316,320502,6,0,L|321:328,1,50,12|0,3:3|3:3,0:0:0:0:
231,105,320665,2,0,L|295:117,1,50,8|8,3:3|3:3,0:0:0:0:
189,309,320828,5,8,3:3:0:0:
189,309,320910,1,8,3:3:0:0:
189,309,320991,1,2,3:3:0:0:
149,278,321073,1,0,3:3:0:0:
138,229,321154,1,0,3:3:0:0:
154,181,321236,1,0,3:3:0:0:
195,153,321317,1,12,3:3:0:0:
221,110,321399,1,0,3:3:0:0:
209,61,321480,1,0,3:3:0:0:
169,30,321562,1,0,3:3:0:0:
119,36,321643,5,2,3:3:0:0:
138,71,321725,1,0,3:3:0:0:
172,90,321806,1,0,3:3:0:0:
212,85,321888,1,0,3:3:0:0:
245,63,321969,1,12,3:3:0:0:
273,34,322051,1,0,3:3:0:0:
311,25,322132,1,0,3:3:0:0:
349,37,322214,1,0,3:3:0:0:
373,68,322295,5,2,3:3:0:0:
367,118,322377,1,0,3:3:0:0:
361,167,322458,1,0,3:3:0:0:
356,217,322540,1,0,3:3:0:0:
351,266,322621,1,12,3:3:0:0:
317,303,322703,1,0,3:3:0:0:
267,311,322785,1,0,3:3:0:0:
222,289,322866,1,0,3:3:0:0:
205,241,322948,5,2,3:3:0:0:
237,218,323029,1,0,3:3:0:0:
276,226,323111,2,0,L|288:283,1,50,12|0,3:3|3:3,0:0:0:0:
89,328,323274,2,0,L|101:271,1,50,8|8,3:3|3:3,0:0:0:0:
220,117,323437,5,8,3:3:0:0:
220,117,323518,1,8,3:3:0:0:
220,117,323600,2,0,L|232:60,1,50,2|0,3:3|3:3,0:0:0:0:
33,22,323763,2,0,L|45:79,1,50,0|0,3:3|3:3,0:0:0:0:
139,174,323926,5,12,3:3:0:0:
175,207,324007,1,0,3:3:0:0:
223,219,324089,1,0,3:3:0:0:
269,202,324170,1,0,3:3:0:0:
294,158,324252,1,2,3:3:0:0:
315,113,324333,1,0,3:3:0:0:
360,92,324415,1,0,3:3:0:0:
409,95,324496,1,0,3:3:0:0:
450,122,324578,2,0,L|439:175,1,50,12|0,3:3|3:3,0:0:0:0:
370,224,324741,2,0,L|381:277,1,50,0|0,3:3|3:3,0:0:0:0:
490,375,324904,6,0,L|433:366,1,50,2|0,3:3|3:3,0:0:0:0:
477,365,325067,2,0,L|420:356,1,50,0|0,3:3|3:3,0:0:0:0:
310,285,325230,6,0,L|253:294,1,50,12|0,3:3|3:3,0:0:0:0:
297,295,325393,2,0,L|240:304,1,50,0|0,3:3|3:3,0:0:0:0:
146,363,325556,5,8,3:3:0:0:
103,319,325638,1,8,3:3:0:0:
93,260,325719,1,8,3:3:0:0:
118,205,325801,1,8,3:3:0:0:
167,171,325882,1,8,3:3:0:0:
191,126,325964,1,8,3:3:0:0:
188,86,326045,1,8,3:3:0:0:
166,58,326127,1,8,3:3:0:0:
137,49,326208,5,12,3:3:0:0:
107,89,326290,1,0,3:3:0:0:
111,138,326371,1,0,3:3:0:0:
141,177,326453,1,0,3:3:0:0:
189,191,326535,1,10,3:3:0:0:
237,182,326616,1,0,3:3:0:0:
265,140,326698,1,0,3:3:0:0:
298,103,326779,1,0,3:3:0:0:
347,92,326861,1,10,3:3:0:0:
394,105,326942,1,0,3:3:0:0:
424,144,327024,1,0,3:3:0:0:
429,193,327105,1,0,3:3:0:0:
410,239,327187,1,10,3:3:0:0:
371,270,327268,1,0,3:3:0:0:
320,272,327350,1,0,3:3:0:0:
281,241,327431,1,0,3:3:0:0:
265,193,327513,5,10,3:3:0:0:
226,161,327594,1,0,3:3:0:0:
175,158,327676,1,0,3:3:0:0:
134,186,327757,1,0,3:3:0:0:
118,233,327839,1,10,3:3:0:0:
130,281,327920,1,0,3:3:0:0:
172,307,328002,1,0,3:3:0:0:
221,304,328083,1,0,3:3:0:0:
257,269,328165,2,0,L|249:211,1,50,10|0,3:3|3:3,0:0:0:0:
204,47,328328,5,12,3:3:0:0:
189,44,328410,1,0,3:3:0:0:
174,41,328491,1,0,3:3:0:0:
159,38,328573,1,0,3:3:0:0:
144,36,328654,2,0,L|136:94,1,50,12|0,3:3|3:3,0:0:0:0:
113,244,328817,5,12,3:3:0:0:
125,292,328899,1,0,3:3:0:0:
164,321,328980,1,0,3:3:0:0:
214,323,329062,1,0,3:3:0:0:
254,294,329143,1,10,3:3:0:0:
271,246,329225,1,0,3:3:0:0:
310,215,329306,1,0,3:3:0:0:
359,208,329388,1,0,3:3:0:0:
404,226,329469,1,10,3:3:0:0:
431,268,329551,1,0,3:3:0:0:
427,317,329632,1,0,3:3:0:0:
400,359,329714,1,0,3:3:0:0:
355,380,329795,1,10,3:3:0:0:
305,369,329877,1,0,3:3:0:0:
273,330,329958,1,0,3:3:0:0:
266,280,330040,1,0,3:3:0:0:
283,233,330121,5,10,3:3:0:0:
326,208,330203,1,0,3:3:0:0:
352,165,330285,1,0,3:3:0:0:
349,115,330366,1,0,3:3:0:0:
313,79,330448,1,10,3:3:0:0:
264,66,330529,1,0,3:3:0:0:
217,85,330611,1,0,3:3:0:0:
194,129,330692,1,0,3:3:0:0:
199,178,330774,2,0,L|275:168,1,50,10|0,3:3|3:3,0:0:0:0:
461,221,330937,5,12,3:3:0:0:
458,236,331018,1,0,3:3:0:0:
455,250,331100,1,0,3:3:0:0:
453,264,331181,1,0,3:3:0:0:
451,278,331263,2,0,L|375:268,1,50,12|0,3:3|3:3,0:0:0:0:
247,253,331426,5,12,3:3:0:0:
201,233,331507,1,0,3:3:0:0:
177,188,331589,1,0,3:3:0:0:
185,139,331670,1,0,3:3:0:0:
219,102,331752,1,10,3:3:0:0:
225,52,331833,1,0,3:3:0:0:
194,12,331915,1,0,3:3:0:0:
145,1,331996,1,0,3:3:0:0:
99,22,332078,1,10,3:3:0:0:
79,68,332160,1,0,3:3:0:0:
88,116,332241,1,0,3:3:0:0:
128,146,332323,1,0,3:3:0:0:
177,145,332404,1,10,3:3:0:0:
217,114,332486,1,0,3:3:0:0:
235,67,332567,1,0,3:3:0:0:
277,40,332649,1,0,3:3:0:0:
326,35,332730,5,10,3:3:0:0:
369,59,332812,1,0,3:3:0:0:
391,103,332893,1,0,3:3:0:0:
388,153,332975,1,0,3:3:0:0:
352,187,333056,1,10,3:3:0:0:
329,231,333138,1,0,3:3:0:0:
339,279,333219,1,0,3:3:0:0:
376,312,333301,1,0,3:3:0:0:
425,320,333382,2,0,L|489:313,1,50,10|0,3:3|3:3,0:0:0:0:
318,221,333545,5,12,3:3:0:0:
303,218,333627,1,0,3:3:0:0:
288,215,333708,1,0,3:3:0:0:
273,212,333790,1,0,3:3:0:0:
258,209,333871,2,0,L|193:194,1,50,12|0,3:3|3:3,0:0:0:0:
36,277,334035,5,12,3:3:0:0:
54,323,334116,1,0,3:3:0:0:
97,348,334198,1,0,3:3:0:0:
146,348,334279,1,0,3:3:0:0:
186,317,334361,1,10,3:3:0:0:
205,271,334442,1,0,3:3:0:0:
240,235,334524,1,0,3:3:0:0:
289,236,334605,1,0,3:3:0:0:
328,267,334687,1,10,3:3:0:0:
336,315,334768,1,0,3:3:0:0:
309,358,334850,1,0,3:3:0:0:
262,376,334931,1,0,3:3:0:0:
213,362,335013,1,10,3:3:0:0:
186,319,335094,1,0,3:3:0:0:
186,268,335176,1,0,3:3:0:0:
219,230,335257,1,0,3:3:0:0:
268,220,335339,5,8,3:3:0:0:
264,279,335420,1,8,3:3:0:0:
220,320,335502,1,8,3:3:0:0:
160,324,335583,1,8,3:3:0:0:
113,285,335665,1,8,3:3:0:0:
98,237,335746,1,8,3:3:0:0:
105,202,335828,1,8,3:3:0:0:
119,175,335910,1,8,3:3:0:0:
143,162,335991,2,0,L|218:170,1,50,12|0,3:3|0:0,0:0:0:0:
450,120,336154,5,12,3:3:0:0:
446,105,336236,1,0,3:3:0:0:
442,90,336317,1,0,3:3:0:0:
438,75,336399,1,0,3:3:0:0:
435,60,336480,2,0,L|360:68,1,50,12|0,3:3|3:3,0:0:0:0:
226,0,336643,5,8,3:3:0:0:
230,19,336725,1,0,3:3:0:0:
234,38,336806,1,0,3:3:0:0:
238,57,336888,1,0,3:3:0:0:
277,95,336969,5,8,3:3:0:0:
273,114,337051,1,0,3:3:0:0:
269,133,337132,1,0,3:3:0:0:
265,152,337214,1,0,3:3:0:0:
225,191,337295,5,8,3:3:0:0:
229,210,337377,1,0,3:3:0:0:
233,229,337458,1,0,3:3:0:0:
237,248,337540,1,0,3:3:0:0:
276,286,337621,5,8,3:3:0:0:
272,305,337703,1,0,3:3:0:0:
268,324,337784,1,0,3:3:0:0:
264,343,337866,1,0,3:3:0:0:
207,384,337948,5,12,3:3:0:0:
