osu file format v14

[General]
AudioFilename: audio.mp3
AudioLeadIn: 0
PreviewTime: -1
Countdown: 1
SampleSet: Soft
StackLeniency: 0.7
Mode: 0
LetterboxInBreaks: 0
WidescreenStoryboard: 0

[Editor]
Bookmarks: 5899,7534,11925,12309,12694,13079,18399,18719,18976,19745,35610,47052,47821,55513,77243,82948
DistanceSpacing: 2
BeatDivisor: 4
GridSize: 32
TimelineZoom: 4.699997

[Metadata]
Title:Bon ApptitS
TitleUnicode:ぼなぺてぃーと♡S
Artist:Blend S
ArtistUnicode:アニプレックス
Creator:oamleya
Version:Sadistically Expert!
Source:blend s
Tags:smile sweet sister sadistic surprise service blend s op
BeatmapID:1453320
BeatmapSetID:686702

[Difficulty]
HPDrainRate:6
CircleSize:4
OverallDifficulty:8
ApproachRate:9.6
SliderMultiplier:2.2
SliderTickRate:1

[Events]
//Background and Video events
0,0,"sadistic.jpg",0,0
Video,0,"Blend S OP-Opening HD.mp4"
//Break Periods
//Storyboard Layer 0 (Background)
//Storyboard Layer 1 (Fail)
//Storyboard Layer 2 (Pass)
//Storyboard Layer 3 (Foreground)
//Storyboard Sound Samples

[TimingPoints]
930,392.156862745098,4,2,0,100,1,0
5070,-50,4,2,0,100,0,0
6224,-66.6666666666667,4,2,0,100,0,0
6812,433.212996389892,4,2,0,100,1,0
7205,-50,4,2,0,100,0,0
7245,392.156862745098,4,2,0,100,1,0
13421,476.190476190476,4,2,0,100,1,0
13540,392.156862745098,4,2,0,100,1,0
15696,439.56043956044,4,2,0,100,1,0
15915,392.156862745098,4,2,0,100,1,0
16699,394.736842105263,4,2,0,100,1,0
19462,388.349514563107,4,2,0,100,1,0
19850,394.736842105263,4,2,0,100,1,0
25836,-62.5,4,2,0,100,0,0
26155,-66.6666666666667,4,2,0,100,0,0
29323,392.156862745098,4,2,0,100,1,0
30129,-100,4,2,0,100,0,0
30695,333.333333333333,4,2,0,100,1,0
30778,550.45871559633,4,2,0,100,1,0
30915,394.736842105263,4,2,0,100,1,0
32493,394.736842105263,4,2,0,100,1,0
37821,-133.333333333333,4,2,0,100,0,0
38590,-100,4,2,0,100,0,0
47180,-100,4,2,0,100,0,1
47887,413.793103448276,4,2,0,100,1,0
47949,-50,4,2,0,100,0,1
48300,392.156862745098,4,2,0,100,1,0
51437,394.736842105263,4,2,0,100,1,0
58013,-400,4,2,0,100,0,0
58937,388.349514563107,4,2,0,100,1,0
59167,-66.6666666666667,4,2,0,100,0,0
59325,394.736842105263,4,2,0,100,1,0
60706,408.163265306122,4,2,0,100,1,0
60910,392.156862745098,4,2,0,100,1,0
61859,-55.5555555555556,4,2,0,100,0,0
62478,397.350993377483,4,2,0,100,1,0
63868,415.22491349481,4,2,0,100,1,0
64075,392.156862745098,4,2,0,100,1,0
65447,375,4,2,0,100,1,0
65540,461.538461538462,4,2,0,100,1,0
65655,392.156862745098,4,2,0,100,1,0
67223,394.736842105263,4,2,0,100,1,0
71474,-100,4,2,0,100,0,0
73144,386.473429951691,4,2,0,100,1,0
73530,397.350993377483,4,2,0,100,1,0
73728,416.666666666667,4,2,0,100,1,0
73936,397.350993377483,4,2,0,100,1,0
75128,394.736842105263,4,2,0,100,1,0
76575,-62.5,4,2,0,100,0,0
77891,384.615384615385,4,2,0,100,1,0
78275,392.156862745098,4,2,0,100,1,0
79647,427.046263345196,4,2,0,100,1,0
79860,394.736842105263,4,2,0,100,1,0
87360,370.37037037037,4,2,0,100,1,0
87730,480,4,2,0,100,1,0
87970,389.61038961039,4,2,0,100,1,0
88164,389.61038961039,4,2,0,100,1,0
89332,397.350993377483,4,2,0,100,1,0

[Colours]
Combo1 : 255,255,0
Combo2 : 248,148,148
Combo3 : 166,145,229
Combo4 : 53,255,169
Combo5 : 0,185,255

[HitObjects]
140,88,900,6,0,B|48:136|132:240|136:140|188:144|204:176|180:240|116:248|104:288|-88:304|60:212,1,220
448,192,1669,38,0,B|295:259|577:300|352:352,1,220
128,64,2438,6,0,B|-36:142|268:140|56:198,1,220
416,224,3015,22,0,B|267:283|571:281|395:358,1,220
128,96,3976,6,0,B|-32:192|260:169|64:256,1,220
384,192,4746,6,0,B|217:283|521:281|273:374,1,220
446,115,5515,38,0,L|320:80,1,98.9999969787599
320,192,5899,2,0,L|208:208,1,98.9999969787599
108,120,6284,2,0,B|8:168|39:225|15:242|115:220|212:281|150:300|93:344,1,330
256,320,7246,2,0,B|288:288|288:288,6,27.5
144,320,7726,2,0,P|112:256|112:224,1,82.5
128,96,8015,5,0,0:0:0:0:
352,32,8303,1,0,0:0:0:0:
480,192,8592,1,0,0:0:0:0:
419,322,8784,5,0,0:0:0:0:
144,240,8976,1,0,0:0:0:0:
432,160,9169,5,0,0:0:0:0:
144,176,9361,1,0,0:0:0:0:
416,16,9553,5,0,0:0:0:0:
144,112,9745,1,0,0:0:0:0:
96,240,9938,6,0,P|112:192|240:224,1,183.333333333333
310,317,10419,2,0,P|466:289|441:198,1,293.333333333333
71,237,11092,6,0,P|35:173|113:118,2,183.333333333333
272,32,11957,5,0,0:0:0:0:
64,320,12149,1,0,0:0:0:0:
416,64,12342,5,0,0:0:0:0:
96,320,12534,1,0,0:0:0:0:
512,144,12726,5,0,0:0:0:0:
112,336,12918,1,0,0:0:0:0:
144,208,13111,6,0,P|144:128|208:112,1,146.666666666667
335,87,13495,2,0,P|371:212|233:294,1,275
112,290,14265,1,0,0:0:0:0:
102,127,14457,1,0,0:0:0:0:
249,35,14745,1,0,0:0:0:0:
380,91,15034,6,0,P|386:263|224:317,1,293.333333333333
154,330,15707,1,0,0:0:0:0:
155,46,15899,1,0,0:0:0:0:
336,43,16476,5,0,0:0:0:0:
437,182,16668,5,0,0:0:0:0:
113,248,16861,1,0,0:0:0:0:
208,80,17053,5,0,0:0:0:0:
339,66,17245,37,0,0:0:0:0:
446,212,17437,5,0,0:0:0:0:
122,283,17630,1,0,0:0:0:0:
208,112,17822,5,0,0:0:0:0:
336,93,18014,1,0,0:0:0:0:
416,304,18399,21,0,0:0:0:0:
256,32,18687,1,0,0:0:0:0:
96,304,18976,1,0,0:0:0:0:
150,78,19745,5,0,0:0:0:0:
379,189,20418,5,0,0:0:0:0:
379,189,20514,1,0,0:0:0:0:
379,189,20610,1,0,0:0:0:0:
129,201,21380,5,0,0:0:0:0:
355,193,21957,5,0,0:0:0:0:
355,193,22053,1,0,0:0:0:0:
355,193,22149,1,0,0:0:0:0:
110,175,22918,5,0,0:0:0:0:
369,97,23591,5,0,0:0:0:0:
369,97,23687,1,0,0:0:0:0:
369,97,23783,1,0,0:0:0:0:
161,78,24456,22,0,L|365:88,2,165.000006294251
328,222,25322,2,0,L|141:232,2,165.000006294251
392,72,26187,5,0,0:0:0:0:
160,180,26860,5,0,0:0:0:0:
160,180,26956,1,0,0:0:0:0:
160,180,27053,1,0,0:0:0:0:
416,276,27726,5,0,0:0:0:0:
116,96,28399,5,0,0:0:0:0:
116,96,28495,1,0,0:0:0:0:
116,96,28591,1,0,0:0:0:0:
220,284,29264,5,0,0:0:0:0:
128,64,29552,5,0,0:0:0:0:
224,96,29649,1,0,0:0:0:0:
192,192,29745,1,0,0:0:0:0:
96,160,29841,1,0,0:0:0:0:
400,224,30129,6,0,P|448:176|384:112,2,146.666666666667
416,224,30995,5,0,0:0:0:0:
480,128,31091,1,0,0:0:0:0:
384,64,31187,1,0,0:0:0:0:
320,160,31283,1,0,0:0:0:0:
128,160,31572,6,0,P|112:80|160:32,2,146.666666666667
192,144,32437,6,0,P|224:96|336:128,2,183.333333333333
208,256,33206,6,0,P|304:288|352:208,2,183.333333333333
112,80,33975,5,0,0:0:0:0:
240,64,34103,1,0,0:0:0:0:
320,144,34264,2,0,P|352:224|320:288,2,146.666666666667
240,64,34873,1,0,0:0:0:0:
112,96,35001,1,0,0:0:0:0:
96,240,35129,2,0,P|224:304|288:240,1,220
384,160,35610,6,0,P|320:80|176:128,2,220
352,256,36475,6,0,P|192:240|176:192,1,220
128,112,37052,1,0,0:0:0:0:
272,128,37244,5,0,0:0:0:0:
464,192,37437,1,0,0:0:0:0:
272,256,37629,1,0,0:0:0:0:
128,288,37821,6,0,P|64:192|128:96,1,226.875008654595
304,272,38687,6,0,L|416:128,2,165
208,272,39466,6,0,L|96:128,2,165
224,160,40190,5,0,0:0:0:0:
160,48,40486,2,0,P|256:64|320:192,1,247.5
160,288,41090,1,0,0:0:0:0:
96,112,41475,1,0,0:0:0:0:
288,48,41764,5,0,0:0:0:0:
288,48,41860,1,0,0:0:0:0:
288,48,41956,2,0,P|320:112|272:240,1,165
224,256,42340,5,0,0:0:0:0:
224,256,42436,1,0,0:0:0:0:
224,256,42533,2,0,P|144:96|160:48,1,220
336,64,43110,5,0,0:0:0:0:
336,64,43206,1,0,0:0:0:0:
336,64,43302,2,0,P|336:208|256:288,2,220
256,320,44263,6,0,L|496:304,2,220
128,48,45129,5,0,0:0:0:0:
64,288,45321,1,0,0:0:0:0:
352,48,45513,5,0,0:0:0:0:
112,304,45706,1,0,0:0:0:0:
480,128,45898,5,0,0:0:0:0:
144,320,46090,1,0,0:0:0:0:
512,256,46282,5,0,0:0:0:0:
192,336,46475,1,0,0:0:0:0:
176,176,46667,6,0,P|256:112|336:192,1,220
256,80,47148,6,0,B|208:160|304:240|240:304,1,220
51,202,48205,6,0,P|94:263|174:311,1,165
295,347,48782,1,0,0:0:0:0:
435,279,48975,1,0,0:0:0:0:
436,113,49167,2,0,P|276:98|144:166,1,220
124,201,49872,1,0,0:0:0:0:
124,201,50000,1,0,0:0:0:0:
224,288,50257,5,0,0:0:0:0:
224,288,50386,1,0,0:0:0:0:
352,224,50642,5,0,0:0:0:0:
352,224,50770,1,0,0:0:0:0:
224,96,51026,5,0,0:0:0:0:
224,96,51154,1,0,0:0:0:0:
177,213,51475,6,0,B|281:143|356:270|446:143,1,220
276,72,52051,5,0,0:0:0:0:
276,72,52180,1,0,0:0:0:0:
276,72,52308,2,0,P|423:128|374:250,1,293.333333333333
403,308,53013,5,0,0:0:0:0:
77,310,53205,1,0,0:0:0:0:
405,199,53398,5,0,0:0:0:0:
81,194,53590,1,0,0:0:0:0:
420,100,53782,5,0,0:0:0:0:
196,261,54167,2,0,P|309:290|324:282,2,110
318,80,54744,5,0,0:0:0:0:
318,80,54936,1,0,0:0:0:0:
421,111,55128,1,0,0:0:0:0:
421,223,55321,2,0,P|394:301|350:309,2,110
407,113,55897,1,0,0:0:0:0:
194,80,56282,5,0,0:0:0:0:
194,80,56474,1,0,0:0:0:0:
91,111,56667,1,0,0:0:0:0:
91,223,56859,2,0,P|118:301|162:309,2,110
105,113,57436,1,0,0:0:0:0:
416,64,57917,5,0,0:0:0:0:
128,288,58013,2,0,L|96:288,1,27.5
96,64,58686,5,0,0:0:0:0:
384,288,58878,2,0,L|436:288,1,27.5
256,64,59263,5,0,0:0:0:0:
384,192,59551,5,0,0:0:0:0:
256,320,59840,5,0,0:0:0:0:
128,192,60128,5,0,0:0:0:0:
64,224,60513,5,0,0:0:0:0:
96,288,60609,1,0,0:0:0:0:
160,320,60705,1,0,0:0:0:0:
224,320,60801,1,0,0:0:0:0:
288,320,60897,2,0,P|384:288|384:160,1,206.250007867813
128,80,61474,5,0,0:0:0:0:
288,48,61666,1,0,0:0:0:0:
384,192,61859,2,0,P|352:320|256:288,1,197.99999395752
128,288,62436,1,0,0:0:0:0:
160,256,62610,1,0,0:0:0:0:
96,192,62820,1,0,0:0:0:0:
128,160,63013,1,0,0:0:0:0:
64,96,63205,1,0,0:0:0:0:
96,64,63397,1,0,0:0:0:0:
224,32,63589,2,0,P|368:96|368:160,1,197.99999395752
114,225,64230,5,0,0:0:0:0:
150,128,64359,1,0,0:0:0:0:
250,170,64487,1,0,0:0:0:0:
224,272,64615,2,0,P|368:320|416:160,1,329.9999899292
320,80,65416,2,0,L|224:64,1,65.9999979858399
80,32,65705,5,0,0:0:0:0:
416,320,65897,1,0,0:0:0:0:
384,48,66041,5,0,0:0:0:0:
64,288,66234,1,0,0:0:0:0:
48,96,66474,5,0,0:0:0:0:
488,280,66666,1,0,0:0:0:0:
256,192,66858,5,0,0:0:0:0:
416,128,67435,5,0,0:0:0:0:
416,128,67628,1,0,0:0:0:0:
384,256,67820,1,0,0:0:0:0:
256,304,68012,1,0,0:0:0:0:
128,256,68205,1,0,0:0:0:0:
96,128,68397,1,0,0:0:0:0:
96,128,68589,1,0,0:0:0:0:
416,256,68974,5,0,0:0:0:0:
416,256,69166,1,0,0:0:0:0:
384,128,69358,1,0,0:0:0:0:
256,80,69551,1,0,0:0:0:0:
128,128,69743,1,0,0:0:0:0:
96,256,69935,1,0,0:0:0:0:
96,256,70128,1,0,0:0:0:0:
64,320,70320,5,0,0:0:0:0:
448,320,70512,1,0,0:0:0:0:
64,192,70705,5,0,0:0:0:0:
448,192,70897,1,0,0:0:0:0:
64,64,71089,5,0,0:0:0:0:
448,64,71281,1,0,0:0:0:0:
256,288,71474,6,0,B|320:192|192:176|288:48,1,220
128,64,72051,5,0,0:0:0:0:
320,96,72307,2,0,P|368:160|256:288,2,275
192,128,73461,5,0,0:0:0:0:
320,128,73717,1,0,0:0:0:0:
192,256,73974,1,0,0:0:0:0:
320,256,74230,1,0,0:0:0:0:
160,160,74486,5,0,0:0:0:0:
352,224,74743,1,0,0:0:0:0:
224,288,74999,1,0,0:0:0:0:
288,96,75256,1,0,0:0:0:0:
128,192,75654,37,0,0:0:0:0:
384,192,75917,1,0,0:0:0:0:
160,64,76281,37,0,0:0:0:0:
352,64,76474,1,0,0:0:0:0:
160,256,76666,2,0,B|160:224|96:192|128:256|160:256,1,82.5
352,256,76858,2,0,B|352:224|416:192|384:256|352:256,1,82.5
256,128,77243,54,0,B|288:64|224:64|256:128,1,82.5
160,288,77627,5,0,0:0:0:0:
352,288,77820,1,0,0:0:0:0:
256,352,78012,1,0,0:0:0:0:
160,160,78204,6,0,B|128:128|96:160|128:192|160:160,1,82.5
352,160,78493,2,0,B|384:128|416:160|384:192|352:160,1,82.5
256,96,78829,2,0,B|224:64|256:32|288:64|256:96,1,82.5
160,192,79358,5,0,0:0:0:0:
352,192,79550,1,0,0:0:0:0:
192,256,79743,5,0,0:0:0:0:
320,128,79935,1,0,0:0:0:0:
256,288,80127,5,0,0:0:0:0:
256,96,80320,1,0,0:0:0:0:
320,256,80512,5,0,0:0:0:0:
192,128,80704,1,0,0:0:0:0:
352,192,80896,5,0,0:0:0:0:
160,192,81089,1,0,0:0:0:0:
320,128,81281,5,0,0:0:0:0:
192,256,81473,1,0,0:0:0:0:
256,192,81666,5,0,0:0:0:0:
0,192,81965,5,0,0:0:0:0:
512,192,82228,1,0,0:0:0:0:
192,160,82691,5,0,0:0:0:0:
192,160,82819,1,0,0:0:0:0:
192,160,82948,2,0,P|192:288|256:320,2,146.666666666667
288,224,83717,2,0,P|288:64|224:32,2,220
32,224,84614,6,0,B|160:128|288:288|480:160,1,440
288,96,85896,5,0,0:0:0:0:
288,96,86024,1,0,0:0:0:0:
288,96,86153,2,0,P|352:192|320:256,2,146.666666666667
160,128,86922,2,0,P|128:224|224:288,2,220
32,352,87947,5,0,0:0:0:0:
256,32,88261,1,0,0:0:0:0:
480,352,88529,1,0,0:0:0:0:
