osu file format v14

[General]
AudioFilename: audio.mp3
AudioLeadIn: 0
PreviewTime: 52467
Countdown: 0
SampleSet: Soft
StackLeniency: 1
Mode: 0
LetterboxInBreaks: 0
WidescreenStoryboard: 1

[Editor]
DistanceSpacing: 1.2
BeatDivisor: 4
GridSize: 16
TimelineZoom: 1

[Metadata]
Title:Detarame na Minus to Plus ni Okeru Blend Ko
TitleUnicode:デタラメなマイナスとプラスにおけるブレンド考
Artist:Blend A
ArtistUnicode:Blend A
Creator:SolariS
Version:Hard
Source:ブレンド・S
Tags:
BeatmapID:1536962
BeatmapSetID:727952

[Difficulty]
HPDrainRate:5
CircleSize:4
OverallDifficulty:7
ApproachRate:8
SliderMultiplier:1.5
SliderTickRate:1

[Events]
//Background and Video events
0,0,"Untitled.png",0,0
//Break Periods
//Storyboard Layer 0 (Background)
//Storyboard Layer 1 (Fail)
//Storyboard Layer 2 (Pass)
//Storyboard Layer 3 (Foreground)
//Storyboard Sound Samples

[TimingPoints]
150,365.853658536585,4,2,0,100,1,0
3076,-100,4,2,0,60,0,0
14784,-100,4,2,0,70,0,0
26491,-100,4,2,0,60,0,0
38198,-100,4,2,0,60,0,0
43320,-100,4,2,0,80,0,0
51918,-66.6666666666667,4,2,0,100,0,0
52284,-66.6666666666667,4,2,0,100,0,0
52832,-83.3333333333333,4,2,0,100,0,1
76247,-100,4,2,0,70,0,0
89052,-100,4,2,0,5,0,0

[Colours]
Combo1 : 249,255,130
Combo2 : 120,253,64
Combo3 : 17,255,249
Combo4 : 255,128,128

[HitObjects]
256,192,150,12,0,2710,0:0:0:0:
265,90,3076,6,0,P|350:55|281:162,1,300
154,190,4174,1,0,0:0:0:0:
150,39,4540,6,0,P|103:21|48:99,1,150
72,158,5089,1,0,0:0:0:0:
142,183,5271,2,0,P|189:194|235:284,1,150
460,353,6003,6,0,P|467:309|461:179,1,150
454,129,6552,2,0,P|434:87|333:86,1,150
283,130,7101,1,0,0:0:0:0:
270,289,7467,6,0,P|216:313|122:279,1,150
78,216,8015,1,0,0:0:0:0:
190,120,8381,1,0,0:0:0:0:
190,120,8564,1,0,0:0:0:0:
338,95,8930,6,0,P|377:69|480:108,1,150
460,242,9479,2,0,L|443:341,1,75
358,335,9845,2,0,L|370:246,1,75
262,319,10210,5,0,0:0:0:0:
262,319,10393,2,0,P|242:262|206:243,1,75
161,279,10759,2,0,P|129:231|136:194,1,75
146,142,11125,6,0,P|201:136|227:159,1,75
179,211,11491,2,0,P|144:224|93:193,1,75
68,149,11857,6,0,P|72:101|169:62,1,150
220,95,12406,2,0,P|276:115|364:97,1,150
420,50,12954,1,0,0:0:0:0:
459,225,13320,5,0,0:0:0:0:
459,225,13686,1,0,0:0:0:0:
369,217,13869,6,0,L|362:175,2,37.5
302,277,14235,2,0,P|268:272|233:226,1,75
255,86,14784,6,0,P|297:76|342:96,1,75
326,84,15149,1,0,0:0:0:0:
358,167,15332,6,0,P|388:157|431:167,1,75
429,166,15698,1,0,0:0:0:0:
478,241,15881,1,0,0:0:0:0:
242,212,16247,6,0,P|183:201|156:219,1,75
171,206,16613,1,0,0:0:0:0:
90,246,16796,2,0,L|75:156,2,75
112,340,17345,2,0,P|170:342|201:320,1,75
227,256,17710,6,0,P|236:196|269:166,1,75
243,185,18076,1,0,0:0:0:0:
327,216,18259,6,0,P|330:187|363:144,1,75
355,149,18625,1,0,0:0:0:0:
438,183,18808,2,0,P|450:143|478:117,1,75
355,149,19174,6,0,P|345:109|323:81,1,75
324,82,19540,1,0,0:0:0:0:
254,139,19723,2,0,P|242:110|209:81,1,75
209,81,20089,1,0,0:0:0:0:
154,152,20271,2,0,P|121:123|86:115,1,75
54,115,20637,6,0,P|89:82|204:88,1,150
186,77,21186,1,0,0:0:0:0:
198,167,21369,2,0,L|209:274,1,75
305,309,21735,2,0,L|296:233,1,75
285,114,22101,6,0,P|310:97|373:100,2,75
239,224,22649,2,0,P|212:230|159:212,2,75
285,114,23198,1,0,0:0:0:0:
201,27,23381,1,0,0:0:0:0:
109,104,23564,6,0,P|91:153|155:239,1,150
254,201,24113,2,0,P|285:256|254:359,1,150
149,340,24662,5,0,0:0:0:0:
139,220,24845,1,0,0:0:0:0:
258,213,25028,2,0,P|300:185|316:154,1,75
356,53,25393,2,0,L|388:122,1,75
507,131,25759,6,0,L|495:232,1,75
485,325,26125,1,0,0:0:0:0:
485,325,26217,1,0,0:0:0:0:
485,325,26308,1,0,0:0:0:0:
131,293,26491,6,0,P|111:245|122:209,1,75
235,220,26857,2,0,P|236:183|205:135,1,75
109,100,27223,2,0,P|106:59|133:25,1,75
241,57,27589,2,0,P|265:32|310:30,1,75
398,104,27954,6,0,L|434:184,1,75
392,329,28320,2,0,L|461:291,1,75
331,225,28686,5,0,0:0:0:0:
331,225,28869,1,0,0:0:0:0:
331,225,29052,2,0,L|242:267,1,75
113,43,29418,6,0,P|83:77|90:130,1,75
189,156,29784,2,0,P|194:201|162:244,1,75
79,290,30149,2,0,P|79:335|105:360,1,75
215,331,30515,2,0,P|261:350|304:339,1,75
373,329,30881,6,0,L|383:228,1,75
458,135,31247,2,0,L|370:160,1,75
270,189,31613,5,0,0:0:0:0:
270,189,31796,1,0,0:0:0:0:
270,189,31979,2,0,L|238:103,1,75
150,42,32345,6,0,B|114:57|114:57|113:193,1,150
112,288,32893,1,0,0:0:0:0:
232,288,33076,2,0,L|318:288,2,75
152,197,33625,1,0,0:0:0:0:
208,90,33808,6,0,P|235:46|264:42,1,75
323,140,34174,2,0,P|367:122|377:90,1,75
497,102,34540,2,0,P|521:141|526:182,1,75
423,232,34906,2,0,P|424:281|452:316,1,75
317,318,35271,6,0,P|308:270|220:226,1,150
172,334,35820,2,0,P|118:333|74:256,1,150
74,135,36369,2,0,L|74:55,1,75
190,90,36735,6,0,P|243:97|284:86,1,75
384,92,37101,1,0,0:0:0:0:
384,92,37284,1,0,0:0:0:0:
404,210,37467,6,0,P|355:203|316:221,1,75
211,211,37832,1,0,0:0:0:0:
211,211,38015,1,0,0:0:0:0:
400,346,38198,6,0,P|430:313|431:281,1,75
410,165,38564,2,0,P|373:199|371:229,1,75
490,216,38930,2,0,P|524:178|528:149,1,75
490,41,39296,2,0,P|464:73|466:112,1,75
345,79,39662,6,0,L|252:86,1,75
197,181,40028,2,0,L|281:177,1,75
344,273,40393,5,0,0:0:0:0:
344,273,40576,1,0,0:0:0:0:
344,273,40759,2,0,L|241:281,1,75
338,327,41125,6,0,B|350:285|350:285|427:202,1,150
439,87,41674,2,0,B|398:59|398:59|276:59,1,150
179,82,42223,2,0,P|144:105|135:142,1,75
153,254,42589,2,0,P|193:217|196:193,1,75
289,123,42954,2,0,P|337:113|372:131,1,75
398,263,43320,5,0,0:0:0:0:
297,329,43503,1,0,0:0:0:0:
398,263,43686,5,0,0:0:0:0:
282,228,43869,1,0,0:0:0:0:
316,99,44052,6,0,P|377:111|392:197,1,150
282,228,44601,1,0,0:0:0:0:
203,138,44784,2,0,P|151:147|139:179,1,75
142,282,45149,2,0,P|200:260|203:243,1,75
203,138,45515,6,0,P|206:91|239:63,1,75
310,154,45881,2,0,P|307:201|286:228,1,75
234,324,46247,1,0,0:0:0:0:
184,214,46430,1,0,0:0:0:0:
298,222,46613,1,0,0:0:0:0:
234,324,46796,1,0,0:0:0:0:
113,324,46979,6,0,P|67:284|81:171,1,150
157,124,47528,1,0,0:0:0:0:
275,110,47710,6,0,L|323:46,1,75
372,158,48076,2,0,L|322:235,1,75
242,302,48442,6,0,P|196:312|155:302,1,75
170,186,48808,2,0,P|125:169|107:144,1,75
173,46,49174,5,0,0:0:0:0:
209,54,49265,1,0,0:0:0:0:
245,63,49356,1,0,0:0:0:0:
282,72,49448,1,0,0:0:0:0:
318,81,49539,1,0,0:0:0:0:
436,107,49723,1,0,0:0:0:0:
436,227,49906,6,0,L|436:311,1,75
436,302,50637,5,0,0:0:0:0:
287,199,50912,1,0,0:0:0:0:
212,362,51186,1,0,0:0:0:0:
118,140,51552,6,0,P|136:99|196:90,1,75
327,157,51918,2,0,L|368:110,2,56.2500021457673
254,243,52284,1,0,0:0:0:0:
365,259,52467,6,0,P|417:297|415:357,1,112.500004291535
331,341,52832,2,0,L|207:342,1,89.9999972534181
134,243,53198,2,0,L|244:242,1,89.9999972534181
368,239,53564,5,0,0:0:0:0:
459,127,53747,2,0,L|496:84,2,44.999998626709
368,239,54113,1,0,0:0:0:0:
308,107,54296,2,0,P|253:105|213:132,1,89.9999972534181
218,229,54662,6,0,P|183:248|122:238,1,89.9999972534181
165,140,55028,2,0,P|201:115|267:126,1,89.9999972534181
296,210,55393,2,0,L|306:310,1,89.9999972534181
424,328,55759,6,0,L|414:224,1,89.9999972534181
402,130,56125,1,0,0:0:0:0:
402,130,56217,1,0,0:0:0:0:
402,130,56308,1,0,0:0:0:0:
301,90,56491,2,0,P|244:104|211:148,1,89.9999972534181
219,233,56857,1,0,0:0:0:0:
219,233,56948,1,0,0:0:0:0:
219,233,57040,1,0,0:0:0:0:
309,174,57223,6,0,P|343:151|416:163,1,89.9999972534181
392,258,57589,2,0,P|372:277|301:287,1,89.9999972534181
219,233,57954,5,0,0:0:0:0:
230,125,58137,1,0,0:0:0:0:
330,84,58320,1,0,0:0:0:0:
330,84,58412,1,0,0:0:0:0:
330,84,58503,1,0,0:0:0:0:
317,191,58686,6,0,P|306:236|377:345,1,179.999994506836
480,333,59235,1,0,0:0:0:0:
480,333,59418,2,0,L|495:234,1,89.9999972534181
504,135,59784,6,0,L|513:71,2,44.999998626709
392,92,60149,6,0,P|325:69|236:155,1,179.999994506836
238,236,60698,1,0,0:0:0:0:
186,331,60881,2,0,L|115:275,1,89.9999972534181
35,201,61247,6,0,L|-10:161,2,44.999998626709
80,110,61613,6,0,P|90:56|158:32,1,89.9999972534181
206,32,61979,1,0,0:0:0:0:
206,32,62162,1,0,0:0:0:0:
244,113,62345,6,0,P|262:172|296:189,1,89.9999972534181
354,130,62710,2,0,P|390:164|391:205,1,89.9999972534181
401,287,63076,6,0,L|309:319,1,89.9999972534181
329,227,63442,2,0,L|417:196,1,89.9999972534181
418,106,63808,6,0,L|312:145,1,89.9999972534181
247,166,64174,1,0,0:0:0:0:
247,166,64265,1,0,0:0:0:0:
247,166,64357,1,0,0:0:0:0:
132,188,64540,6,0,L|112:245,2,44.999998626709
162,102,64906,1,0,0:0:0:0:
303,188,65089,2,0,L|356:150,2,44.999998626709
270,271,65454,1,0,0:0:0:0:
344,322,65637,6,0,P|384:287|451:297,1,89.9999972534181
481,349,66003,2,0,L|477:228,1,89.9999972534181
475,168,66369,2,0,P|458:117|423:104,1,89.9999972534181
337,115,66735,5,0,0:0:0:0:
337,115,66826,1,0,0:0:0:0:
337,115,66918,1,0,0:0:0:0:
252,147,67101,6,0,P|197:177|196:225,1,89.9999972534181
200,289,67467,2,0,P|146:293|108:278,1,89.9999972534181
85,195,67832,2,0,L|64:130,2,44.999998626709
113,280,68198,6,0,P|154:328|192:342,1,89.9999972534181
213,255,68564,2,0,P|242:220|285:208,1,89.9999972534181
324,284,68930,6,0,P|353:285|390:334,1,89.9999972534181
438,252,69296,2,0,P|434:212|468:173,1,89.9999972534181
441,76,69662,5,0,0:0:0:0:
396,81,69753,1,0,0:0:0:0:
351,86,69844,1,0,0:0:0:0:
306,92,69936,1,0,0:0:0:0:
262,97,70027,1,0,0:0:0:0:
173,109,70210,1,0,0:0:0:0:
94,297,70393,6,0,P|167:305|198:205,1,179.999994506836
114,206,70942,1,0,0:0:0:0:
114,206,71125,2,0,P|97:159|129:115,1,89.9999972534181
203,115,71491,2,0,L|199:63,2,44.999998626709
289,230,71857,6,0,P|344:200|406:290,1,179.999994506836
440,361,72406,1,0,0:0:0:0:
440,361,72589,2,0,B|477:342|477:342|509:263,1,89.9999972534181
490,207,72954,2,0,L|489:153,2,44.999998626709
315,249,73320,6,0,P|291:292|236:318,1,89.9999972534181
166,317,73686,1,0,0:0:0:0:
166,226,73869,2,0,P|158:172|121:139,2,89.9999972534181
75,231,74418,2,0,P|68:280|94:323,1,89.9999972534181
154,256,74784,6,0,P|181:211|231:200,1,89.9999972534181
300,226,75149,2,0,P|355:183|357:154,1,89.9999972534181
341,78,75515,2,0,L|331:27,7,44.999998626709
370,227,76247,6,0,L|352:132,1,75
289,116,76613,2,0,L|183:133,1,75
170,189,76979,2,0,L|184:281,1,75
246,300,77345,2,0,L|351:285,1,75
215,110,77710,6,0,P|176:94|121:108,1,75
172,166,78076,2,0,P|150:197|159:240,1,75
228,221,78442,2,0,P|238:268|273:288,1,75
305,224,78808,2,0,P|348:215|369:183,1,75
410,54,79174,6,0,L|432:135,1,75
448,199,79540,1,0,0:0:0:0:
358,319,79906,6,0,P|304:313|269:335,1,75
213,326,80271,2,0,P|176:333|134:320,1,75
90,266,80637,5,0,0:0:0:0:
90,266,80820,1,0,0:0:0:0:
75,192,81003,2,0,P|71:157|82:89,1,75
227,70,81369,5,0,0:0:0:0:
227,70,81552,1,0,0:0:0:0:
231,144,81735,2,0,P|239:167|220:237,1,75
236,291,82101,6,0,P|232:332|248:384,1,75
342,255,82467,2,0,P|346:221|335:172,1,75
222,51,82832,5,0,0:0:0:0:
222,49,83015,1,0,0:0:0:0:
199,235,83198,1,0,0:0:0:0:
336,107,83381,1,0,0:0:0:0:
151,142,83564,1,0,0:0:0:0:
398,219,84296,6,0,P|339:209|310:293,1,150
444,334,85028,6,0,L|426:162,1,150
428,184,85576,1,0,0:0:0:0:
320,80,85759,5,0,0:0:0:0:
173,113,85942,1,0,0:0:0:0:
272,225,86125,1,0,0:0:0:0:
320,80,86308,1,0,0:0:0:0:
256,192,86491,12,0,89052,0:0:0:0:
