osu file format v14

[General]
AudioFilename: audio.mp3
AudioLeadIn: 0
PreviewTime: 46822
Countdown: 0
SampleSet: Soft
StackLeniency: 0.7
Mode: 0
LetterboxInBreaks: 0
WidescreenStoryboard: 1

[Editor]
DistanceSpacing: 1
BeatDivisor: 2
GridSize: 8
TimelineZoom: 3.399999

[Metadata]
Title:Bon Appetit S (TV Size ver.)
TitleUnicode:ぼなぺてぃーと♡S (TVサイズver)
Artist:Blend A
ArtistUnicode:ブレンド・A
Creator:Nekoraw
Version:Sweet Normal
Source:ブレンド・S
Tags:blend s tv size burendo idol sadistic imouto oneesan tsundere technical appétit y0c1e nekoraw zspixel pixel miyashiro -miyashiro- sakuranomiya maika kanzaki hideri hinata kaho dino hoshikawa mafuyu amano miu akizuki kouyou
BeatmapID:1453063
BeatmapSetID:679698

[Difficulty]
HPDrainRate:5
CircleSize:3
OverallDifficulty:4
ApproachRate:5
SliderMultiplier:1
SliderTickRate:1

[Events]
//Background and Video events
Video,0,"video.avi"
0,0,"sweet.jpg",0,0
//Break Periods
//Storyboard Layer 0 (Background)
//Storyboard Layer 1 (Fail)
//Storyboard Layer 2 (Pass)
//Storyboard Layer 3 (Foreground)
//Storyboard Sound Samples

[TimingPoints]
638,394.736842105263,4,2,2,70,1,0
48006,-100,4,2,2,70,0,1
54519,-100,4,2,2,70,0,0
60637,-100,4,2,2,70,0,1
67151,-100,4,2,2,70,0,0
76427,-100,4,2,2,70,0,1
79585,-100,4,2,2,70,0,0
82545,-100,4,2,2,70,0,1
88466,-100,4,2,2,5,0,1
89453,-100,4,2,2,30,0,0

[Colours]
Combo1 : 99,137,163
Combo2 : 1,142,177
Combo3 : 177,160,121
Combo4 : 175,134,125

[HitObjects]
72,80,638,6,8,L|71:216,2,100
170,97,1822,1,4,0:0:0:0:
269,95,2216,2,8,L|268:198,2,100,8|8|0,0:0|0:0|0:0,0:0:0:0:
369,98,3401,1,4,0:0:0:0:
368,197,3795,6,0,L|502:197,2,100,8|8|8,0:0|0:0|0:0,0:0:0:0:
270,221,4980,1,4,0:0:0:0:
173,212,5374,2,0,P|381:55|483:99,1,400,0|0,0:0|0:0,0:3:0:0:
434,186,7348,5,0,0:0:0:0:
370,263,7743,2,0,P|309:289|245:279,1,100
190,236,8532,2,0,L|68:285,2,100,8|8|8,0:0|0:0|0:0,0:0:0:0:
275,183,9716,1,8,0:0:0:0:
359,236,10111,5,8,0:0:0:0:
281,299,10506,1,8,0:0:0:0:
198,241,10901,2,0,L|70:169,2,100,2|2|10,0:0|0:0|0:0,0:0:0:0:
298,244,12085,1,8,0:0:0:0:
260,151,12480,1,8,0:0:0:0:
186,83,12874,1,8,0:0:0:0:
91,50,13269,5,4,0:0:0:0:
42,199,13861,1,0,0:0:0:0:
76,235,14059,2,0,L|180:331,1,100,2|0,0:0|0:0,0:0:0:0:
196,320,14651,1,0,0:0:0:0:
242,302,14848,2,0,L|341:223,1,100,2|0,0:0|0:0,0:0:0:0:
363,214,15440,1,0,0:0:0:0:
400,179,15637,2,0,L|331:99,1,100
292,130,16230,1,0,0:0:0:0:
248,155,16427,6,0,L|160:222,1,100
215,232,17019,1,0,0:0:0:0:
261,253,17216,2,0,L|171:320,1,100
142,345,17809,1,4,0:0:0:0:
256,192,18006,12,0,19585,0:0:0:0:
256,192,21164,5,4,0:0:0:0:
256,192,22743,1,4,0:0:0:0:
256,192,24322,6,0,L|370:192,1,100
356,91,25111,2,0,L|253:92,1,100
172,148,25901,1,0,0:0:0:0:
360,88,26690,5,8,0:0:0:0:
360,192,27085,1,8,0:0:0:0:
256,192,27480,5,4,0:0:0:0:
56,192,28269,1,8,0:0:0:0:
56,96,28664,1,8,0:0:0:0:
160,96,29059,5,4,0:0:0:0:
360,96,29848,1,6,0:0:0:0:
256,272,30637,1,4,0:0:0:0:
256,72,31427,5,4,0:0:0:0:
296,264,32216,6,0,L|296:120,1,100,8|2,0:0|0:0,0:0:0:0:
294,113,32809,1,0,0:0:0:0:
290,63,33006,2,0,L|180:26,1,100,8|2,0:0|0:0,0:0:0:0:
144,40,33598,1,0,0:0:0:0:
96,56,33795,5,8,0:0:0:0:
104,152,34190,1,8,0:0:0:0:
128,248,34585,1,2,0:0:0:0:
198,319,34980,1,2,0:0:0:0:
292,352,35374,6,0,L|292:252,1,100,8|2,0:0|0:0,0:0:0:0:
292,201,35966,1,0,0:0:0:0:
291,150,36164,2,0,L|292:15,1,100,8|2,0:0|0:0,0:0:0:0:
241,51,36756,1,0,0:0:0:0:
191,54,36953,5,8,0:0:0:0:
119,124,37348,1,8,0:0:0:0:
113,223,37743,1,4,0:0:0:0:
148,316,38137,1,4,0:0:0:0:
248,320,38532,6,0,L|354:239,1,100,2|0,0:0|0:0,0:0:0:0:
371,234,39124,1,0,0:0:0:0:
341,193,39322,2,0,L|261:110,1,100,2|0,0:0|0:0,0:0:0:0:
227,144,39914,1,0,0:0:0:0:
192,179,40111,5,2,0:0:0:0:
160,274,40506,1,0,0:0:0:0:
65,240,40901,1,0,0:0:0:0:
99,146,41295,1,0,0:0:0:0:
198,159,41690,6,0,L|260:272,2,100
134,236,42874,1,0,0:0:0:0:
152,282,43072,2,0,P|195:323|248:321,1,100
283,328,43664,1,8,0:0:0:0:
355,258,44059,6,0,L|358:202,2,50
308,240,44651,1,0,0:0:0:0:
269,208,44848,1,0,0:0:0:0:
256,192,45045,12,4,46427,0:0:0:0:
80,80,48006,6,0,L|200:136,1,100,2|8,0:3|0:0,0:0:0:0:
104,200,48795,2,0,L|224:264,1,100,2|8,0:0|0:0,0:0:0:0:
279,295,49585,1,2,0:3:0:0:
365,244,49980,1,8,0:0:0:0:
398,149,50374,1,2,0:3:0:0:
355,58,50769,1,8,0:0:0:0:
259,89,51164,6,0,L|139:177,1,100,2|8,0:3|0:0,0:0:0:0:
222,237,51953,2,0,L|122:313,1,100,4|8,0:0|0:0,0:0:0:0:
71,226,52743,1,2,0:3:0:0:
82,126,53137,1,8,0:0:0:0:
165,71,53532,1,2,0:3:0:0:
261,96,53927,1,8,0:0:0:0:
290,191,54322,6,0,L|289:314,2,100,2|8|2,0:0|0:0|0:0,0:0:0:0:
385,160,55506,1,4,0:0:0:0:
483,143,55901,2,0,L|482:1,2,100,2|8|2,0:0|0:0|0:0,0:0:0:0:
385,160,57085,1,4,0:0:0:0:
284,160,57480,6,0,L|283:259,1,100,2|8,0:0|0:0,0:0:0:0:
192,216,58269,1,8,0:0:0:0:
192,316,58664,1,8,0:0:0:0:
256,192,59059,12,2,60637,0:3:0:0:
81,137,61427,6,0,L|81:248,2,100,8|8|2,0:0|0:0|0:3,0:0:0:0:
165,82,62611,1,8,0:0:0:0:
264,87,63006,1,2,0:3:0:0:
351,135,63401,1,8,0:0:0:0:
392,225,63795,1,2,0:3:0:0:
388,325,64190,6,0,L|280:323,1,100,8|8,0:0|0:0,0:0:0:0:
298,223,64980,2,0,L|178:224,1,100,8|8,0:0|0:0,0:0:0:0:
152,134,65769,1,8,0:0:0:0:
93,215,66164,1,8,0:0:0:0:
73,313,66559,1,8,0:0:0:0:
172,315,66953,6,0,L|285:315,1,100,2|8,0:0|0:0,0:0:0:0:
372,316,67743,1,8,0:0:0:0:
471,315,68137,1,4,0:0:0:0:
466,215,68532,2,2,L|466:115,2,100,8|8|8,0:0|0:0|0:0,0:0:0:0:
366,223,69716,1,4,0:0:0:0:
256,192,70111,12,4,73269,0:0:0:0:
72,82,73664,6,0,L|73:199,1,100,2|8,0:0|0:0,0:0:0:0:
170,161,74453,2,0,L|171:261,1,100,2|8,0:0|0:0,0:0:0:0:
259,308,75243,1,8,0:0:0:0:
340,250,75637,1,4,0:0:0:0:
217,91,76427,6,0,L|136:91,2,75,8|8|8,0:0|0:0|0:0,0:0:0:0:
319,200,77611,1,4,0:0:0:0:
382,277,78006,2,8,L|468:278,2,75
134,312,79585,5,2,0:0:0:0:
135,211,79980,1,2,0:0:0:0:
136,111,80374,1,2,0:0:0:0:
132,11,80769,1,2,0:0:0:0:
217,63,81164,2,0,L|327:139,1,100,2|8,0:0|0:0,0:0:0:0:
248,205,81953,2,0,L|341:270,1,100,2|8,0:0|0:0,0:0:0:0:
417,212,82743,6,2,L|417:338,2,100
321,183,83927,1,0,0:0:0:0:
245,117,84322,2,0,L|145:11,1,100,2|8,0:0|0:0,0:0:0:0:
151,141,85111,2,0,L|54:40,1,100,2|8,0:0|0:0,0:0:0:0:
61,167,85901,2,2,L|61:266,2,100
160,174,87085,1,4,0:0:0:0:
256,192,87874,12,4,89453,0:0:0:0:
