osu file format v14

[General]
AudioFilename: audio.mp3
AudioLeadIn: 0
PreviewTime: 46822
Countdown: 0
SampleSet: Soft
StackLeniency: 0.7
Mode: 0
LetterboxInBreaks: 0
WidescreenStoryboard: 0

[Editor]
DistanceSpacing: 0.8
BeatDivisor: 4
GridSize: 8
TimelineZoom: 1

[Metadata]
Title:Bon Appetit S (TV Size ver.)
TitleUnicode:ぼなぺてぃーと♡S (TVサイズver)
Artist:Blend A
ArtistUnicode:ブレンド・A
Creator:Nekoraw
Version:Smiling Easy
Source:ブレンド・S
Tags:blend s tv size burendo idol sadistic imouto oneesan tsundere technical appétit y0c1e nekoraw zspixel pixel miyashiro -miyashiro- sakuranomiya maika kanzaki hideri hinata kaho dino hoshikawa mafuyu amano miu akizuki kouyou
BeatmapID:1437345
BeatmapSetID:679698

[Difficulty]
HPDrainRate:2
CircleSize:3
OverallDifficulty:2
ApproachRate:4
SliderMultiplier:1
SliderTickRate:1

[Events]
//Background and Video events
Video,0,"video.avi"
0,0,"smile.jpg",0,0
//Break Periods
//Storyboard Layer 0 (Background)
//Storyboard Layer 1 (Fail)
//Storyboard Layer 2 (Pass)
//Storyboard Layer 3 (Foreground)
//Storyboard Sound Samples

[TimingPoints]
638,394.736842105263,4,2,2,100,1,0
48006,-100,4,2,2,70,0,1
54519,-100,4,2,2,70,0,0
60637,-100,4,2,2,70,0,1
67151,-100,4,2,2,70,0,0
76427,-100,4,2,2,70,0,1
79585,-100,4,2,2,70,0,0
82545,-100,4,2,2,70,0,0
88466,-100,4,2,2,30,0,0
89453,-100,4,2,2,5,0,0

[Colours]
Combo1 : 177,123,127
Combo2 : 178,54,83
Combo3 : 104,79,99
Combo4 : 153,123,157

[HitObjects]
6,207,638,6,0,P|60:296|221:352,1,200
299,327,2216,2,0,P|368:254|366:147,1,200
253,49,3795,2,0,P|115:60|61:173,1,200
256,192,5374,12,0,6953,0:0:0:0:
259,53,7743,5,0,0:0:0:0:
179,61,8137,1,0,0:0:0:0:
107,97,8532,2,0,P|75:141|64:242,1,100
134,218,9322,2,0,P|131:272|164:359,1,100
220,328,10111,1,0,0:0:0:0:
349,233,10901,1,0,0:0:0:0:
440,101,11690,6,0,P|398:65|334:54,1,100
295,106,12480,2,0,P|245:72|188:81,1,100
139,114,13269,1,0,0:0:0:0:
276,195,14059,5,0,0:0:0:0:
116,185,14848,2,0,B|86:318|86:318|183:441,1,200
246,263,16427,2,0,L|326:383,1,100
365,297,17216,1,0,0:0:0:0:
394,222,17611,1,0,0:0:0:0:
256,192,18006,12,0,19585,0:0:0:0:
256,192,21164,5,0,0:0:0:0:
256,192,22743,1,0,0:0:0:0:
256,192,24322,1,0,0:0:0:0:
259,32,25111,2,0,L|374:32,2,100
145,331,27480,6,0,P|56:228|157:138,1,300
236,151,29059,2,0,P|296:248|260:333,1,200
383,209,30637,1,0,0:0:0:0:
383,48,31427,1,0,0:0:0:0:
224,67,32216,5,0,0:0:0:0:
306,204,33006,1,0,0:0:0:0:
157,262,33795,2,0,P|96:335|4:313,1,200
114,163,35374,5,0,0:0:0:0:
253,83,36164,1,0,0:0:0:0:
238,242,36953,1,0,0:0:0:0:
388,186,37743,2,0,P|440:220|448:319,1,100
376,266,38532,5,0,0:0:0:0:
216,277,39322,1,0,0:0:0:0:
157,128,40111,2,0,B|247:175|320:86|453:115,1,300
438,193,41690,6,0,L|438:361,2,100
361,215,42874,1,0,0:0:0:0:
292,256,43269,2,0,L|292:424,2,100
240,194,44453,1,0,0:0:0:0:
256,192,44848,12,0,46427,0:0:0:0:
417,72,48006,6,0,L|320:200,1,100,2|0,0:3|0:0,0:0:0:0:
355,231,48795,1,0,0:0:0:0:
299,288,49190,1,0,0:0:0:0:
219,297,49585,6,0,L|189:160,1,100,2|0,0:3|0:0,0:0:0:0:
119,214,50374,2,0,L|87:94,1,100,2|0,0:3|0:0,0:0:0:0:
137,50,51164,1,0,0:0:0:0:
294,77,51953,2,0,L|262:237,1,100
348,206,52743,6,0,L|325:344,2,100,2|0|2,0:3|0:0|0:3,0:0:0:0:
274,175,53927,1,0,0:0:0:0:
235,245,54322,2,0,P|117:294|59:149,1,300,0|2,0:0|3:0,0:0:0:0:
75,90,55901,6,0,P|208:52|274:174,1,300,0|2,0:0|3:0,0:0:0:0:
195,190,57480,2,0,L|111:297,2,100
251,246,58664,1,4,0:0:0:0:
256,192,59059,12,0,60637,0:0:0:0:
320,44,61427,5,0,0:0:0:0:
240,50,61822,1,0,0:0:0:0:
160,56,62216,2,0,L|104:168,1,100,2|0,0:3|0:0,0:0:0:0:
184,186,63006,2,0,L|240:66,1,100,2|0,0:3|0:0,0:0:0:0:
297,130,63795,1,0,0:0:0:0:
238,279,64585,1,0,0:0:0:0:
308,241,64980,1,0,0:0:0:0:
386,226,65374,6,0,L|378:381,2,100
403,147,66559,1,0,0:0:0:0:
327,121,66953,1,4,0:0:0:0:
264,171,67348,2,0,P|157:259|49:171,1,300
70,94,68927,6,0,P|163:41|257:89,1,200
304,128,70111,2,0,L|304:251,2,100
377,96,71295,1,0,0:0:0:0:
256,192,71690,12,0,73269,0:0:0:0:
136,152,74848,6,0,P|143:247|230:286,1,200
291,235,76032,1,8,0:0:0:0:
342,173,76427,2,0,L|433:171,2,75,8|8|8,0:0|0:0|0:0,0:0:0:0:
222,166,77611,1,2,0:0:0:0:
263,97,78006,6,0,L|357:96,2,75,8|8|8,0:0|0:0|0:0,0:0:0:0:
165,26,79190,1,2,0:0:0:0:
131,98,79585,2,0,P|46:208|137:312,1,300
216,313,81164,2,0,P|300:202|209:98,1,300
129,98,82743,6,0,L|128:255,2,100
210,96,83927,1,8,0:0:0:0:
291,95,84322,2,0,L|291:210,2,100
371,99,85506,1,8,0:0:0:0:
256,192,85901,12,0,89453,0:0:0:0:
