osu file format v14

[General]
AudioFilename: audio.mp3
AudioLeadIn: 0
PreviewTime: 46754
Countdown: 0
SampleSet: Soft
StackLeniency: 0.7
Mode: 0
LetterboxInBreaks: 0
WidescreenStoryboard: 0

[Editor]
DistanceSpacing: 1
BeatDivisor: 4
GridSize: 8
TimelineZoom: 2.799999

[Metadata]
Title:Bon Appetit S (TV Size ver)
TitleUnicode:ぼなぺてぃーと♡S (TVサイズver)
Artist:Blend A
ArtistUnicode:ブレンド・A
Creator:Karen
Version:Normal
Source:ブレンド・S
Tags:opening Blend S 和氣あず未 Azumi Waki 鬼頭明里 Akari Kito 春野杏 Anzu Haruno
BeatmapID:1436948
BeatmapSetID:678989

[Difficulty]
HPDrainRate:3
CircleSize:3.5
OverallDifficulty:4
ApproachRate:5
SliderMultiplier:1.79999990463257
SliderTickRate:1

[Events]
//Background and Video events
0,0,"bg.jpg",0,0
//Break Periods
//Storyboard Layer 0 (Background)
//Storyboard Layer 1 (Fail)
//Storyboard Layer 2 (Pass)
//Storyboard Layer 3 (Foreground)
//Storyboard Sound Samples

[TimingPoints]
669,394.736842105263,4,2,1,60,1,0
5405,-100,4,2,1,50,0,0
6984,-100,4,2,1,70,0,0
16458,-100,4,2,1,50,0,0
16606,-100,4,2,1,5,0,0
16655,-100,4,2,1,50,0,0
16803,-100,4,2,1,5,0,0
16853,-100,4,2,1,70,0,0
17247,-100,4,2,1,50,0,0
17395,-100,4,2,1,5,0,0
17445,-100,4,2,1,50,0,0
17593,-100,4,2,1,5,0,0
17642,-100,4,2,1,70,0,0
19616,-100,4,2,1,50,0,0
25438,-100,4,2,1,30,0,0
30668,-100,4,2,1,40,0,0
32247,-100,4,2,1,30,0,0
37774,-100,4,2,1,60,0,0
44879,-100,4,2,1,50,0,0
45668,-100,4,2,1,60,0,0
46458,-100,4,2,1,70,0,0
46853,-100,4,2,1,30,0,0
48037,-100,4,2,1,70,0,1
57511,-100,4,2,1,50,0,1
57659,-100,4,2,1,5,0,1
57708,-100,4,2,1,50,0,1
57856,-100,4,2,1,5,0,1
57905,-100,4,2,1,70,0,1
58300,-100,4,2,1,50,0,1
58448,-100,4,2,1,5,0,1
58497,-100,4,2,1,50,0,1
58645,-100,4,2,1,5,0,1
58695,-100,4,2,1,70,0,1
60175,-100,4,2,1,60,0,1
60668,-100,4,2,1,70,0,1
73300,-100,4,2,1,60,0,0
76458,-100,4,2,1,60,0,1
77247,-100,4,2,1,60,0,0
78037,-100,4,2,1,60,0,1
78826,-100,4,2,1,60,0,0

[Colours]
Combo1 : 128,128,255
Combo2 : 255,128,0
Combo3 : 255,128,128
Combo4 : 115,185,255

[HitObjects]
373,192,669,6,0,P|436:180|505:191,2,134.999992847443,2|2|2,1:0|1:0|1:0,0:0:0:0:
305,251,1458,2,0,P|290:317|314:404,2,134.999992847443,0|4|4,1:0|0:3|0:3,0:0:0:0:
270,168,2247,2,0,L|135:161,2,134.999992847443,2|2|2,1:0|1:0|1:0,0:0:0:0:
293,80,3037,2,0,L|428:87,2,134.999992847443,0|4|4,1:0|0:3|0:3,0:0:0:0:
222,24,3826,6,0,P|149:9|90:51,2,134.999992847443,2|2|2,1:0|1:0|1:0,0:0:0:0:
167,95,4616,2,0,L|152:244,2,134.999992847443,4|4|8,0:3|0:3|0:3,0:0:0:0:
251,126,5405,1,4,1:2:0:0:
251,126,6984,6,0,P|315:115|395:209,1,179.999990463257,4|0,1:2|1:0,0:0:0:0:
367,275,7576,1,8,0:0:0:0:
276,277,7774,2,0,L|116:248,2,134.999992847443,0|0|8,1:0|0:0|0:0,0:0:0:0:
320,355,8563,6,0,P|403:359|457:260,1,179.999990463257,0|0,1:0|1:0,0:0:0:0:
477,107,9353,2,0,P|426:36|339:39,1,179.999990463257,0|0,1:0|1:0,0:0:0:0:
224,177,10142,2,0,L|28:148,1,179.999990463257,4|0,1:2|1:0,0:0:0:0:
26,238,10734,1,8,0:0:0:0:
74,314,10932,2,0,P|133:337|200:312,2,134.999992847443,0|0|8,1:0|0:0|0:0,0:0:0:0:
136,249,11721,6,0,L|157:49,1,179.999990463257,2|2,1:0|1:0,0:0:0:0:
227,16,12313,1,8,0:0:0:0:
300,68,12511,2,0,L|318:247,1,179.999990463257,2|4,1:0|0:3,0:0:0:0:
456,362,13300,6,0,L|254:340,1,179.999990463257,4|0,1:2|1:2,0:0:0:0:
208,283,13892,1,8,0:0:0:0:
136,337,14090,2,0,P|53:342|3:290,2,134.999992847443,0|0|8,1:2|0:0|0:0,0:0:0:0:
89,256,14879,2,0,P|73:169|81:102,2,134.999992847443,0|0|8,1:0|0:0|0:0,0:0:0:0:
176,233,15668,2,0,L|375:210,1,179.999990463257,0|0,1:0|1:0,0:0:0:0:
391,295,16261,1,8,0:0:0:0:
474,261,16458,6,0,L|491:161,1,89.9999952316285,0|0,1:0|1:0,0:0:0:0:
422,113,16853,2,0,P|349:66|264:106,1,179.999990463257,2|0,1:0|1:0,0:0:0:0:
218,174,17445,1,0,1:0:0:0:
154,110,17642,2,0,L|175:302,1,179.999990463257,10|4,1:0|0:3,0:0:0:0:
224,363,18234,2,0,P|288:377|384:346,2,134.999992847443,10|10|2,1:0|1:0|1:0,0:0:0:0:
59,42,19616,5,12,0:0:0:0:
59,42,21195,5,12,0:0:0:0:
59,42,22774,5,4,0:0:0:0:
59,42,24353,5,12,0:0:0:0:
46,267,25142,2,0,P|120:240|226:298,1,179.999990463257,12|4,0:0|0:3,0:0:0:0:
235,363,25734,1,4,0:3:0:0:
322,342,25932,6,0,L|335:144,1,179.999990463257,4|4,0:3|0:3,0:0:0:0:
483,62,26721,2,0,L|471:241,1,179.999990463257,4|4,0:3|0:3,0:0:0:0:
290,242,27511,2,0,P|197:215|126:266,1,179.999990463257,4|4,0:3|0:3,0:0:0:0:
105,78,28300,2,0,P|198:105|269:54,1,179.999990463257,4|4,0:3|0:3,0:0:0:0:
403,176,29090,6,0,L|364:366,1,179.999990463257,4|4,0:3|0:3,0:0:0:0:
187,369,29879,2,0,L|150:192,1,179.999990463257,4|4,0:3|0:3,0:0:0:0:
237,34,30668,5,12,0:0:0:0:
237,34,31458,2,0,P|180:11|86:71,1,179.999990463257,4|8,1:2|0:0,0:0:0:0:
94,159,32050,1,4,0:3:0:0:
153,230,32247,6,0,L|332:210,1,179.999990463257,4|4,1:1|0:1,0:0:0:0:
313,353,33037,2,0,L|134:373,1,179.999990463257,0|4,1:0|0:1,0:0:0:0:
89,235,33826,2,0,L|74:23,1,179.999990463257,0|4,1:0|0:1,0:0:0:0:
210,2,34616,2,0,L|222:181,1,179.999990463257,0|4,1:0|0:1,0:0:0:0:
348,250,35405,6,0,P|415:240|474:131,1,179.999990463257,4|4,1:2|0:1,0:0:0:0:
428,14,36195,2,0,P|361:24|302:133,1,179.999990463257,0|4,1:0|0:1,0:0:0:0:
243,243,36984,2,0,P|176:233|117:124,1,179.999990463257,0|4,1:0|0:1,0:0:0:0:
205,30,37774,1,0,1:0:0:0:
344,65,38168,1,0,1:0:0:0:
387,204,38563,6,0,P|362:295|368:387,1,179.999990463257,4|0,1:2|1:0,0:0:0:0:
185,375,39353,2,0,P|188:285|164:199,1,179.999990463257,0|0,1:0|1:0,0:0:0:0:
98,137,39945,1,8,0:0:0:0:
182,106,40142,2,0,L|377:84,1,179.999990463257,0|0,1:0|1:0,0:0:0:0:
354,266,40932,2,0,L|159:244,1,179.999990463257,0|4,1:0|0:3,0:0:0:0:
86,230,41524,1,4,0:3:0:0:
151,163,41721,6,0,P|169:86|109:1,2,179.999990463257,4|4|4,1:2|1:2|1:2,0:0:0:0:
328,190,42905,1,4,0:3:0:0:
407,139,43103,2,0,P|338:98|246:143,1,179.999990463257,4|8,1:2|0:0,0:0:0:0:
239,223,43695,2,0,L|257:335,1,89.9999952316285,4|0,1:2|0:0,0:0:0:0:
319,373,44090,2,0,L|471:362,2,134.999992847443,4|4|8,0:3|0:3|0:3,0:0:0:0:
242,325,44879,6,0,B|171:314|89:322|22:370|22:370|-49:228|-2:23|165:27|118:245,1,719.999961853028,4|2,1:2|1:0,0:0:0:0:
400,351,48037,6,0,L|415:154,1,179.999990463257,4|0,1:2|1:0,0:0:0:0:
362,96,48629,1,8,0:0:0:0:
289,149,48826,2,0,P|226:178|148:182,2,134.999992847443,0|0|8,1:0|0:0|0:0,0:0:0:0:
270,60,49616,2,0,P|209:46|106:117,1,179.999990463257,0|0,1:0|1:0,0:0:0:0:
166,275,50405,2,0,P|227:289|330:218,1,179.999990463257,0|0,1:0|1:0,0:0:0:0:
426,83,51195,6,0,L|411:272,1,179.999990463257,0|0,1:0|1:0,0:0:0:0:
420,352,51787,1,8,0:0:0:0:
335,382,51984,2,0,L|180:371,2,134.999992847443,0|0|8,1:0|0:0|0:0,0:0:0:0:
323,292,52774,2,0,L|133:275,1,179.999990463257,2|2,1:0|1:0,0:0:0:0:
198,104,53563,2,0,L|377:120,1,179.999990463257,2|4,1:0|0:3,0:0:0:0:
509,243,54353,6,0,P|417:256|346:184,1,179.999990463257,4|0,1:2|1:2,0:0:0:0:
377,120,54945,1,8,0:0:0:0:
358,32,55142,2,0,L|178:15,1,179.999990463257,0|0,1:2|1:2,0:0:0:0:
22,106,55932,2,0,P|14:204|81:278,1,179.999990463257,0|0,1:0|1:0,0:0:0:0:
143,231,56524,1,8,0:0:0:0:
210,290,56721,2,0,L|409:257,1,179.999990463257,0|0,1:0|1:0,0:0:0:0:
479,104,57511,6,0,L|488:14,1,89.9999952316285,0|0,1:0|1:0,0:0:0:0:
404,46,57905,2,0,L|215:29,1,179.999990463257,2|0,1:0|1:0,0:0:0:0:
157,90,58497,1,0,1:0:0:0:
217,157,58695,2,0,L|207:246,1,89.9999952316285,2|0,1:0|0:0,0:0:0:0:
150,317,59090,6,0,P|87:347|6:302,2,134.999992847443,2|2|2,1:0|1:0|1:0,0:0:0:0:
84,260,59879,2,0,L|60:46,1,179.999990463257,2|4,1:0|0:3,0:0:0:0:
235,26,60668,6,0,P|314:48|355:139,1,179.999990463257,4|0,1:2|1:0,0:0:0:0:
334,219,61261,1,8,0:0:0:0:
249,188,61458,2,0,L|116:170,2,134.999992847443,0|0|8,1:0|0:0|0:0,0:0:0:0:
262,276,62247,2,0,P|328:311|414:261,1,179.999990463257,0|0,1:0|1:0,0:0:0:0:
314,111,63037,2,0,L|104:80,1,179.999990463257,0|0,1:0|1:0,0:0:0:0:
33,232,63826,6,0,P|25:299|123:360,1,179.999990463257,0|0,1:0|1:0,0:0:0:0:
116,270,64419,1,8,0:0:0:0:
183,210,64616,2,0,L|356:229,2,134.999992847443,0|0|8,1:0|0:0|0:0,0:0:0:0:
126,140,65405,2,0,P|139:66|54:9,1,179.999990463257,2|2,1:0|1:0,0:0:0:0:
46,188,66195,2,0,L|72:382,1,179.999990463257,2|2,1:0|1:0,0:0:0:0:
249,373,66984,6,0,P|306:349|426:375,1,179.999990463257,4|0,1:2|1:2,0:0:0:0:
462,290,67576,1,8,0:0:0:0:
393,231,67774,2,0,P|376:157|419:46,1,179.999990463257,8|0,0:0|1:2,0:0:0:0:
230,93,68563,2,0,L|43:75,1,179.999990463257,0|0,1:0|1:0,0:0:0:0:
14,158,69156,1,8,0:0:0:0:
54,238,69353,2,0,P|117:268|217:211,1,179.999990463257,0|0,1:0|1:0,0:0:0:0:
300,224,69945,1,8,0:0:0:0:
339,304,70142,6,0,L|359:89,2,179.999990463257,4|0|0,1:2|1:0|1:0,0:0:0:0:
253,331,71129,2,0,L|151:314,1,89.9999952316285
79,350,71524,2,0,P|48:280|96:184,1,179.999990463257,4|8,1:2|0:0,0:0:0:0:
176,207,72116,2,0,L|269:191,1,89.9999952316285,0|0,1:0|0:0,0:0:0:0:
335,136,72511,2,0,P|417:137|459:220,1,179.999990463257,0|4,1:0|0:3,0:0:0:0:
344,354,73300,6,0,L|151:340,1,179.999990463257,4|0,1:2|1:0,0:0:0:0:
91,287,73892,1,8,0:0:0:0:
26,349,74090,2,0,P|0:276|83:197,1,179.999990463257,0|0,1:0|1:0,0:0:0:0:
235,166,74879,2,0,L|218:26,2,134.999992847443,0|0|8,1:0|0:0|0:0,0:0:0:0:
296,231,75668,1,0,1:0:0:0:
357,164,75866,2,0,P|403:151|463:167,2,89.9999952316285,8|0|4,0:0|1:0|0:3,0:0:0:0:
404,241,76458,6,0,L|398:378,2,134.999992847443,2|2|2,1:0|1:0|1:0,0:0:0:0:
279,111,77445,2,0,L|263:11,2,89.9999952316285,8|0|8,0:0|1:0|0:0,0:0:0:0:
246,195,78037,2,0,P|181:233|108:209,2,134.999992847443,2|2|2,1:0|1:0|1:0,0:0:0:0:
350,48,79024,2,0,L|445:68,2,89.9999952316285,8|0|8,0:0|1:0|0:0,0:0:0:0:
266,14,79616,6,0,L|80:30,1,179.999990463257,0|0,1:0|1:0,0:0:0:0:
26,96,80208,1,8,0:0:0:0:
49,182,80405,2,0,P|109:229|217:188,1,179.999990463257,0|0,1:0|1:0,0:0:0:0:
346,95,81195,2,0,P|323:183|347:282,1,179.999990463257,0|0,1:0|1:0,0:0:0:0:
402,334,81787,1,8,0:0:0:0:
325,380,81984,2,0,L|135:368,1,179.999990463257,0|4,1:0|0:3,0:0:0:0:
43,219,82774,6,0,P|113:219|209:291,1,179.999990463257,4|2,1:2|1:0,0:0:0:0:
344,169,83563,2,0,P|413:114|502:108,1,179.999990463257,4|2,1:2|1:0,0:0:0:0:
416,267,84353,2,0,L|201:245,1,179.999990463257,4|4,1:2|0:3,0:0:0:0:
203,164,84945,2,0,P|192:117|196:66,2,89.9999952316285,4|8|8,0:3|0:3|0:3,0:0:0:0:
280,117,85537,1,8,0:3:0:0:
452,64,85932,6,0,L|439:258,1,179.999990463257,4|2,1:2|1:0,0:0:0:0:
323,380,86721,2,0,L|310:200,1,179.999990463257,4|2,1:2|1:0,0:0:0:0:
241,33,87511,1,8,0:0:0:0:
186,104,87708,2,0,P|127:129|35:99,2,134.999992847443,2|2|2,1:0|1:0|1:0,0:0:0:0:
