osu file format v14

[General]
AudioFilename: audio.mp3
AudioLeadIn: 0
PreviewTime: 46754
Countdown: 0
SampleSet: Soft
StackLeniency: 0.7
Mode: 0
LetterboxInBreaks: 0
WidescreenStoryboard: 0

[Editor]
DistanceSpacing: 0.9
BeatDivisor: 4
GridSize: 8
TimelineZoom: 2.799999

[Metadata]
Title:Bon Appetit S (TV Size ver)
TitleUnicode:ぼなぺてぃーと♡S (TVサイズver)
Artist:Blend A
ArtistUnicode:ブレンド・A
Creator:Karen
Version:Hard
Source:ブレンド・S
Tags:opening Blend S 和氣あず未 Azumi Waki 鬼頭明里 Akari Kito 春野杏 Anzu Haruno
BeatmapID:1436946
BeatmapSetID:678989

[Difficulty]
HPDrainRate:5
CircleSize:4
OverallDifficulty:6
ApproachRate:7.5
SliderMultiplier:2.59999990463257
SliderTickRate:1

[Events]
//Background and Video events
0,0,"bg.jpg",0,0
//Break Periods
//Storyboard Layer 0 (Background)
//Storyboard Layer 1 (Fail)
//Storyboard Layer 2 (Pass)
//Storyboard Layer 3 (Foreground)
//Storyboard Sound Samples

[TimingPoints]
669,394.736842105263,4,2,1,60,1,0
669,-133.333333333333,4,2,1,60,0,0
5405,-133.333333333333,4,2,1,50,0,0
6984,-100,4,2,1,70,0,0
16458,-100,4,2,1,50,0,0
16606,-100,4,2,1,5,0,0
16655,-100,4,2,1,50,0,0
16803,-100,4,2,1,5,0,0
16853,-100,4,2,1,70,0,0
17247,-100,4,2,1,50,0,0
17395,-100,4,2,1,5,0,0
17445,-100,4,2,1,50,0,0
17593,-100,4,2,1,5,0,0
17642,-100,4,2,1,70,0,0
19024,-100,4,2,1,60,0,0
19122,-100,4,2,1,50,0,0
19221,-100,4,2,1,40,0,0
19270,-100,4,2,1,30,0,0
19320,-100,4,2,1,20,0,0
19369,-100,4,2,1,10,0,0
19418,-100,4,2,1,5,0,0
19616,-133.333333333333,4,2,1,50,0,0
25438,-133.333333333333,4,2,1,30,0,0
30668,-133.333333333333,4,2,1,40,0,0
32247,-133.333333333333,4,2,1,40,0,0
37774,-133.333333333333,4,2,1,60,0,0
38563,-133.333333333333,4,2,1,60,0,0
44879,-133.333333333333,4,2,1,50,0,0
45668,-133.333333333333,4,2,1,60,0,0
46458,-133.333333333333,4,2,1,70,0,0
46853,-133.333333333333,4,2,1,30,0,0
48037,-100,4,2,1,70,0,1
57511,-100,4,2,1,50,0,1
57659,-100,4,2,1,5,0,1
57708,-100,4,2,1,50,0,1
57856,-100,4,2,1,5,0,1
57905,-100,4,2,1,70,0,1
58300,-100,4,2,1,50,0,1
58448,-100,4,2,1,5,0,1
58497,-100,4,2,1,50,0,1
58645,-100,4,2,1,5,0,1
58695,-100,4,2,1,70,0,1
60175,-100,4,2,1,60,0,1
60668,-100,4,2,1,70,0,1
73300,-100,4,2,1,60,0,0
76458,-100,4,2,1,60,0,1
77247,-100,4,2,1,60,0,0
78037,-100,4,2,1,60,0,1
78826,-100,4,2,1,60,0,0

[Colours]
Combo1 : 128,128,255
Combo2 : 255,128,0
Combo3 : 255,128,128
Combo4 : 115,185,255

[HitObjects]
118,114,669,6,0,P|181:115|250:181,2,146.250000214577,2|2|2,1:0|1:0|1:0,0:0:0:0:
57,177,1458,1,0,1:0:0:0:
57,177,1557,1,4,0:3:0:0:
57,177,1655,1,4,0:3:0:0:
108,248,1853,2,0,P|117:287|117:357,1,97.5000001430512,8|4,0:0|0:3,0:0:0:0:
232,309,2247,6,0,L|396:278,2,146.250000214577,2|2|2,1:0|1:0|1:0,0:0:0:0:
199,227,3037,1,0,1:0:0:0:
199,227,3136,1,4,0:3:0:0:
199,227,3234,1,4,0:3:0:0:
247,153,3432,2,0,L|357:169,1,97.5000001430512,8|4,0:0|0:3,0:0:0:0:
477,231,3826,6,0,P|470:303|456:396,2,146.250000214577,2|2|2,1:0|1:0|1:0,0:0:0:0:
434,153,4616,1,4,0:3:0:0:
434,153,4715,1,4,0:3:0:0:
434,153,4813,1,4,0:3:0:0:
443,65,5011,1,8,0:3:0:0:
374,10,5208,1,8,0:3:0:0:
248,87,5405,5,4,1:2:0:0:
248,87,6392,2,0,L|197:105,1,48.7500000715256,2|2,0:3|0:3,0:0:0:0:
177,104,6590,2,0,L|116:91,1,48.7500000715256,2|2,0:3|0:3,0:0:0:0:
104,94,6787,2,0,L|53:112,1,48.7500000715256,2|0,0:3|0:0,0:0:0:0:
30,147,6984,6,0,P|16:221|32:280,1,129.999995231628,4|8,1:2|0:0,0:0:0:0:
114,304,7379,2,0,L|268:289,1,129.999995231628,0|8,1:0|0:0,0:0:0:0:
269,204,7774,2,0,P|340:239|371:296,1,129.999995231629,0|8,1:0|0:0,0:0:0:0:
359,298,8070,2,0,L|501:331,1,129.999995231629,0|0,0:0|0:0,0:0:0:0:
495,310,8366,1,8,0:0:0:0:
512,158,8563,6,0,L|370:132,1,129.999995231629,0|8,1:0|0:0,0:0:0:0:
395,17,8958,2,0,L|267:40,1,129.999995231629,0|8,1:0|0:0,0:0:0:0:
164,97,9353,2,0,P|152:163|162:238,1,129.999995231629,0|8,1:0|0:0,0:0:0:0:
274,240,9747,2,0,P|285:303|279:368,1,129.999995231629,0|8,1:0|0:0,0:0:0:0:
142,382,10142,6,0,L|-5:369,1,129.999995231629,4|8,1:2|0:0,0:0:0:0:
5,352,10438,2,0,P|0:315|6:278,1,64.9999976158143,0|0,0:0|1:0,0:0:0:0:
50,193,10734,1,8,0:0:0:0:
50,193,10833,1,8,0:0:0:0:
50,193,10932,2,0,P|105:188|178:224,1,129.999995231629,0|8,0:0|0:0,0:0:0:0:
182,234,11228,2,0,L|158:93,1,129.999995231629
143,96,11524,1,8,0:0:0:0:
206,19,11721,6,0,P|283:21|323:75,1,129.999995231629,2|8,1:0|0:0,0:0:0:0:
498,81,12116,2,0,P|421:83|381:137,1,129.999995231629,2|8,1:0|0:0,0:0:0:0:
256,231,12511,2,0,P|250:150|235:96,1,129.999995231629,2|8,1:0|0:0,0:0:0:0:
463,164,12905,2,0,P|447:227|444:291,1,129.999995231629,4|4,0:3|0:3,0:0:0:0:
289,373,13300,6,0,L|144:358,2,129.999995231629,4|8|0,1:2|0:0|1:2,0:0:0:0:
337,291,13892,1,8,0:0:0:0:
337,291,13991,1,0,0:0:0:0:
337,291,14090,2,0,P|296:230|229:213,1,129.999995231629,0|8,1:2|0:0,0:0:0:0:
230,225,14386,2,0,P|163:252|92:246,1,129.999995231629
92,236,14682,1,8,0:0:0:0:
157,157,14879,6,0,L|145:371,2,194.999992847443,0|0|8,1:0|0:0|0:0,0:0:0:0:
198,76,15668,1,0,1:0:0:0:
289,120,15866,1,4,0:3:0:0:
289,120,15965,1,4,0:3:0:0:
289,120,16063,2,0,L|425:102,1,129.999995231629,0|8,1:0|0:0,0:0:0:0:
479,170,16458,5,0,1:0:0:0:
479,170,16655,1,0,1:0:0:0:
418,300,16853,2,0,L|282:282,1,129.999995231629,2|0,1:0|0:0,0:0:0:0:
206,245,17247,1,0,1:0:0:0:
206,245,17444,1,0,1:0:0:0:
289,120,17642,2,0,L|417:102,1,129.999995231629,10|0,1:0|0:0,0:0:0:0:
194,20,18234,6,0,P|126:14|72:66,1,129.999995231629,10|8,1:0|0:0,0:0:0:0:
85,69,18530,2,0,P|107:142|102:206,1,129.999995231629,10|8,1:0|0:0,0:0:0:0:
95,212,18826,2,2,P|57:283|175:211,1,389.999985694885,2|0,1:0|0:0,1:0:0:0:
254,61,19616,5,12,0:0:0:0:
254,61,21195,5,12,0:0:0:0:
254,61,22774,5,4,0:0:0:0:
254,61,24353,5,12,0:0:0:0:
285,144,25142,2,0,P|290:194|289:266,1,97.5000001430512,12|0,0:0|0:0,0:0:0:0:
284,254,25438,1,4,0:3:0:0:
276,266,25537,2,0,L|175:258,1,97.5000001430512,4|4,0:3|0:3,0:0:0:0:
109,154,25932,5,4,0:3:0:0:
37,204,26129,1,4,0:3:0:0:
37,204,26228,1,4,0:3:0:0:
37,204,26326,2,0,L|43:271,2,48.7500000715256,4|4|4,0:3|0:3|0:3,0:0:0:0:
7,121,26721,2,0,P|5:65|26:24,1,97.5000001430512,4|4,0:3|0:3,0:0:0:0:
106,53,27116,2,0,L|220:44,1,97.5000001430512,4|4,0:3|0:3,0:0:0:0:
285,15,27511,5,4,0:3:0:0:
368,53,27708,1,4,0:3:0:0:
368,53,27807,1,4,0:3:0:0:
368,53,27905,1,4,0:3:0:0:
340,143,28103,1,4,0:3:0:0:
340,143,28201,1,4,0:3:0:0:
340,143,28300,2,0,L|353:242,1,97.5000001430512,4|4,0:3|0:3,0:0:0:0:
439,222,28695,2,0,L|428:339,1,97.5000001430512,4|4,0:3|0:3,0:0:0:0:
354,364,29090,5,4,0:3:0:0:
279,318,29287,1,4,0:3:0:0:
279,318,29386,1,4,0:3:0:0:
279,318,29484,2,0,L|217:337,2,48.7500000715256,4|4|4,0:3|0:3|0:3,0:0:0:0:
323,241,29879,2,0,P|336:183|337:109,1,97.5000001430512,4|4,0:3|0:3,0:0:0:0:
275,83,30274,2,0,L|165:67,1,97.5000001430512,4|4,0:3|0:3,0:0:0:0:
112,126,30668,5,12,0:0:0:0:
112,126,31458,2,0,P|138:195|138:226,1,97.5000001430512,4|0,1:2|0:0,0:0:0:0:
132,231,31754,1,4,0:3:0:0:
121,241,31853,1,8,0:0:0:0:
112,328,32050,1,4,0:3:0:0:
112,328,32149,1,4,0:3:0:0:
112,328,32247,6,0,L|312:307,1,195.000000286102,4|4,1:1|0:1,0:0:0:0:
443,239,33037,2,0,L|243:218,1,195.000000286102,0|4,1:0|0:1,0:0:0:0:
207,140,33629,1,0,0:0:0:0:
207,140,33826,6,0,P|197:91|202:35,1,97.5000001430512,0|0,1:0|0:0,0:0:0:0:
288,46,34221,2,0,P|297:93|294:142,1,97.5000001430512,4|0,0:1|0:0,0:0:0:0:
248,218,34616,2,0,P|230:308|339:390,1,195.000000286102,0|4,1:0|0:1,0:0:0:0:
512,325,35405,6,0,L|319:288,1,195.000000286102,4|4,1:2|0:1,0:0:0:0:
206,220,36195,2,0,L|399:183,1,195.000000286102,0|4,1:0|0:1,0:0:0:0:
455,116,36787,1,0,0:0:0:0:
455,116,36984,2,0,P|460:51|446:17,1,97.5000001430512,0|0,1:0|0:0,0:0:0:0:
378,74,37379,2,0,L|258:85,1,97.5000001430512,4|0,0:1|0:0,0:0:0:0:
170,20,37774,1,0,1:0:0:0:
170,20,38168,1,0,1:0:0:0:
170,20,38563,6,0,P|155:66|150:124,1,97.5000001430512,4|8,1:2|0:0,0:0:0:0:
202,185,38958,2,0,P|217:231|222:289,1,97.5000001430512,0|8,1:0|0:0,0:0:0:0:
155,336,39353,2,0,L|40:330,1,97.5000001430512,0|8,1:0|0:0,0:0:0:0:
35,246,39747,2,0,L|132:251,1,97.5000001430512,0|8,1:0|0:0,0:0:0:0:
263,317,40142,5,0,1:0:0:0:
263,317,40340,1,8,0:0:0:0:
345,286,40537,1,0,1:0:0:0:
345,286,40734,1,8,0:0:0:0:
420,331,40932,2,0,P|431:271|416:229,1,97.5000001430512,0|8,1:0|0:0,0:0:0:0:
355,178,41326,2,0,L|301:155,3,48.7500000715256,4|4|4|4,0:3|0:3|0:3|0:3,0:0:0:0:
289,120,41721,5,4,1:2:0:0:
289,120,42116,1,4,1:2:0:0:
289,120,42511,2,0,L|286:13,2,97.5000001430512,4|4|4,1:2|0:3|0:3,0:0:0:0:
237,191,43103,6,0,P|173:206|128:82,1,195.000000286102,4|8,1:2|0:0,0:0:0:0:
167,38,43695,2,0,P|115:28|63:43,1,97.5000001430512,4|0,1:2|0:0,0:0:0:0:
28,114,44090,1,4,0:3:0:0:
41,205,44287,1,4,0:3:0:0:
41,205,44386,1,4,0:3:0:0:
41,205,44484,1,8,0:3:0:0:
17,289,44682,1,8,0:3:0:0:
65,362,44879,6,0,L|177:349,1,97.5000001430512,4|8,1:2|0:0,0:0:0:0:
239,308,45274,2,0,L|296:320,2,48.7500000715256,4|4|4,0:3|0:3|0:3,0:0:0:0:
184,239,45668,2,0,P|188:177|209:86,2,146.250000214577,2|2|2,1:0|1:0|1:0,0:0:0:0:
296,193,46458,5,2,1:0:0:0:
296,193,48037,6,0,P|350:178|431:184,2,129.999995231629,4|8|0,1:2|0:0|1:0,0:0:0:0:
227,252,48629,1,8,0:0:0:0:
227,252,48728,1,8,0:0:0:0:
227,252,48826,2,0,P|235:320|226:389,1,129.999995231629,0|8,1:0|0:0,0:0:0:0:
208,378,49122,2,0,P|142:360|68:355,1,129.999995231629,0|0,0:0|0:0,0:0:0:0:
62,361,49418,1,8,0:0:0:0:
30,275,49616,6,0,P|22:194|47:138,1,129.999995231629,0|8,1:0|0:0,0:0:0:0:
114,99,50011,2,0,P|194:91|251:116,1,129.999995231629,0|8,1:0|0:0,0:0:0:0:
284,186,50405,2,0,P|292:267|267:323,1,129.999995231629,0|8,1:0|0:0,0:0:0:0:
200,362,50800,2,0,P|119:370|63:345,1,129.999995231629,0|8,1:0|0:0,0:0:0:0:
145,245,51195,6,0,L|131:108,1,129.999995231629,0|8,1:0|0:0,0:0:0:0:
176,35,51590,1,0,1:0:0:0:
250,100,51787,1,8,0:0:0:0:
250,100,51886,1,8,0:0:0:0:
250,100,51984,2,0,L|393:69,1,129.999995231629,0|8,1:0|0:0,0:0:0:0:
393,83,52280,2,0,P|419:164|406:224,1,129.999995231629,0|0,0:0|0:0,0:0:0:0:
396,218,52576,1,8,0:0:0:0:
294,187,52774,6,0,L|306:326,1,129.999995231629,2|8,1:0|0:0,0:0:0:0:
217,341,53168,2,0,L|205:211,1,129.999995231629,2|8,1:0|0:0,0:0:0:0:
116,195,53563,2,0,L|128:334,1,129.999995231629,2|8,1:0|0:0,0:0:0:0:
39,349,53957,2,0,L|27:219,1,129.999995231629,4|4,0:3|0:3,0:0:0:0:
52,130,54353,5,4,1:2:0:0:
13,47,54550,1,8,0:0:0:0:
13,47,54747,2,0,L|152:29,1,129.999995231629,0|8,1:2|0:0,0:0:0:0:
204,96,55142,1,0,1:2:0:0:
204,96,55340,1,8,0:0:0:0:
294,84,55537,1,0,1:2:0:0:
294,84,55734,1,8,0:0:0:0:
353,14,55932,6,0,P|431:38|469:102,1,129.999995231629,0|8,1:0|0:0,0:0:0:0:
413,152,56326,2,0,P|393:236|409:304,1,129.999995231629,0|8,1:0|0:0,0:0:0:0:
424,366,56721,1,0,1:0:0:0:
424,366,56918,1,8,0:0:0:0:
332,372,57116,1,0,1:0:0:0:
332,372,57313,1,8,0:0:0:0:
265,275,57511,5,0,1:0:0:0:
265,275,57708,1,0,1:0:0:0:
169,370,57905,2,0,L|25:353,1,129.999995231629,2|0,1:0|0:0,0:0:0:0:
16,266,58300,1,0,1:0:0:0:
16,266,58497,1,0,1:0:0:0:
125,170,58694,2,0,L|269:153,1,129.999995231629,2|0,1:0|0:0,0:0:0:0:
339,71,59090,6,0,P|287:32|224:16,1,129.999995231629,2|0,1:0|0:0,0:0:0:0:
207,26,59386,2,0,P|162:51|72:69,1,129.999995231629,2|0,1:0|0:0,0:0:0:0:
67,61,59682,1,2,1:0:0:0:
177,135,59879,2,0,L|157:284,1,129.999995231629,2|0,1:0|0:0,0:0:0:0:
195,347,60274,2,0,P|217:352|270:354,3,64.9999976158143,4|4|4|4,0:3|0:3|0:3|0:3,0:0:0:0:
295,327,60668,6,0,P|369:320|435:342,1,129.999995231629,4|8,1:2|0:0,0:0:0:0:
454,249,61063,1,0,1:0:0:0:
374,212,61261,1,8,0:0:0:0:
374,212,61359,1,8,0:0:0:0:
374,212,61458,6,0,P|300:219|234:197,1,129.999995231629,0|8,1:0|0:0,0:0:0:0:
235,188,61754,2,0,P|212:109|223:43,1,129.999995231629,0|0,0:0|0:0,0:0:0:0:
228,46,62050,1,8,0:0:0:0:
144,9,62247,6,0,L|1:33,1,129.999995231629,0|8,1:0|0:0,0:0:0:0:
11,121,62642,2,0,L|154:145,1,129.999995231629,0|8,1:0|0:0,0:0:0:0:
133,233,63037,2,0,L|-10:257,1,129.999995231629,0|8,1:0|0:0,0:0:0:0:
0,345,63432,2,0,L|143:369,1,129.999995231629,0|8,1:0|0:0,0:0:0:0:
213,287,63826,6,0,P|221:215|203:146,2,129.999995231629,0|8|0,1:0|0:0|1:0,0:0:0:0:
259,373,64419,1,8,0:0:0:0:
259,373,64518,1,8,0:0:0:0:
259,373,64616,2,0,L|402:342,1,129.999995231629,0|8,1:0|0:0,0:0:0:0:
399,331,64912,2,0,P|398:262|427:205,1,129.999995231629,4|4,0:3|0:3,0:0:0:0:
442,201,65208,1,8,0:0:0:0:
504,92,65405,6,0,L|369:71,1,129.999995231629,2|0,1:0|0:0,0:0:0:0:
341,156,65800,2,0,L|206:135,1,129.999995231629,2|0,1:0|0:0,0:0:0:0:
130,96,66195,2,0,L|146:247,1,129.999995231629,2|0,1:0|0:0,0:0:0:0:
56,252,66590,2,0,L|72:403,1,129.999995231629,2|0,1:0|0:0,0:0:0:0:
156,352,66985,5,4,1:2:0:0:
243,377,67182,1,8,0:0:0:0:
328,346,67379,1,0,1:2:0:0:
424,371,67576,1,8,0:0:0:0:
424,371,67675,1,8,0:0:0:0:
424,371,67774,2,0,P|443:304|436:236,1,129.999995231629,8|8,0:0|0:0,0:0:0:0:
380,174,68168,2,0,P|323:197|244:195,1,129.999995231629,0|8,1:2|0:0,0:0:0:0:
179,145,68563,6,0,L|157:4,2,129.999995231629,0|8|0,1:0|0:0|1:0,0:0:0:0:
124,218,69155,1,8,0:0:0:0:
124,218,69254,1,8,0:0:0:0:
124,218,69353,2,0,P|109:275|126:353,1,129.999995231629,0|8,1:0|0:0,0:0:0:0:
209,365,69747,2,0,P|287:350|359:366,1,129.999995231629,0|8,1:0|0:0,0:0:0:0:
465,311,70142,6,0,L|457:166,1,129.999995231629,4|0,1:2|0:0,0:0:0:0:
358,34,70537,2,0,L|365:163,1,129.999995231629,0|0,1:0|0:0,0:0:0:0:
279,248,70932,2,0,P|190:230|77:253,1,194.999992847443,0|0,1:0|0:0,0:0:0:0:
74,261,71326,1,0,1:0:0:0:
170,330,71524,6,0,P|187:194|183:58,1,259.999990463257,4|8,1:2|0:0,0:0:0:0:
256,15,72116,2,0,P|328:15|397:126,1,194.999992847443,0|0,1:0|0:0,0:0:0:0:
388,124,72511,1,0,1:0:0:0:
388,124,72708,1,4,0:3:0:0:
388,214,72905,1,4,0:3:0:0:
388,214,73103,1,4,0:3:0:0:
413,301,73300,6,0,P|345:317|268:306,1,129.999995231629,4|8,1:2|0:0,0:0:0:0:
235,237,73695,2,0,P|170:231|107:247,1,129.999995231629,0|8,1:0|0:0,0:0:0:0:
57,171,74090,2,0,P|62:104|54:30,1,129.999995231629,0|8,1:0|0:0,0:0:0:0:
146,34,74484,2,0,P|140:98|145:163,1,129.999995231629,0|8,1:0|0:0,0:0:0:0:
236,154,74879,6,0,L|443:136,2,194.999992847443,0|0|8,1:0|0:0|0:0,0:0:0:0:
207,240,75668,1,0,1:0:0:0:
219,330,75866,1,8,0:0:0:0:
302,365,76063,1,0,1:0:0:0:
384,325,76261,1,4,0:3:0:0:
384,325,76359,1,4,0:3:0:0:
384,325,76458,6,0,P|397:253|395:154,1,129.999995231629,2|8,1:0|0:0,0:0:0:0:
380,190,76754,2,0,P|367:118|369:19,1,129.999995231629,2|8,1:0|0:0,0:0:0:0:
375,44,77050,1,2,1:0:0:0:
121,14,77445,1,8,0:0:0:0:
34,40,77642,1,0,1:0:0:0:
36,131,77840,1,8,0:0:0:0:
102,193,78037,6,0,P|177:199|247:165,1,129.999995231629,2|8,1:0|0:0,0:0:0:0:
240,165,78333,2,0,P|315:159|385:193,1,129.999995231629,2|8,1:0|0:0,0:0:0:0:
379,191,78629,1,2,1:0:0:0:
320,368,79024,1,8,0:0:0:0:
239,326,79221,1,0,1:0:0:0:
152,353,79418,1,8,0:0:0:0:
69,314,79616,6,0,L|55:179,1,129.999995231629,0|8,1:0|0:0,0:0:0:0:
132,135,80011,2,0,L|145:264,1,129.999995231629,0|8,1:0|0:0,0:0:0:0:
235,276,80405,2,0,L|221:141,1,129.999995231629,0|8,1:0|0:0,0:0:0:0:
298,97,80800,2,0,L|311:226,1,129.999995231629,0|8,1:0|0:0,0:0:0:0:
381,284,81195,6,0,P|454:269|490:156,2,194.999992847443,0|0|8,1:0|0:0|0:0,0:0:0:0:
305,334,81984,1,0,1:0:0:0:
223,292,82182,1,4,0:3:0:0:
223,292,82280,1,4,0:3:0:0:
223,292,82379,2,0,L|137:265,3,64.9999976158143,4|4|4|4,0:3|0:3|0:3|0:3,0:0:0:0:
119,292,82774,5,4,1:2:0:0:
21,152,83168,1,2,1:0:0:0:
68,74,83366,1,4,0:3:0:0:
68,74,83465,1,4,0:3:0:0:
68,74,83563,1,4,1:2:0:0:
229,184,83958,1,2,1:0:0:0:
214,94,84155,1,4,0:3:0:0:
214,94,84254,1,4,0:3:0:0:
214,94,84353,5,4,1:2:0:0:
265,19,84550,2,0,L|339:31,4,64.9999976158143,4|4|4|4|4,0:3|0:3|0:3|0:3|0:3,0:0:0:0:
298,103,85142,2,0,L|435:127,2,129.999995231629,8|8|8,0:3|0:3|0:3,0:0:0:0:
245,177,85734,1,4,0:3:0:0:
245,177,85833,1,4,0:3:0:0:
245,177,85932,5,4,1:2:0:0:
261,346,86326,1,2,1:0:0:0:
353,198,86721,1,4,1:2:0:0:
369,367,87115,1,2,1:0:0:0:
466,217,87511,5,8,0:0:0:0:
492,303,87708,2,0,L|346:277,1,129.999995231629,2|0,1:0|0:0,0:0:0:0:
344,275,88004,2,0,L|198:249,1,129.999995231629,2|0,1:0|0:0,0:0:0:0:
196,248,88300,2,0,B|41:220|41:220|176:180,1,259.999990463257,2|0,1:0|0:0,0:0:0:0:
