osu file format v14

[General]
AudioFilename: audio.mp3
AudioLeadIn: 0
PreviewTime: 46754
Countdown: 0
SampleSet: Soft
StackLeniency: 0.7
Mode: 0
LetterboxInBreaks: 0
WidescreenStoryboard: 0

[Editor]
DistanceSpacing: 0.7
BeatDivisor: 4
GridSize: 8
TimelineZoom: 2.799999

[Metadata]
Title:Bon Appetit S (TV Size ver)
TitleUnicode:ぼなぺてぃーと♡S (TVサイズver)
Artist:Blend A
ArtistUnicode:ブレンド・A
Creator:Karen
Version:Easy
Source:ブレンド・S
Tags:opening Blend S 和氣あず未 Azumi Waki 鬼頭明里 Akari Kito 春野杏 Anzu Haruno
BeatmapID:1436945
BeatmapSetID:678989

[Difficulty]
HPDrainRate:2
CircleSize:3
OverallDifficulty:2
ApproachRate:3
SliderMultiplier:1.39999990463257
SliderTickRate:1

[Events]
//Background and Video events
0,0,"bg.jpg",0,0
//Break Periods
//Storyboard Layer 0 (Background)
//Storyboard Layer 1 (Fail)
//Storyboard Layer 2 (Pass)
//Storyboard Layer 3 (Foreground)
//Storyboard Sound Samples

[TimingPoints]
669,394.736842105263,4,2,1,60,1,0
5405,-100,4,2,1,50,0,0
6984,-100,4,2,1,70,0,0
16458,-100,4,2,1,50,0,0
16606,-100,4,2,1,5,0,0
16655,-100,4,2,1,50,0,0
16803,-100,4,2,1,5,0,0
16853,-100,4,2,1,70,0,0
17247,-100,4,2,1,50,0,0
17395,-100,4,2,1,5,0,0
17445,-100,4,2,1,50,0,0
17593,-100,4,2,1,5,0,0
17642,-100,4,2,1,70,0,0
19616,-100,4,2,1,50,0,0
25438,-100,4,2,1,30,0,0
30668,-100,4,2,1,40,0,0
32247,-100,4,2,1,30,0,0
37774,-100,4,2,1,60,0,0
44879,-100,4,2,1,50,0,0
45668,-100,4,2,1,60,0,0
46458,-100,4,2,1,70,0,0
46853,-100,4,2,1,30,0,0
48037,-100,4,2,1,70,0,1
57511,-100,4,2,1,50,0,1
57659,-100,4,2,1,5,0,1
57708,-100,4,2,1,50,0,1
57856,-100,4,2,1,5,0,1
57905,-100,4,2,1,70,0,1
58300,-100,4,2,1,50,0,1
58448,-100,4,2,1,5,0,1
58497,-100,4,2,1,50,0,1
58645,-100,4,2,1,5,0,1
58695,-100,4,2,1,70,0,1
60175,-100,4,2,1,60,0,1
60668,-100,4,2,1,70,0,1
73300,-100,4,2,1,60,0,0
76458,-100,4,2,1,60,0,1
77247,-100,4,2,1,60,0,0
78037,-100,4,2,1,60,0,1
78826,-100,4,2,1,60,0,0

[Colours]
Combo1 : 128,128,255
Combo2 : 255,128,0
Combo3 : 255,128,128
Combo4 : 115,185,255

[HitObjects]
68,90,669,6,0,P|188:139|121:242,1,279.999980926514,2|0,1:0|1:0,0:0:0:0:
89,329,1853,1,8,0:0:0:0:
168,378,2247,2,0,L|459:367,1,279.999980926514,2|0,1:0|1:0,0:0:0:0:
482,275,3432,1,8,0:0:0:0:
409,218,3826,6,0,P|353:107|470:67,1,279.999980926514,2|4,1:0|0:3,0:0:0:0:
493,161,5011,1,8,0:3:0:0:
409,218,5405,1,4,1:2:0:0:
409,218,6984,6,0,L|252:205,1,139.999990463257,4|0,1:2|1:0,0:0:0:0:
274,304,7774,2,0,L|413:315,1,139.999990463257,0|0,1:0|1:0,0:0:0:0:
497,264,8563,2,0,P|507:217|463:125,1,139.999990463257,0|0,1:0|1:0,0:0:0:0:
378,109,9353,2,0,P|310:115|241:79,1,139.999990463257,0|0,1:0|1:0,0:0:0:0:
175,17,10142,5,4,1:2:0:0:
82,50,10537,1,0,1:0:0:0:
36,136,10932,2,0,P|32:190|74:282,1,139.999990463257,0|0,1:0|1:0,0:0:0:0:
160,270,11721,2,0,L|308:250,1,139.999990463257,2|2,1:0|1:0,0:0:0:0:
330,344,12511,2,0,L|191:362,1,139.999990463257,2|4,1:0|0:3,0:0:0:0:
93,360,13300,6,0,L|113:66,1,279.999980926514,4|0,1:2|1:2,0:0:0:0:
193,26,14484,1,0,1:2:0:0:
256,100,14879,2,0,P|310:120|397:90,1,139.999990463257,0|0,1:0|1:0,0:0:0:0:
477,61,15668,2,0,L|463:205,1,139.999990463257,0|0,1:0|1:0,0:0:0:0:
413,285,16458,5,0,1:0:0:0:
333,227,16853,2,0,P|270:209|195:239,1,139.999990463257,2|0,1:0|1:0,0:0:0:0:
155,319,17642,1,10,1:0:0:0:
79,192,18234,2,0,L|55:62,2,104.999992847443,10|10|2,1:0|1:0|1:0,0:0:0:0:
259,116,19616,5,12,0:0:0:0:
259,116,21195,5,12,0:0:0:0:
259,116,22774,5,4,0:0:0:0:
259,116,24353,6,0,P|230:223|137:132,1,279.999980926514,12|12,0:0|0:0,0:0:0:0:
181,59,25537,1,4,0:3:0:0:
271,20,25932,5,4,0:3:0:0:
271,20,27511,5,4,0:3:0:0:
271,20,29090,6,0,P|395:48|405:195,1,279.999980926514,4|4,0:3|0:3,0:0:0:0:
336,363,30668,2,0,P|255:221|321:119,1,279.999980926514,12|4,0:0|1:2,0:0:0:0:
210,101,31853,1,8,0:0:0:0:
145,174,32247,6,0,L|2:165,1,139.999990463257,4|4,1:1|0:1,0:0:0:0:
3,263,33037,2,0,L|142:271,1,139.999990463257,0|4,1:0|0:1,0:0:0:0:
218,334,33826,1,0,1:0:0:0:
309,298,34221,1,4,0:1:0:0:
392,349,34616,2,0,L|405:194,1,139.999990463257,0|4,1:0|0:1,0:0:0:0:
349,128,35405,6,0,P|272:112|215:148,1,139.999990463257,4|4,1:2|0:1,0:0:0:0:
170,224,36195,2,0,P|108:254|42:236,1,139.999990463257,0|4,1:0|0:1,0:0:0:0:
8,144,36984,1,0,1:0:0:0:
54,57,37379,1,4,0:1:0:0:
151,65,37774,2,0,L|303:59,1,139.999990463257,0|0,1:0|1:0,0:0:0:0:
370,116,38563,6,0,P|390:194|360:259,1,139.999990463257,4|0,1:2|1:0,0:0:0:0:
271,236,39353,2,0,P|251:314|281:379,1,139.999990463257,0|0,1:0|1:0,0:0:0:0:
367,348,40142,1,0,1:0:0:0:
460,377,40537,1,0,1:0:0:0:
492,284,40932,2,0,L|500:142,1,139.999990463257,0|4,1:0|0:3,0:0:0:0:
456,56,41721,6,0,P|386:13|315:26,2,139.999990463257,4|4|4,1:2|1:2|1:2,0:0:0:0:
396,190,43103,2,0,L|181:208,1,209.999985694885,4|4,1:2|1:2,0:0:0:0:
101,159,44090,2,0,P|91:82|142:21,1,139.999990463257,4|8,0:3|0:3,0:0:0:0:
184,109,44879,6,0,B|308:120|406:78|406:78|481:109|506:209|474:315|334:364,1,559.999961853028,4|2,1:2|1:0,0:0:0:0:
376,345,48037,6,0,P|291:309|226:319,1,139.999990463257,4|0,1:2|1:0,0:0:0:0:
148,331,48826,2,0,P|85:374|5:353,1,139.999990463257,0|0,1:0|1:0,0:0:0:0:
68,278,49616,2,0,L|88:96,1,139.999990463257,0|0,1:0|1:0,0:0:0:0:
177,110,50405,2,0,L|192:249,1,139.999990463257,0|0,1:0|1:0,0:0:0:0:
279,292,51195,5,0,1:0:0:0:
375,276,51590,1,0,1:0:0:0:
441,204,51984,2,0,P|445:126|422:62,1,139.999990463257,0|0,1:0|1:0,0:0:0:0:
327,58,52774,2,0,P|243:82|190:68,1,139.999990463257,2|2,1:0|1:0,0:0:0:0:
100,98,53563,2,0,L|118:251,1,139.999990463257,2|4,1:0|0:3,0:0:0:0:
58,316,54353,6,0,P|119:334|196:295,1,139.999990463257,4|0,1:2|1:2,0:0:0:0:
238,221,55142,1,0,1:2:0:0:
336,224,55537,1,0,1:2:0:0:
404,294,55932,2,0,P|434:220|412:159,1,139.999990463257,0|0,1:0|1:0,0:0:0:0:
334,111,56721,1,0,1:0:0:0:
237,127,57116,1,0,1:0:0:0:
148,181,57511,6,0,P|71:192|12:163,1,139.999990463257,0|2,1:0|1:0,0:0:0:0:
15,69,58300,2,0,P|91:57|150:86,1,139.999990463257,0|2,1:0|1:0,0:0:0:0:
148,181,59090,2,0,P|181:297|300:235,1,279.999980926514,2|2,1:0|1:0,0:0:0:0:
302,148,60274,1,4,0:3:0:0:
377,85,60668,6,0,P|458:96|490:149,1,139.999990463257,4|0,1:2|1:0,0:0:0:0:
428,218,61458,2,0,P|415:297|431:362,1,139.999990463257,0|0,1:0|1:0,0:0:0:0:
331,371,62247,2,0,L|164:350,1,139.999990463257,0|0,1:0|1:0,0:0:0:0:
205,256,63037,2,0,L|66:273,1,139.999990463257,0|0,1:0|1:0,0:0:0:0:
33,180,63826,6,0,P|22:102|73:42,1,139.999990463257,0|0,1:0|1:0,0:0:0:0:
146,86,64616,1,0,1:0:0:0:
238,52,65011,1,4,0:3:0:0:
323,100,65405,2,0,L|490:91,1,139.999990463257,2|2,1:0|1:0,0:0:0:0:
477,189,66195,2,0,L|337:196,1,139.999990463257,2|2,1:0|1:0,0:0:0:0:
248,237,66984,6,0,P|238:307|276:378,1,139.999990463257,4|0,1:2|1:2,0:0:0:0:
364,368,67774,1,8,0:0:0:0:
439,306,68168,1,0,1:2:0:0:
399,216,68563,2,0,L|386:30,1,139.999990463257,0|0,1:0|1:0,0:0:0:0:
304,26,69353,1,0,1:0:0:0:
209,49,69747,1,0,1:0:0:0:
170,139,70142,6,0,P|90:162|27:150,1,139.999990463257,4|0,1:2|1:0,0:0:0:0:
34,251,70932,1,0,1:0:0:0:
149,342,71524,2,0,L|372:330,1,209.999985694885,4|0,1:2|1:0,0:0:0:0:
407,245,72511,1,0,1:0:0:0:
375,152,72905,1,4,0:3:0:0:
416,65,73300,6,0,P|311:3|269:130,2,279.999980926514,4|0|0,1:2|1:0|1:0,0:0:0:0:
375,152,75274,1,0,1:0:0:0:
407,245,75668,2,0,L|253:235,1,139.999990463257,0|0,1:0|1:0,0:0:0:0:
176,197,76458,6,0,P|98:183|6:296,1,209.999985694885,2|2,1:0|1:0,0:0:0:0:
132,346,77642,1,0,1:0:0:0:
222,383,78037,2,0,L|438:367,1,209.999985694885,2|2,1:0|1:0,0:0:0:0:
490,232,79221,1,0,1:0:0:0:
444,145,79616,6,0,B|360:135|360:135|264:186|264:186|153:168,2,279.999980926514,0|0|0,1:0|1:0|1:0,0:0:0:0:
391,228,81590,1,0,1:0:0:0:
398,325,81984,2,0,P|327:349|240:320,1,139.999990463257,0|4,1:0|0:3,0:0:0:0:
222,246,82774,6,0,L|65:230,1,139.999990463257,4|2,1:2|1:0,0:0:0:0:
36,318,83563,2,0,L|175:332,1,139.999990463257,4|2,1:2|1:0,0:0:0:0:
268,364,84353,2,0,P|338:378|420:337,1,139.999990463257,4|4,1:2|0:3,0:0:0:0:
417,257,85142,1,8,0:3:0:0:
337,200,85537,1,8,0:3:0:0:
289,114,85932,6,0,P|306:49|383:16,1,139.999990463257,4|2,1:2|1:0,0:0:0:0:
446,72,86721,2,0,P|429:137|352:170,1,139.999990463257,4|2,1:2|1:0,0:0:0:0:
272,281,87708,2,0,L|54:266,1,209.999985694885,2|2,1:0|1:0,0:0:0:0:
