osu file format v14

[General]
AudioFilename: audio.mp3
AudioLeadIn: 0
PreviewTime: 46754
Countdown: 0
SampleSet: Soft
StackLeniency: 0.7
Mode: 0
LetterboxInBreaks: 0
WidescreenStoryboard: 0

[Editor]
DistanceSpacing: 0.7
BeatDivisor: 4
GridSize: 8
TimelineZoom: 2.799999

[Metadata]
Title:Bon Appetit S (TV Size ver)
TitleUnicode:ぼなぺてぃーと♡S (TVサイズver)
Artist:Blend A
ArtistUnicode:ブレンド・A
Creator:Karen
Version:Insane
Source:ブレンド・S
Tags:opening Blend S 和氣あず未 Azumi Waki 鬼頭明里 Akari Kito 春野杏 Anzu Haruno
BeatmapID:1436947
BeatmapSetID:678989

[Difficulty]
HPDrainRate:6
CircleSize:4
OverallDifficulty:7
ApproachRate:9
SliderMultiplier:2.99999990463257
SliderTickRate:1

[Events]
//Background and Video events
0,0,"bg.jpg",0,0
//Break Periods
//Storyboard Layer 0 (Background)
//Storyboard Layer 1 (Fail)
//Storyboard Layer 2 (Pass)
//Storyboard Layer 3 (Foreground)
//Storyboard Sound Samples

[TimingPoints]
669,394.736842105263,4,2,1,60,1,0
669,-133.333333333333,4,2,1,60,0,0
5405,-133.333333333333,4,2,1,50,0,0
6984,-100,4,2,1,70,0,0
16458,-100,4,2,1,50,0,0
16606,-100,4,2,1,5,0,0
16655,-100,4,2,1,50,0,0
16803,-100,4,2,1,5,0,0
16853,-100,4,2,1,70,0,0
17247,-100,4,2,1,50,0,0
17395,-100,4,2,1,5,0,0
17445,-100,4,2,1,50,0,0
17593,-100,4,2,1,5,0,0
17642,-100,4,2,1,70,0,0
19024,-100,4,2,1,60,0,0
19122,-100,4,2,1,50,0,0
19221,-100,4,2,1,40,0,0
19270,-100,4,2,1,30,0,0
19320,-100,4,2,1,20,0,0
19369,-100,4,2,1,10,0,0
19418,-100,4,2,1,5,0,0
19616,-133.333333333333,4,2,1,50,0,0
25438,-133.333333333333,4,2,1,30,0,0
30668,-133.333333333333,4,2,1,40,0,0
32247,-153.846153846153,4,2,1,40,0,0
37774,-153.846153846153,4,2,1,60,0,0
38563,-133.333333333333,4,2,1,60,0,0
44879,-133.333333333333,4,2,1,50,0,0
45668,-133.333333333333,4,2,1,60,0,0
46458,-133.333333333333,4,2,1,70,0,0
46853,-133.333333333333,4,2,1,30,0,0
48037,-90.9090909090909,4,2,1,70,0,1
57511,-90.9090909090909,4,2,1,50,0,1
57659,-90.9090909090909,4,2,1,5,0,1
57708,-90.9090909090909,4,2,1,50,0,1
57856,-90.9090909090909,4,2,1,5,0,1
57905,-90.9090909090909,4,2,1,70,0,1
58300,-90.9090909090909,4,2,1,50,0,1
58448,-90.9090909090909,4,2,1,5,0,1
58497,-90.9090909090909,4,2,1,50,0,1
58645,-90.9090909090909,4,2,1,5,0,1
58695,-90.9090909090909,4,2,1,70,0,1
60175,-90.9090909090909,4,2,1,60,0,1
60668,-90.9090909090909,4,2,1,70,0,1
73300,-100,4,2,1,60,0,0
76458,-100,4,2,1,60,0,1
77247,-100,4,2,1,60,0,0
78037,-100,4,2,1,60,0,1
78826,-100,4,2,1,60,0,0

[Colours]
Combo1 : 128,128,255
Combo2 : 255,128,0
Combo3 : 255,128,128
Combo4 : 115,185,255

[HitObjects]
118,114,669,6,0,P|106:168|122:245,1,112.500000715256,2|4,1:0|0:3,0:0:0:0:
182,273,965,1,2,1:0:0:0:
198,269,1063,1,0,0:0:0:0:
286,146,1261,1,2,1:0:0:0:
366,224,1458,1,0,1:0:0:0:
363,240,1557,1,4,0:3:0:0:
359,256,1655,1,4,0:3:0:0:
355,272,1754,1,4,0:3:0:0:
351,288,1853,2,0,L|469:281,1,112.500000715256,8|4,0:0|0:3,0:0:0:0:
481,94,2247,6,0,P|424:98|372:142,1,112.500000715256,2|4,1:0|0:3,0:0:0:0:
295,159,2543,1,2,1:0:0:0:
279,151,2642,1,0,0:0:0:0:
193,21,2840,1,2,1:0:0:0:
121,131,3037,1,0,1:0:0:0:
123,147,3136,1,4,0:3:0:0:
124,163,3234,1,4,0:3:0:0:
125,179,3333,1,4,0:3:0:0:
127,195,3432,2,0,L|6:184,1,112.500000715256,8|4,0:0|0:3,0:0:0:0:
61,325,3826,6,0,P|109:310|179:310,1,112.500000715256,2|4,1:0|0:3,0:0:0:0:
229,374,4122,1,2,1:0:0:0:
245,376,4221,1,0,0:0:0:0:
350,246,4418,1,2,1:0:0:0:
439,335,4616,2,0,L|374:349,2,56.2500003576279,4|4|4,0:3|0:3|0:3,0:0:0:0:
418,153,5011,1,8,0:3:0:0:
418,153,5208,1,8,0:3:0:0:
271,206,5405,5,4,1:2:0:0:
271,206,6392,2,0,L|272:130,1,56.2500003576279,2|2,0:3|0:3,0:0:0:0:
257,131,6590,1,2,0:3:0:0:
240,116,6688,1,2,0:3:0:0:
218,109,6787,1,2,0:3:0:0:
195,109,6886,1,0,0:0:0:0:
175,121,6984,6,0,L|22:117,1,149.999995231629,4|8,1:2|0:0,0:0:0:0:
0,225,7280,1,0,0:0:0:0:
14,242,7379,2,0,P|31:276|34:335,1,74.9999976158143,0|0,1:0|0:0,0:0:0:0:
110,384,7576,1,8,0:0:0:0:
130,374,7675,1,8,0:0:0:0:
150,363,7774,2,0,P|155:326|232:237,1,149.999995231629,0|8,1:0|0:0,0:0:0:0:
290,300,8070,2,0,L|443:279,1,149.999995231629,0|0,0:0|0:0,0:0:0:0:
469,197,8366,1,8,0:0:0:0:
322,37,8563,6,0,P|345:104|351:195,1,149.999995231629,0|8,1:0|0:0,0:0:0:0:
469,197,8859,1,0,0:0:0:0:
453,180,8958,2,0,P|458:105|482:34,1,149.999995231629,0|8,1:0|0:0,0:0:0:0:
258,127,9353,2,0,P|183:117|92:113,1,149.999995231629,0|8,1:0|0:0,0:0:0:0:
91,217,9649,1,0,0:0:0:0:
97,238,9747,2,0,P|172:248|263:252,1,149.999995231629,0|8,1:0|0:0,0:0:0:0:
434,353,10142,6,0,P|358:377|276:338,1,149.999995231629,4|8,1:2|0:0,0:0:0:0:
280,336,10438,2,0,L|112:358,1,149.999995231629,0|0,0:0|0:0,0:0:0:0:
41,331,10734,1,8,0:0:0:0:
41,331,10833,1,8,0:0:0:0:
41,331,10932,2,0,P|54:248|16:175,1,149.999995231629,0|8,1:0|0:0,0:0:0:0:
62,100,11228,2,0,P|131:115|221:126,1,149.999995231629,0|0,0:0|0:0,0:0:0:0:
276,64,11524,1,8,0:0:0:0:
340,233,11721,6,0,P|259:215|187:247,1,149.999995231629,2|8,1:0|0:0,0:0:0:0:
198,340,12017,1,0,0:0:0:0:
213,356,12116,2,0,P|294:374|366:342,1,149.999995231629,2|8,1:0|0:0,0:0:0:0:
485,180,12511,2,0,P|467:112|462:22,1,149.999995231629,2|8,1:0|0:0,0:0:0:0:
388,109,12807,1,8,0:0:0:0:
365,105,12905,1,4,0:3:0:0:
342,100,13004,1,4,0:3:0:0:
319,96,13103,1,4,0:3:0:0:
297,91,13201,1,4,0:3:0:0:
275,85,13300,6,0,P|207:108|119:99,1,149.999995231629,4|8,1:2|0:0,0:0:0:0:
30,301,13695,2,0,P|104:295|175:318,1,149.999995231629,0|8,1:2|0:0,0:0:0:0:
242,384,13991,1,0,0:0:0:0:
264,379,14090,2,0,P|331:366|426:355,1,149.999995231629,0|8,1:2|0:0,0:0:0:0:
505,284,14386,2,0,P|437:271|343:260,1,149.999995231629
274,286,14682,1,8,0:0:0:0:
178,182,14879,6,0,P|163:95|202:23,1,149.999995231629,0|8,1:0|0:0,0:0:0:0:
312,36,15175,2,0,P|337:105|320:177,1,149.999995231629,0|0,0:0|0:0,0:0:0:0:
250,114,15471,1,8,0:0:0:0:
412,175,15668,2,0,L|501:163,1,74.9999976158143,0|0,1:0|0:0,0:0:0:0:
511,57,15866,1,4,0:3:0:0:
488,59,15965,1,4,0:3:0:0:
472,74,16063,1,0,1:0:0:0:
464,258,16261,1,8,0:0:0:0:
267,169,16458,5,0,1:0:0:0:
267,169,16655,1,0,1:0:0:0:
281,306,16853,2,0,P|285:209|299:62,1,224.999992847443,2|0,1:0|0:0,0:0:0:0:
197,100,17247,1,0,1:0:0:0:
197,100,17444,1,0,1:0:0:0:
183,237,17642,2,0,P|179:140|165:-7,1,224.999992847443,10|4,1:0|0:3,0:0:0:0:
297,106,18037,5,4,0:3:0:0:
293,128,18136,1,4,0:3:0:0:
290,150,18234,2,0,L|372:136,1,74.9999976158143,10|0,1:0|0:0,0:0:0:0:
284,233,18432,1,8,0:0:0:0:
281,255,18530,2,0,L|363:241,1,74.9999976158143,10|0,1:0|0:0,0:0:0:0:
279,339,18728,1,8,0:0:0:0:
276,361,18826,2,2,B|443:330|443:330|470:34,1,449.999985694885,2|0,1:0|0:0,1:0:0:0:
174,88,19616,5,12,0:0:0:0:
174,88,21195,5,12,0:0:0:0:
174,88,22774,5,4,0:0:0:0:
174,88,24353,5,12,0:0:0:0:
166,178,25142,1,12,0:0:0:0:
151,267,25438,1,4,0:3:0:0:
138,285,25537,2,0,L|50:272,1,74.9999976158143,4|0,0:3|0:0,0:0:0:0:
1,198,25734,1,4,0:3:0:0:
2,175,25833,1,4,0:3:0:0:
13,155,25932,5,4,0:3:0:0:
135,87,26129,1,4,0:3:0:0:
135,87,26228,1,4,0:3:0:0:
135,87,26326,2,0,L|190:73,2,56.2500003576279,4|4|4,0:3|0:3|0:3,0:0:0:0:
228,169,26721,1,4,0:3:0:0:
228,169,26820,1,4,0:3:0:0:
228,169,26918,2,0,L|305:177,2,56.2500003576279,4|4|4,0:3|0:3|0:3,0:0:0:0:
135,266,27313,1,4,0:3:0:0:
129,287,27412,1,4,0:3:0:0:
131,309,27511,5,4,0:3:0:0:
241,298,27708,1,4,0:3:0:0:
246,319,27807,1,4,0:3:0:0:
259,337,27906,1,4,0:3:0:0:
345,262,28103,1,4,0:3:0:0:
345,262,28201,1,4,0:3:0:0:
345,262,28300,2,0,L|423:273,2,56.2500003576279,4|4|4,0:3|0:3|0:3,0:0:0:0:
246,153,28695,1,4,0:3:0:0:
224,146,28793,1,4,0:3:0:0:
201,146,28892,1,4,0:3:0:0:
179,154,28991,1,4,0:3:0:0:
162,168,29090,5,4,0:3:0:0:
57,124,29287,1,4,0:3:0:0:
50,102,29386,1,4,0:3:0:0:
54,80,29484,1,4,0:3:0:0:
159,21,29681,1,4,0:3:0:0:
159,21,29780,1,4,0:3:0:0:
159,21,29879,2,0,L|227:35,2,56.2500003576279,4|4|4,0:3|0:3|0:3,0:0:0:0:
72,221,30274,1,4,0:3:0:0:
77,242,30372,1,4,0:3:0:0:
83,263,30471,1,4,0:3:0:0:
90,284,30570,1,4,0:3:0:0:
96,305,30668,5,12,0:0:0:0:
96,305,31458,6,0,P|157:291|218:322,1,112.500000715256,4|0,1:2|0:0,0:0:0:0:
273,370,31754,1,4,0:3:0:0:
293,360,31853,2,0,L|310:286,1,56.2500003576279,8|0,0:0|0:0,0:0:0:0:
243,219,32050,1,4,0:3:0:0:
243,219,32149,1,4,0:3:0:0:
243,219,32247,6,0,P|232:148|270:77,1,146.249988656045,4|0,1:1|0:0,0:0:0:0:
276,97,32642,2,0,L|386:111,1,97.4999924373631,4|0,0:1|0:0,0:0:0:0:
485,196,33037,2,0,P|407:201|317:215,1,146.249988656045,0|0,1:0|0:0,0:0:0:0:
334,229,33432,2,0,L|349:336,1,97.4999924373631,4|0,0:1|0:0,0:0:0:0:
201,358,33826,5,0,1:0:0:0:
201,358,34024,1,0,0:0:0:0:
104,309,34221,1,4,0:1:0:0:
104,309,34418,1,0,0:0:0:0:
18,362,34616,2,0,P|5:297|49:217,1,146.249988656045,0|0,1:0|0:0,0:0:0:0:
57,223,35011,2,0,L|170:206,1,97.4999924373631,4|0,0:1|0:0,0:0:0:0:
277,63,35405,6,0,P|199:46|95:50,1,146.249988656045,4|0,1:2|0:0,0:0:0:0:
120,60,35800,2,0,P|74:74|7:76,1,97.4999924373631,4|0,0:1|0:0,0:0:0:0:
144,167,36195,2,0,L|164:325,1,146.249988656045,0|0,1:0|0:0,0:0:0:0:
174,327,36590,2,0,P|236:344|276:335,1,97.4999924373631,4|0,0:1|0:0,0:0:0:0:
360,218,36984,5,0,1:0:0:0:
360,218,37182,1,0,0:0:0:0:
336,121,37379,1,4,0:1:0:0:
336,121,37576,1,0,0:0:0:0:
386,37,37774,5,0,1:0:0:0:
386,37,38168,1,0,1:0:0:0:
386,37,38563,6,0,L|255:28,1,112.500000715256,4|8,1:2|0:0,0:0:0:0:
137,201,38958,2,0,L|268:192,1,112.500000715256,0|8,1:0|0:0,0:0:0:0:
416,127,39353,2,0,L|285:118,1,112.500000715256,0|8,1:0|0:0,0:0:0:0:
167,291,39748,2,0,L|298:282,1,112.500000715256,0|8,1:0|0:0,0:0:0:0:
440,361,40142,5,0,1:0:0:0:
345,215,40340,1,8,0:0:0:0:
336,380,40537,1,0,1:0:0:0:
446,199,40734,1,8,0:0:0:0:
268,300,40932,2,0,L|136:282,1,112.500000715256,0|8,1:0|0:0,0:0:0:0:
86,217,41228,1,4,0:3:0:0:
72,192,41326,1,4,0:3:0:0:
74,163,41425,1,4,0:3:0:0:
82,136,41524,1,4,0:3:0:0:
101,116,41622,1,4,0:3:0:0:
133,119,41721,5,4,1:2:0:0:
133,119,42116,1,4,1:2:0:0:
133,119,42511,2,0,P|186:120|253:110,1,112.500000715256,4|4,1:2|0:3,0:0:0:0:
362,8,42905,1,4,0:3:0:0:
451,176,43103,6,0,P|366:148|267:245,1,225.000001430512,4|8,1:2|0:0,0:0:0:0:
362,355,43695,2,0,P|377:303|364:212,1,112.500000715256,4|0,1:2|0:0,0:0:0:0:
186,179,44090,1,4,0:3:0:0:
158,172,44188,1,4,0:3:0:0:
130,165,44287,1,4,0:3:0:0:
102,158,44386,1,4,0:3:0:0:
74,151,44484,2,0,L|88:222,1,56.2500003576279,8|8,0:3|0:3,0:0:0:0:
158,266,44682,2,0,L|147:321,1,56.2500003576279,8|0,0:3|0:0,0:0:0:0:
78,370,44879,5,4,1:2:0:0:
248,291,45076,1,8,0:0:0:0:
359,372,45274,1,4,0:3:0:0:
386,365,45372,1,4,0:3:0:0:
413,359,45471,1,4,0:3:0:0:
466,192,45668,5,2,1:0:0:0:
266,384,45965,1,2,1:0:0:0:
276,65,46261,1,2,1:0:0:0:
374,123,46458,6,0,L|129:94,1,225.000001430512,2|2,1:0|0:0,0:0:0:0:
150,96,47247,2,0,L|158:35,3,56.2500003576279,2|2|2|2,0:0|0:0|0:0|0:0,0:0:0:0:
60,59,47642,2,0,L|52:114,3,56.2500003576279,0|0|0|0,1:0|0:0|0:0|0:0,0:0:0:0:
124,191,48037,6,0,P|200:214|276:162,2,164.999999790192,4|8|0,1:2|0:0|1:0,0:0:0:0:
28,335,48629,1,8,0:0:0:0:
42,354,48728,1,8,0:0:0:0:
58,372,48826,2,0,L|230:353,1,164.999999790192,0|8,1:0|0:0,0:0:0:0:
326,325,49122,1,0,0:0:0:0:
345,309,49221,2,0,P|352:261|337:215,1,82.4999998950959,0|0,1:0|0:0,0:0:0:0:
438,218,49418,2,0,P|420:172|384:140,1,82.4999998950959,8|0,0:0|0:0,0:0:0:0:
305,108,49616,6,0,P|221:122|139:128,1,164.999999790192,0|8,1:0|0:0,0:0:0:0:
187,18,49912,1,0,0:0:0:0:
198,40,50011,2,0,P|113:31|32:16,1,164.999999790192,0|8,1:0|0:0,0:0:0:0:
0,165,50405,2,0,P|28:240|41:324,1,164.999999790192,0|8,1:0|0:0,0:0:0:0:
127,238,50701,1,0,0:0:0:0:
137,215,50800,2,0,P|144:294|135:379,1,164.999999790192,0|8,1:0|0:0,0:0:0:0:
319,333,51195,6,0,L|493:304,1,164.999999790192,0|8,1:0|0:0,0:0:0:0:
505,148,51590,1,0,1:0:0:0:
334,228,51787,1,8,0:0:0:0:
322,206,51886,1,8,0:0:0:0:
311,183,51984,2,0,P|303:143|326:13,1,164.999999790192,0|8,1:0|0:0,0:0:0:0:
219,90,52280,1,0,0:0:0:0:
198,103,52379,2,0,L|94:111,1,82.4999998950959,0|0,1:0|0:0,0:0:0:0:
8,14,52576,2,0,L|112:22,1,82.4999998950959,8|0,0:0|0:0,0:0:0:0:
41,173,52774,6,0,P|36:266|109:295,1,164.999999790192,2|8,1:0|0:0,0:0:0:0:
216,287,53070,1,8,0:0:0:0:
235,271,53168,2,0,L|61:285,1,164.999999790192,2|8,1:0|0:0,0:0:0:0:
155,118,53563,1,2,1:0:0:0:
179,115,53662,1,0,0:0:0:0:
203,111,53761,1,8,0:0:0:0:
227,107,53859,1,8,0:0:0:0:
265,121,53958,5,4,0:3:0:0:
293,150,54057,1,4,0:3:0:0:
302,189,54155,1,4,0:3:0:0:
293,229,54254,1,4,0:3:0:0:
261,255,54353,5,4,1:2:0:0:
406,356,54550,1,8,0:0:0:0:
406,356,54649,1,0,0:0:0:0:
406,356,54747,2,0,P|396:273|401:180,1,164.999999790192,0|8,1:2|0:0,0:0:0:0:
458,120,55043,1,0,0:0:0:0:
464,96,55142,2,0,L|370:83,1,82.4999998950959,0|0,1:2|0:0,0:0:0:0:
321,153,55340,2,0,L|227:140,1,82.4999998950959,8|0,0:0|0:0,0:0:0:0:
224,54,55537,2,0,L|130:41,1,82.4999998950959,0|0,1:2|0:0,0:0:0:0:
81,111,55734,2,0,L|-13:98,1,82.4999998950959,8|0,0:0|0:0,0:0:0:0:
15,242,55932,6,0,P|78:199|171:244,1,164.999999790192,0|8,1:0|0:0,0:0:0:0:
205,314,56228,1,0,0:0:0:0:
217,334,56326,2,0,P|292:360|358:317,1,164.999999790192,0|8,1:0|0:0,0:0:0:0:
342,213,56622,1,8,0:0:0:0:
328,192,56721,6,0,P|314:155|312:109,1,82.4999998950959,0|0,1:0|0:0,0:0:0:0:
411,141,56918,2,0,P|407:101|417:56,1,82.4999998950959,8|0,0:0|0:0,0:0:0:0:
316,6,57116,2,0,L|232:15,1,82.4999998950959,0|0,1:0|0:0,0:0:0:0:
217,113,57313,2,0,L|134:104,1,82.4999998950959,8|0,0:0|0:0,0:0:0:0:
61,43,57511,5,0,1:0:0:0:
61,43,57708,1,0,1:0:0:0:
0,212,57905,2,0,P|126:202|261:203,1,247.499999685288,2|0,1:0|0:0,0:0:0:0:
288,131,58300,5,0,1:0:0:0:
288,131,58497,1,0,1:0:0:0:
352,295,58695,2,0,P|226:285|91:286,1,247.499999685288,2|0,1:0|0:0,0:0:0:0:
45,346,59090,5,2,1:0:0:0:
142,92,59386,1,2,1:0:0:0:
213,372,59682,1,2,1:0:0:0:
285,306,59879,2,0,P|276:227|308:127,1,164.999999790192,2|0,1:0|0:0,0:0:0:0:
365,80,60175,1,8,0:0:0:0:
385,94,60274,2,0,L|473:115,3,82.4999998950959,4|4|4|4,0:3|0:3|0:3|0:3,0:0:0:0:
487,203,60668,6,0,L|460:367,2,164.999999790192,4|8|0,1:2|0:0|1:0,0:0:0:0:
352,284,61261,1,8,0:0:0:0:
330,294,61359,1,8,0:0:0:0:
308,305,61458,2,0,P|226:304|129:283,1,164.999999790192,0|8,1:0|0:0,0:0:0:0:
117,115,61754,1,0,0:0:0:0:
96,129,61853,2,0,P|86:164|87:224,1,82.4999998950959,0|0,1:0|0:0,0:0:0:0:
227,213,62050,2,0,P|226:171|215:132,1,82.4999998950959,8|0,0:0|0:0,0:0:0:0:
152,23,62247,6,0,P|241:49|316:9,1,164.999999790192,0|8,1:0|0:0,0:0:0:0:
421,27,62544,1,0,0:0:0:0:
400,40,62642,2,0,P|379:114|379:209,1,164.999999790192,0|8,1:0|0:0,0:0:0:0:
278,369,63037,2,0,P|302:283|261:204,1,164.999999790192,0|8,1:0|0:0,0:0:0:0:
176,235,63333,1,0,0:0:0:0:
156,249,63432,2,0,P|72:262|-16:251,1,164.999999790192,0|8,1:0|0:0,0:0:0:0:
100,8,63826,6,0,P|97:87|78:176,1,164.999999790192,0|8,1:0|0:0,0:0:0:0:
141,347,64222,1,0,1:0:0:0:
184,135,64419,1,8,0:0:0:0:
201,152,64518,1,8,0:0:0:0:
218,169,64616,2,0,L|399:156,1,164.999999790192,0|8,1:0|0:0,0:0:0:0:
475,220,64912,1,4,0:3:0:0:
484,242,65011,2,0,P|485:282|475:344,3,82.4999998950959,4|4|8|8,0:3|0:3|0:0|0:0,0:0:0:0:
378,375,65405,6,0,P|286:344|270:260,1,164.999999790192,2|0,1:0|0:0,0:0:0:0:
0,357,65800,2,0,P|92:326|108:242,1,164.999999790192,2|0,1:0|0:0,0:0:0:0:
389,198,66195,2,0,P|296:188|208:165,1,164.999999790192,2|0,1:0|0:0,0:0:0:0:
46,112,66590,2,0,P|139:102|227:79,1,164.999999790192,2|0,1:0|0:0,0:0:0:0:
359,10,66985,5,4,1:2:0:0:
272,167,67182,1,8,0:0:0:0:
272,167,67281,1,0,0:0:0:0:
272,167,67379,2,0,P|261:249|255:343,1,164.999999790192,0|8,1:2|0:0,0:0:0:0:
359,348,67675,1,8,0:0:0:0:
345,327,67774,2,0,P|345:277|356:217,1,82.4999998950959,8|0,0:0|0:0,0:0:0:0:
436,289,67971,2,0,P|446:249|461:210,1,82.4999998950959,8|0,0:0|0:0,0:0:0:0:
495,46,68168,2,0,P|499:86|499:128,1,82.4999998950959,0|0,1:2|0:0,0:0:0:0:
383,12,68366,2,0,P|398:50|408:90,1,82.4999998950959,8|0,0:0|0:0,0:0:0:0:
318,155,68563,6,0,P|235:137|153:132,1,164.999999790192,0|8,1:0|0:0,0:0:0:0:
64,194,68859,1,0,0:0:0:0:
61,218,68958,2,0,P|98:281|196:294,1,164.999999790192,0|8,1:0|0:0,0:0:0:0:
269,245,69254,1,8,0:0:0:0:
281,266,69353,2,0,L|267:354,1,82.4999998950959,0|0,1:0|0:0,0:0:0:0:
377,249,69550,2,0,L|363:337,1,82.4999998950959,8|0,0:0|0:0,0:0:0:0:
321,175,69747,2,0,L|333:93,1,82.4999998950959,0|0,1:0|0:0,0:0:0:0:
417,158,69945,2,0,L|429:76,1,82.4999998950959,8|0,0:0|0:0,0:0:0:0:
363,0,70143,5,4,1:2:0:0:
212,189,70537,1,0,1:0:0:0:
59,64,70932,2,0,L|75:237,1,164.999999790192,0|0,1:0|0:0,0:0:0:0:
89,244,71195,2,0,L|165:247,2,54.9999999300639,0|0|0,1:0|1:0|1:0,0:0:0:0:
192,100,71524,6,0,P|284:97|328:239,1,247.499999685288,4|0,1:2|0:0,0:0:0:0:
284,291,71918,1,8,0:0:0:0:
440,180,72116,2,0,P|422:256|413:351,1,164.999999790192,0|0,1:0|0:0,0:0:0:0:
260,378,72412,1,0,0:0:0:0:
237,368,72511,1,0,1:0:0:0:
213,360,72609,1,8,0:0:0:0:
188,355,72708,1,4,0:3:0:0:
163,356,72807,1,4,0:3:0:0:
124,370,72905,5,4,0:3:0:0:
83,362,73004,1,4,0:3:0:0:
52,333,73103,1,4,0:3:0:0:
46,292,73201,1,4,0:3:0:0:
59,256,73300,6,0,P|74:184|65:83,1,149.999995231629,4|8,1:2|0:0,0:0:0:0:
18,22,73596,1,0,0:0:0:0:
39,15,73695,2,0,P|133:32|170:95,1,149.999995231629,0|8,1:0|0:0,0:0:0:0:
343,307,74090,2,0,P|328:235|337:134,1,149.999995231629,0|8,1:0|0:0,0:0:0:0:
384,73,74386,1,0,0:0:0:0:
363,66,74485,2,0,P|269:83|232:146,1,149.999995231629,0|8,1:0|0:0,0:0:0:0:
210,353,74879,6,0,L|48:326,1,149.999995231629,0|8,1:0|0:0,0:0:0:0:
17,245,75175,1,0,0:0:0:0:
19,222,75274,2,0,P|92:198|170:222,1,149.999995231629,0|8,1:0|0:0,0:0:0:0:
318,359,75668,1,0,1:0:0:0:
449,260,75866,2,0,L|366:265,1,74.9999976158143,8|0,0:0|0:0,0:0:0:0:
296,195,76063,2,0,L|291:111,1,74.9999976158143,0|0,1:0|0:0,0:0:0:0:
368,50,76261,1,4,0:3:0:0:
368,50,76359,1,4,0:3:0:0:
368,50,76458,6,0,P|279:31|217:57,1,149.999995231629,2|8,1:0|0:0,0:0:0:0:
210,67,76754,2,0,P|139:88|67:67,1,149.999995231629,2|8,1:0|0:0,0:0:0:0:
5,4,77050,1,2,1:0:0:0:
38,318,77445,2,0,L|21:217,1,74.9999976158143,8|0,0:0|0:0,0:0:0:0:
135,310,77642,2,0,L|144:208,1,74.9999976158143,0|0,1:0|0:0,0:0:0:0:
231,330,77840,2,0,L|266:234,1,74.9999976158143,8|0,0:0|0:0,0:0:0:0:
350,223,78037,6,0,P|343:153|319:70,1,149.999995231629,2|8,1:0|0:0,0:0:0:0:
307,59,78333,2,0,P|242:30|158:9,1,149.999995231629,2|8,1:0|0:0,0:0:0:0:
83,91,78629,1,2,1:0:0:0:
339,357,79024,2,0,L|446:338,1,74.9999976158143,8|0,0:0|0:0,0:0:0:0:
463,253,79221,2,0,L|356:234,1,74.9999976158143,0|0,1:0|0:0,0:0:0:0:
350,149,79418,2,0,L|457:130,1,74.9999976158143,8|0,0:0|0:0,0:0:0:0:
443,43,79616,6,0,P|388:17|286:37,1,149.999995231629,0|8,1:0|0:0,0:0:0:0:
261,116,79912,1,0,0:0:0:0:
261,138,80011,2,0,L|277:302,1,149.999995231629,0|8,1:0|0:0,0:0:0:0:
3,362,80405,2,0,P|58:388|160:368,1,149.999995231629,0|8,1:0|0:0,0:0:0:0:
185,289,80701,1,0,0:0:0:0:
185,267,80800,2,0,L|169:103,1,149.999995231629,0|8,1:0|0:0,0:0:0:0:
405,102,81195,6,0,P|386:199|388:281,1,149.999995231629,0|8,1:0|0:0,0:0:0:0:
437,334,81491,1,0,0:0:0:0:
442,355,81590,2,0,L|284:320,1,149.999995231629,0|8,1:0|0:0,0:0:0:0:
124,230,81984,1,0,1:0:0:0:
256,233,82182,1,4,0:3:0:0:
260,211,82280,1,4,0:3:0:0:
265,189,82379,1,4,0:3:0:0:
268,166,82478,1,4,0:3:0:0:
271,143,82576,2,0,L|186:132,1,74.9999976158143,4|4,0:3|0:3,0:0:0:0:
144,61,82774,5,4,1:2:0:0:
144,61,83168,1,2,1:0:0:0:
25,119,83366,1,4,0:3:0:0:
29,141,83465,1,4,0:3:0:0:
34,162,83563,1,4,1:2:0:0:
351,108,83958,1,2,1:0:0:0:
233,159,84155,1,4,0:3:0:0:
229,181,84254,1,4,0:3:0:0:
224,202,84352,5,4,1:2:0:0:
276,347,84550,1,0,0:0:0:0:
307,367,84649,1,4,0:3:0:0:
343,371,84747,1,4,0:3:0:0:
378,359,84846,1,4,0:3:0:0:
400,329,84945,1,4,0:3:0:0:
405,292,85043,1,4,0:3:0:0:
387,258,85142,5,8,0:3:0:0:
268,237,85340,1,8,0:3:0:0:
149,220,85537,1,8,0:3:0:0:
30,204,85734,1,4,0:3:0:0:
30,204,85833,1,4,0:3:0:0:
30,204,85932,5,4,1:2:0:0:
185,114,86326,2,0,L|155:341,1,224.999992847443,2|0,1:0|0:0,0:0:0:0:
77,369,86721,1,4,1:2:0:0:
274,110,87116,2,0,L|244:337,1,224.999992847443,2|0,1:0|0:0,0:0:0:0:
318,384,87511,5,8,0:0:0:0:
477,284,87708,2,0,P|403:301|320:290,1,149.999995231629,2|0,1:0|0:0,0:0:0:0:
419,212,88004,2,0,P|343:209|265:177,1,149.999995231629,2|0,1:0|0:0,0:0:0:0:
383,128,88300,2,0,P|319:54|441:75,1,299.999990463257,2|0,1:0|0:0,0:0:0:0:
