osu file format v14

[General]
AudioFilename: audio.mp3
AudioLeadIn: 0
PreviewTime: 46754
Countdown: 0
SampleSet: Soft
StackLeniency: 0.7
Mode: 0
LetterboxInBreaks: 0
WidescreenStoryboard: 0

[Editor]
DistanceSpacing: 0.7
BeatDivisor: 4
GridSize: 8
TimelineZoom: 2.799999

[Metadata]
Title:Bon Appetit S (TV Size ver)
TitleUnicode:ぼなぺてぃーと♡S (TVサイズver)
Artist:Blend A
ArtistUnicode:ブレンド・A
Creator:Karen
Version:Expert
Source:ブレンド・S
Tags:opening Blend S 和氣あず未 Azumi Waki 鬼頭明里 Akari Kito 春野杏 Anzu Haruno
BeatmapID:1435653
BeatmapSetID:678989

[Difficulty]
HPDrainRate:6
CircleSize:4
OverallDifficulty:8
ApproachRate:9.2
SliderMultiplier:3.59999990463257
SliderTickRate:1

[Events]
//Background and Video events
0,0,"bg.jpg",0,0
//Break Periods
//Storyboard Layer 0 (Background)
//Storyboard Layer 1 (Fail)
//Storyboard Layer 2 (Pass)
//Storyboard Layer 3 (Foreground)
//Storyboard Sound Samples

[TimingPoints]
669,394.736842105263,4,2,1,60,1,0
669,-133.333333333333,4,2,1,60,0,0
5405,-133.333333333333,4,2,1,50,0,0
6984,-100,4,2,1,70,0,0
11721,-79.9999999999999,4,2,1,70,0,0
13300,-100,4,2,1,70,0,0
16458,-200,4,2,1,50,0,0
16606,-200,4,2,1,5,0,0
16655,-200,4,2,1,50,0,0
16803,-200,4,2,1,5,0,0
16853,-68.9655172413792,4,2,1,70,0,0
17247,-200,4,2,1,50,0,0
17395,-200,4,2,1,5,0,0
17445,-200,4,2,1,50,0,0
17593,-200,4,2,1,5,0,0
17642,-68.9655172413792,4,2,1,70,0,0
18826,-95.2380952380952,4,2,1,70,0,0
19024,-95.2380952380952,4,2,1,60,0,0
19122,-95.2380952380952,4,2,1,50,0,0
19221,-95.2380952380952,4,2,1,40,0,0
19270,-95.2380952380952,4,2,1,30,0,0
19320,-95.2380952380952,4,2,1,20,0,0
19369,-95.2380952380952,4,2,1,10,0,0
19418,-95.2380952380952,4,2,1,5,0,0
19616,-95.2380952380952,4,2,1,50,0,0
25438,-95.2380952380952,4,2,1,30,0,0
30668,-95.2380952380952,4,2,1,40,0,0
32247,-133.333333333333,4,2,1,30,0,0
37774,-133.333333333333,4,2,1,60,0,0
38563,-117.647058823529,4,2,1,60,0,0
41721,-79.9999999999999,4,2,1,60,0,0
42511,-117.647058823529,4,2,1,60,0,0
44879,-95.2380952380952,4,2,1,50,0,0
45668,-95.2380952380952,4,2,1,60,0,0
46458,-95.2380952380952,4,2,1,70,0,0
46853,-200,4,2,1,30,0,0
48037,-86.9565217391303,4,2,1,70,0,1
57511,-200,4,2,1,50,0,1
57659,-200,4,2,1,5,0,1
57708,-200,4,2,1,50,0,1
57856,-200,4,2,1,5,0,1
57905,-68.9655172413792,4,2,1,70,0,1
58300,-200,4,2,1,50,0,1
58448,-200,4,2,1,5,0,1
58497,-200,4,2,1,50,0,1
58645,-200,4,2,1,5,0,1
58695,-68.9655172413792,4,2,1,70,0,1
59090,-80,4,2,1,70,0,1
60175,-80,4,2,1,60,0,1
60668,-86.9565217391304,4,2,1,70,0,1
73300,-100,4,2,1,60,0,0
76458,-50,4,2,1,60,0,1
77247,-50,4,2,1,60,0,0
77445,-100,4,2,1,60,0,0
78037,-50,4,2,1,60,0,1
78826,-50,4,2,1,60,0,0
79024,-100,4,2,1,60,0,0
82774,-181.818181818181,4,2,1,60,0,0
83168,-90.9090909090909,4,2,1,60,0,0
83563,-181.818181818181,4,2,1,60,0,0
83958,-90.9090909090909,4,2,1,60,0,0
84353,-100,4,2,1,60,0,0
85932,-181.818181818181,4,2,1,60,0,0
86326,-90.9090909090909,4,2,1,60,0,0
86721,-181.818181818181,4,2,1,60,0,0
87116,-90.9090909090909,4,2,1,60,0,0
87708,-86.9565217391303,4,2,1,60,0,0

[Colours]
Combo1 : 128,128,255
Combo2 : 255,128,0
Combo3 : 255,128,128
Combo4 : 115,185,255

[HitObjects]
295,144,669,6,0,P|347:119|452:149,1,135.000001573563,2|4,1:0|0:3,0:0:0:0:
302,42,965,2,0,P|334:31|367:29,1,67.5000007867813,2|0,1:0|0:0,0:0:0:0:
503,94,1162,1,4,0:3:0:0:
512,111,1261,2,0,P|510:138|496:184,1,67.5000007867813,2|0,1:0|0:0,0:0:0:0:
409,267,1458,1,0,1:0:0:0:
444,346,1557,2,0,L|553:350,2,67.5000007867813,4|4|4,0:3|0:3|0:3,0:0:0:0:
323,303,1853,1,8,0:0:0:0:
320,283,1951,1,4,0:3:0:0:
316,262,2050,1,4,0:3:0:0:
312,241,2149,1,4,0:3:0:0:
259,163,2247,6,0,P|187:152|126:181,1,135.000001573563,2|4,1:0|0:3,0:0:0:0:
175,319,2543,2,0,P|179:279|176:244,1,67.5000007867813,2|0,1:0|0:0,0:0:0:0:
59,0,2840,2,0,P|57:33|61:67,1,67.5000007867813,2|0,1:0|0:0,0:0:0:0:
183,105,3037,1,0,1:0:0:0:
247,42,3136,2,0,L|321:38,2,67.5000007867813,4|4|4,0:3|0:3|0:3,0:0:0:0:
239,179,3432,1,8,0:0:0:0:
244,198,3530,1,4,0:3:0:0:
248,217,3629,1,4,0:3:0:0:
252,236,3728,1,4,0:3:0:0:
317,296,3826,6,0,L|169:272,1,135.000001573563,2|4,1:0|0:3,0:0:0:0:
395,210,4122,2,0,L|308:196,1,67.5000007867813,2|0,1:0|0:0,0:0:0:0:
217,357,4320,1,4,0:3:0:0:
233,368,4418,2,0,L|299:378,1,67.5000007867813,2|0,1:0|0:0,0:0:0:0:
408,332,4616,1,4,0:3:0:0:
428,329,4715,1,4,0:3:0:0:
448,327,4813,1,4,0:3:0:0:
512,179,5011,2,0,L|499:249,1,67.5000007867813,8|0,0:3|0:0,0:0:0:0:
392,113,5208,2,0,L|405:183,1,67.5000007867813,8|0,0:3|0:0,0:0:0:0:
330,273,5405,6,0,B|267:290|234:242|234:242|206:200|131:209,1,202.500002360344,4|0,1:2|0:0,0:0:0:0:
172,295,5800,2,0,P|235:244|191:128,1,202.500002360344
188,129,6195,1,0,0:0:0:0:
332,131,6392,1,2,0:3:0:0:
351,126,6491,1,2,0:3:0:0:
370,121,6590,1,2,0:3:0:0:
389,117,6688,1,2,0:3:0:0:
408,112,6787,2,0,L|394:196,1,67.5000007867813,2|0,0:3|0:0,0:0:0:0:
494,311,6984,6,0,P|447:292|398:290,1,89.9999976158142,4|0,1:2|0:0,0:0:0:0:
336,384,7182,2,0,P|328:333|306:290,1,89.9999976158142,8|0,0:0|0:0,0:0:0:0:
152,353,7379,2,0,P|191:321|218:280,1,89.9999976158142,0|0,1:0|0:0,0:0:0:0:
243,122,7576,1,8,0:0:0:0:
231,97,7675,1,8,0:0:0:0:
284,25,7774,6,0,P|391:27|433:85,1,179.999995231628,0|8,1:0|0:0,0:0:0:0:
348,209,8070,1,0,0:0:0:0:
329,190,8168,2,0,P|328:146|340:94,1,89.9999976158142,0|0,1:0|0:0,0:0:0:0:
137,76,8366,2,0,P|146:119|145:164,1,89.9999976158142,8|0,0:0|0:0,0:0:0:0:
246,367,8563,6,0,P|234:265|232:177,1,179.999995231629,0|8,1:0|0:0,0:0:0:0:
320,2,8859,1,0,0:0:0:0:
240,37,8958,2,0,P|247:114|244:216,1,179.999995231629,0|8,1:0|0:0,0:0:0:0:
407,384,9254,1,0,0:0:0:0:
325,384,9353,6,0,P|337:282|339:194,1,179.999995231629,0|8,1:0|0:0,0:0:0:0:
412,22,9649,1,0,0:0:0:0:
331,54,9748,2,0,P|323:131|327:233,1,179.999995231629,0|8,1:0|0:0,0:0:0:0:
428,218,10044,1,0,0:0:0:0:
462,139,10142,6,0,P|534:125|507:200,1,179.999995231628,4|8,1:2|0:0,0:0:0:0:
436,308,10438,1,0,0:0:0:0:
450,331,10537,2,0,L|350:334,1,89.9999976158143,0|0,1:0|0:0,0:0:0:0:
170,274,10734,1,8,0:0:0:0:
152,260,10833,1,8,0:0:0:0:
198,187,10932,6,0,B|246:161|286:187|286:187|321:208|378:177,1,179.999995231629,0|8,1:0|0:0,0:0:0:0:
352,4,11228,1,0,0:0:0:0:
327,18,11326,2,0,P|312:64|317:110,1,89.9999976158143,0|0,1:0|0:0,0:0:0:0:
512,132,11524,2,0,P|471:109|410:126,1,89.9999976158143,8|0,0:0|0:0,0:0:0:0:
449,358,11721,6,0,B|439:277|454:196|454:196|442:235|401:271,1,224.999994039536,2|8,1:0|0:0,0:0:0:0:
281,380,12017,1,0,0:0:0:0:
232,297,12116,2,0,P|108:286|-4:288,1,224.999994039536,2|8,1:0|0:0,0:0:0:0:
0,151,12412,1,0,0:0:0:0:
59,71,12511,6,0,P|90:117|93:179,1,112.499997019768,2|0,1:0|0:0,0:0:0:0:
222,161,12708,1,8,0:0:0:0:
227,140,12807,1,8,0:0:0:0:
264,71,12905,5,4,0:3:0:0:
335,37,13004,1,4,0:3:0:0:
413,47,13103,1,4,0:3:0:0:
478,89,13201,1,4,0:3:0:0:
511,161,13300,5,4,1:2:0:0:
383,275,13497,1,10,0:0:0:0:
363,263,13596,1,2,0:0:0:0:
342,271,13695,1,2,1:2:0:0:
336,292,13793,1,2,0:0:0:0:
350,334,13892,5,10,0:0:0:0:
395,335,13991,1,2,0:0:0:0:
429,305,14090,1,2,1:2:0:0:
439,261,14188,1,2,0:0:0:0:
421,207,14287,5,10,0:0:0:0:
368,185,14386,1,2,0:0:0:0:
314,200,14484,1,2,1:2:0:0:
287,249,14583,1,2,0:0:0:0:
313,332,14682,6,0,P|357:329|409:322,1,89.9999976158143,10|0,0:0|0:0,0:0:0:0:
512,245,14879,6,0,P|478:144|384:129,1,179.999995231629,0|8,1:0|0:0,0:0:0:0:
398,112,15175,2,0,L|385:15,1,89.9999976158143,0|0,0:0|1:0,0:0:0:0:
246,43,15372,1,0,0:0:0:0:
248,144,15471,2,0,L|259:54,1,89.9999976158143,8|0,0:0|0:0,0:0:0:0:
133,12,15668,6,0,P|82:8|30:26,1,89.9999976158143,0|0,1:0|0:0,0:0:0:0:
0,163,15866,1,4,0:3:0:0:
9,178,15965,1,4,0:3:0:0:
94,233,16063,2,0,L|185:210,1,89.9999976158143,0|0,1:0|0:0,0:0:0:0:
157,381,16261,2,0,L|66:358,1,89.9999976158143,8|0,0:0|0:0,0:0:0:0:
96,136,16458,6,0,L|87:58,1,67.4999982118607,0|0,1:0|0:0,0:0:0:0:
100,82,16655,2,0,L|110:164,1,67.4999982118607,0|0,1:0|0:0,0:0:0:0:
200,116,16853,6,0,B|310:131|358:46|358:46|408:140|566:124,1,391.500001576424,2|0,1:0|0:0,0:0:0:0:
504,297,17247,6,0,L|513:219,1,67.4999982118607,0|0,1:0|0:0,0:0:0:0:
500,243,17444,2,0,L|490:325,1,67.4999982118607,0|0,1:0|0:0,0:0:0:0:
351,374,17642,6,0,B|319:266|340:193|340:193|376:197|396:240,1,261.000001050949,10|0,1:0|0:0,0:0:0:0:
263,325,17938,5,4,0:3:0:0:
178,314,18037,1,4,0:3:0:0:
98,301,18136,1,4,0:3:0:0:
16,286,18234,6,0,L|-1:149,1,130.500000525475,10|0,1:0|0:0,0:0:0:0:
251,149,18432,1,8,0:0:0:0:
166,187,18530,2,0,L|183:50,1,130.500000525475,10|0,1:0|0:0,0:0:0:0:
475,252,18728,1,8,0:0:0:0:
400,317,18826,6,2,B|369:240|392:192|474:131|474:131|475:31|374:-23|301:69|301:69|343:103|343:165,1,566.999967676164,2|0,1:0|0:0,1:0:0:0:
512,0,19616,5,12,0:0:0:0:
0,384,21195,5,12,0:0:0:0:
0,0,22774,5,12,0:0:0:0:
512,384,24353,5,12,0:0:0:0:
0,0,25142,1,12,0:0:0:0:
173,194,25438,1,4,0:3:0:0:
174,175,25537,1,4,0:3:0:0:
309,250,25734,1,4,0:3:0:0:
310,269,25833,1,4,0:3:0:0:
310,288,25932,5,4,0:3:0:0:
172,360,26129,1,4,0:3:0:0:
173,341,26228,1,4,0:3:0:0:
173,322,26327,1,4,0:3:0:0:
173,303,26425,1,4,0:3:0:0:
173,284,26524,1,4,0:3:0:0:
307,81,26721,1,4,0:3:0:0:
308,100,26820,1,4,0:3:0:0:
308,119,26919,1,4,0:3:0:0:
308,138,27017,1,4,0:3:0:0:
308,157,27116,1,4,0:3:0:0:
86,261,27313,1,4,0:3:0:0:
86,242,27411,1,4,0:3:0:0:
86,223,27510,5,4,0:3:0:0:
394,222,27708,1,4,0:3:0:0:
394,241,27806,1,4,0:3:0:0:
394,260,27905,1,4,0:3:0:0:
204,150,28103,1,4,0:3:0:0:
205,131,28202,1,4,0:3:0:0:
205,112,28301,1,4,0:3:0:0:
205,93,28399,1,4,0:3:0:0:
205,74,28498,1,4,0:3:0:0:
259,250,28695,1,4,0:3:0:0:
259,269,28793,1,4,0:3:0:0:
259,288,28892,1,4,0:3:0:0:
260,307,28991,1,4,0:3:0:0:
260,326,29090,5,4,0:3:0:0:
290,146,29287,1,4,0:3:0:0:
290,127,29385,1,4,0:3:0:0:
290,108,29484,1,4,0:3:0:0:
175,251,29682,1,4,0:3:0:0:
175,270,29780,1,4,0:3:0:0:
175,289,29879,1,4,0:3:0:0:
176,308,29978,1,4,0:3:0:0:
176,327,30077,1,4,0:3:0:0:
347,372,30274,1,4,0:3:0:0:
347,353,30372,1,4,0:3:0:0:
347,334,30471,1,4,0:3:0:0:
348,315,30570,1,4,0:3:0:0:
348,296,30669,5,12,0:0:0:0:
257,116,31458,2,0,P|162:75|86:116,1,188.999989225388,4|0,1:2|0:0,0:0:0:0:
271,211,31754,1,4,0:3:0:0:
353,124,31853,2,0,P|342:74|305:27,1,94.499994612694,8|0,0:0|0:0,0:0:0:0:
171,172,32050,1,4,0:3:0:0:
174,190,32149,1,4,0:3:0:0:
177,207,32247,5,4,1:1:0:0:
455,352,32543,1,0,0:0:0:0:
455,352,32642,2,0,P|506:315|490:369,1,135.000001573563,4|0,0:1|0:0,0:0:0:0:
501,165,33037,1,0,1:0:0:0:
362,318,33333,1,0,0:0:0:0:
362,318,33432,2,0,P|311:355|327:301,1,135.000001573563,4|0,0:1|0:0,0:0:0:0:
256,168,33826,5,0,1:0:0:0:
156,354,34122,1,0,0:0:0:0:
156,354,34221,2,0,P|207:317|191:371,1,135.000001573563,4|0,0:1|0:0,0:0:0:0:
11,165,34616,1,0,1:0:0:0:
67,321,34912,1,0,0:0:0:0:
67,321,35011,2,0,P|16:358|32:304,1,135.000001573563,4|0,0:1|0:0,0:0:0:0:
119,104,35405,6,0,L|131:247,1,135.000001573563,4|0,1:2|0:0,0:0:0:0:
236,263,35701,1,0,0:0:0:0:
250,249,35800,2,0,L|106:256,1,135.000001573563,4|0,0:1|0:0,0:0:0:0:
347,7,36195,2,0,L|335:150,1,135.000001573563,0|0,1:0|0:0,0:0:0:0:
230,166,36491,1,0,0:0:0:0:
216,152,36590,2,0,L|360:159,1,135.000001573563,4|0,0:1|0:0,0:0:0:0:
454,251,36984,6,0,P|456:330|406:373,1,135.000001573563,0|0,1:0|0:0,0:0:0:0:
302,283,37280,1,0,0:0:0:0:
300,303,37379,2,0,L|217:289,1,67.5000007867814,4|0,0:1|0:0,0:0:0:0:
91,384,37576,2,0,L|157:372,1,67.5000007867814
197,206,37774,5,0,1:0:0:0:
197,206,38168,1,0,1:0:0:0:
197,206,38563,6,0,P|208:164|199:108,1,76.4999994325638,4|0,1:2|0:0,0:0:0:0:
1,219,38761,2,0,P|31:249|84:269,1,76.4999994325638,8|0,0:0|0:0,0:0:0:0:
92,44,38958,2,0,P|50:55|6:91,1,76.4999994325638,0|0,1:0|0:0,0:0:0:0:
101,161,39155,1,8,0:0:0:0:
101,161,39254,1,8,0:0:0:0:
10,86,39353,6,0,P|38:60|73:44,1,76.4999994325638,0|0,1:0|0:0,0:0:0:0:
80,267,39550,2,0,P|43:255|12:232,1,76.4999994325638,8|0,0:0|0:0,0:0:0:0:
200,110,39748,2,0,P|207:147|204:185,1,76.4999994325638,0|0,1:0|0:0,0:0:0:0:
101,161,39945,1,8,0:0:0:0:
101,161,40043,1,8,0:0:0:0:
184,273,40142,6,0,L|292:254,1,76.4999994325638,0|0,1:0|0:0,0:0:0:0:
378,102,40340,2,0,L|302:115,1,76.4999994325638,8|0,0:0|0:0,0:0:0:0:
364,287,40537,2,0,L|350:211,1,76.4999994325638,0|0,1:0|0:0,0:0:0:0:
193,93,40734,2,0,L|212:201,1,76.4999994325638,8|0,0:0|0:0,0:0:0:0:
335,377,40932,6,0,P|407:371|457:307,1,152.999998865128,0|8,1:0|0:0,0:0:0:0:
453,159,41228,1,4,0:3:0:0:
388,106,41326,1,4,0:3:0:0:
304,117,41425,1,4,0:3:0:0:
252,183,41524,1,4,0:3:0:0:
168,192,41622,1,4,0:3:0:0:
93,152,41721,6,0,B|117:90|34:47|34:47|-42:163|86:253,1,337.499991059303,4|0,1:2|0:0,0:0:0:0:
182,355,42116,2,0,B|223:406|302:356|302:356|239:232|98:298,1,337.499991059303,4|0,1:2|0:0,0:0:0:0:
66,355,42511,1,4,1:2:0:0:
183,198,42708,1,4,0:3:0:0:
183,198,42807,1,4,0:3:0:0:
183,198,42905,2,0,L|280:185,1,76.4999994325638,4|0,0:3|0:0,0:0:0:0:
497,298,43103,6,0,B|436:269|387:295|387:295|344:319|276:288,1,229.499998297691,4|0,1:2|0:0,0:0:0:0:
262,276,43497,1,8,0:0:0:0:
320,106,43695,2,0,B|335:76|346:48|346:48|339:131|345:247,1,229.499998297691,4|0,1:2|0:0,0:0:0:0:
190,336,44090,1,4,0:3:0:0:
173,310,44188,1,4,0:3:0:0:
166,279,44287,1,4,0:3:0:0:
173,249,44386,1,4,0:3:0:0:
224,183,44484,5,8,0:3:0:0:
228,98,44583,1,8,0:3:0:0:
164,42,44682,2,0,L|82:60,1,76.4999994325638,8|0,0:3|0:0,0:0:0:0:
0,206,44879,6,0,P|8:253|8:317,1,94.499994612694,4|0,1:2|0:0,0:0:0:0:
260,360,45076,2,0,P|261:312|269:266,1,94.499994612694,8|0,0:0|0:0,0:0:0:0:
425,155,45274,1,4,0:3:0:0:
417,182,45372,1,4,0:3:0:0:
408,209,45471,2,0,L|315:193,1,94.499994612694,4|0,0:3|0:0,0:0:0:0:
149,158,45668,6,0,P|238:153|278:67,1,188.999989225388,2|0,1:0|0:0,0:0:0:0:
135,139,45965,2,0,P|144:189|154:336,1,188.999989225388,2|0,1:0|0:0,0:0:0:0:
258,277,46261,2,0,P|256:231|241:162,1,94.499994612694,2|0,1:0|0:0,0:0:0:0:
427,96,46458,2,0,P|403:236|385:418,1,283.499983838082,2|0,1:0|0:0,0:0:0:0:
458,330,46853,6,0,P|400:299|320:328,1,134.999996423721,2|0,0:0|0:0,0:0:0:0:
265,373,47247,1,2,0:0:0:0:
242,376,47346,1,2,0:0:0:0:
219,371,47445,1,2,0:0:0:0:
200,358,47543,1,2,0:0:0:0:
252,285,47642,6,0,L|264:218,3,44.9999988079071,0|0|0|0,1:0|0:0|0:0|0:0,0:0:0:0:
228,136,48037,6,0,P|182:121|125:128,1,103.499999232292,4|0,1:2|0:0,0:0:0:0:
322,106,48234,2,0,P|311:58|277:12,1,103.499999232292,8|0,0:0|0:0,0:0:0:0:
416,132,48432,2,0,P|451:99|474:46,1,103.499999232292,0|0,1:0|0:0,0:0:0:0:
352,210,48629,1,8,0:0:0:0:
356,230,48728,1,8,0:0:0:0:
427,297,48826,6,0,P|324:263|220:279,1,206.999998464584,0|8,1:0|0:0,0:0:0:0:
103,366,49122,1,0,0:0:0:0:
121,376,49221,2,0,P|176:373|231:361,1,103.499999232292,0|0,1:0|0:0,0:0:0:0:
316,169,49418,2,0,P|261:172|206:184,1,103.499999232292,8|0,0:0|0:0,0:0:0:0:
98,285,49616,6,0,B|123:141|123:141|68:67,1,206.999998464584,0|8,1:0|0:0,0:0:0:0:
187,266,49912,1,0,0:0:0:0:
154,358,50011,2,0,P|49:363|2:277,1,206.999998464584,0|8,1:0|0:0,0:0:0:0:
34,165,50307,1,0,0:0:0:0:
121,196,50405,6,0,P|223:193|333:197,1,206.999998464584,0|8,1:0|0:0,0:0:0:0:
429,368,50701,1,0,0:0:0:0:
510,307,50800,2,0,P|395:274|334:339,1,206.999998464584,0|8,1:0|0:0,0:0:0:0:
161,325,51096,1,0,0:0:0:0:
246,384,51195,6,0,P|254:334|256:256,1,103.499999232292,0|0,1:0|0:0,0:0:0:0:
60,281,51392,2,0,P|62:332|71:384,1,103.499999232292,8|0,0:0|0:0,0:0:0:0:
336,217,51590,2,0,P|288:188|229:175,1,103.499999232292,0|0,1:0|0:0,0:0:0:0:
100,110,51787,1,8,0:0:0:0:
120,106,51886,1,8,0:0:0:0:
178,13,51984,6,0,P|162:107|154:218,1,206.999998464584,0|8,1:0|0:0,0:0:0:0:
15,39,52280,1,0,0:0:0:0:
2,55,52379,2,0,P|17:149|18:177,1,103.499999232292,0|0,1:0|0:0,0:0:0:0:
242,176,52576,2,0,P|247:124|257:73,1,103.499999232292,8|0,0:0|0:0,0:0:0:0:
220,298,52774,6,0,P|119:317|50:207,1,206.999998464584,2|8,1:0|0:0,0:0:0:0:
235,306,53070,1,8,0:0:0:0:
303,250,53168,2,0,P|404:231|473:341,1,206.999998464584,2|8,1:0|0:0,0:0:0:0:
285,238,53465,1,8,0:0:0:0:
352,136,53563,6,0,P|362:85|365:33,1,103.499999232292,2|0,1:0|0:0,0:0:0:0:
193,6,53761,1,8,0:0:0:0:
162,9,53859,1,8,0:0:0:0:
88,48,53958,5,4,0:3:0:0:
71,129,54057,1,4,0:3:0:0:
105,203,54155,1,4,0:3:0:0:
181,234,54254,1,4,0:3:0:0:
258,203,54353,5,4,1:2:0:0:
163,91,54550,1,10,0:0:0:0:
159,111,54649,1,2,0:0:0:0:
165,130,54747,1,2,1:2:0:0:
182,140,54846,1,2,0:0:0:0:
222,129,54945,5,10,0:0:0:0:
234,89,55043,1,2,0:0:0:0:
213,52,55142,1,2,1:2:0:0:
176,32,55241,1,2,0:0:0:0:
124,36,55340,5,10,0:0:0:0:
88,72,55438,1,2,0:0:0:0:
79,123,55537,1,2,1:2:0:0:
103,168,55636,1,2,0:0:0:0:
195,175,55734,6,0,L|312:159,1,103.499999232292,10|0,0:0|0:0,0:0:0:0:
419,89,55932,6,0,B|390:71|374:45|374:45|387:99|394:215,1,206.999998464584,0|8,1:0|0:0,0:0:0:0:
392,351,56228,1,0,0:0:0:0:
324,296,56326,2,0,P|430:276|474:367,1,206.999998464584,0|8,1:0|0:0,0:0:0:0:
474,165,56622,1,8,0:0:0:0:
419,89,56721,6,0,P|365:104|309:103,1,103.499999232292,0|0,1:0|0:0,0:0:0:0:
132,188,56918,2,0,P|183:188|233:203,1,103.499999232292,8|0,0:0|0:0,0:0:0:0:
298,359,57116,2,0,P|312:304|311:249,1,103.499999232292,0|0,1:0|0:0,0:0:0:0:
208,6,57313,2,0,P|208:57|222:107,1,103.499999232292,8|0,0:0|0:0,0:0:0:0:
166,284,57511,6,0,L|86:297,1,67.4999982118607,0|0,1:0|0:0,0:0:0:0:
91,308,57708,2,0,L|157:297,1,67.4999982118607,0|0,1:0|0:0,0:0:0:0:
266,199,57905,6,0,B|320:144|320:72|320:72|336:184|395:234|502:236,1,391.500001576424,2|0,1:0|0:0,0:0:0:0:
407,353,58300,6,0,L|340:342,1,67.4999982118607,0|0,1:0|0:0,0:0:0:0:
348,355,58497,2,0,L|414:365,1,67.4999982118607,0|0,1:0|0:0,0:0:0:0:
249,293,58695,6,0,B|283:160|225:30|225:30|184:98|100:93,1,391.500001576424,2|0,1:0|0:0,0:0:0:0:
170,233,59090,6,0,P|280:195|356:272,1,224.999994039536,2|0,1:0|0:0,0:0:0:0:
512,296,59386,2,0,P|402:334|326:257,1,224.999994039536,2|0,1:0|0:0,0:0:0:0:
224,99,59682,2,0,P|273:97|344:120,1,112.499997019768,2|0,1:0|0:0,0:0:0:0:
428,237,59879,6,0,P|429:78|447:-10,1,224.999994039536,2|0,1:0|0:0,0:0:0:0:
272,194,60175,1,8,0:0:0:0:
250,200,60274,1,4,0:3:0:0:
205,204,60372,1,4,0:3:0:0:
161,167,60471,1,4,0:3:0:0:
82,169,60570,1,4,0:3:0:0:
23,236,60668,6,0,P|14:284|38:349,1,103.499999232292,4|0,1:2|0:0,0:0:0:0:
184,245,60866,2,0,P|152:282|141:350,1,103.499999232292,8|0,0:0|0:0,0:0:0:0:
327,314,61063,2,0,P|280:330|234:383,1,103.499999232292,0|0,1:0|0:0,0:0:0:0:
264,192,61261,1,8,0:0:0:0:
260,172,61360,1,8,0:0:0:0:
176,104,61458,6,0,P|297:144|394:104,1,206.999998464584,0|8,1:0|0:0,0:0:0:0:
511,172,61754,1,0,0:0:0:0:
496,189,61853,2,0,P|484:241|481:320,1,103.499999232292,0|0,1:0|0:0,0:0:0:0:
338,379,62050,2,0,P|333:322|323:277,1,103.499999232292,8|0,0:0|0:0,0:0:0:0:
186,207,62247,6,0,B|102:201|35:180|35:180|63:198|92:231,1,206.999998464584,0|8,1:0|0:0,0:0:0:0:
251,95,62544,1,0,0:0:0:0:
157,118,62642,2,0,P|93:67|180:37,1,206.999998464584,0|8,1:0|0:0,0:0:0:0:
300,190,62938,1,0,0:0:0:0:
361,118,63037,6,0,P|350:202|336:338,1,206.999998464584,0|8,1:0|0:0,0:0:0:0:
157,368,63333,1,0,0:0:0:0:
83,312,63432,2,0,P|166:278|250:363,1,206.999998464584,0|8,1:0|0:0,0:0:0:0:
430,342,63728,1,0,0:0:0:0:
387,226,63826,6,0,P|331:229|273:239,1,103.499999232292,0|0,1:0|0:0,0:0:0:0:
361,118,64024,2,0,P|417:121|475:131,1,103.499999232292,8|0,0:0|0:0,0:0:0:0:
364,19,64221,2,0,P|308:22|250:32,1,103.499999232292,0|0,1:0|0:0,0:0:0:0:
181,163,64419,1,8,0:0:0:0:
186,183,64518,1,8,0:0:0:0:
170,277,64616,6,0,P|55:275|24:188,1,206.999998464584,0|8,1:0|0:0,0:0:0:0:
145,9,64912,1,4,0:3:0:0:
151,28,65011,1,4,0:3:0:0:
149,69,65109,1,4,0:3:0:0:
120,112,65208,1,8,0:0:0:0:
47,118,65307,1,8,0:0:0:0:
0,51,65405,6,0,P|12:144|24:275,1,206.999998464584,2|0,1:0|0:0,0:0:0:0:
464,48,65800,2,0,P|451:141|440:272,1,206.999998464584,2|0,1:0|0:0,0:0:0:0:
121,270,66195,6,0,P|227:281|263:367,1,206.999998464584,2|0,1:0|0:0,0:0:0:0:
116,153,66590,2,0,P|271:170|366:294,1,310.499997696877,2|0,1:0|0:0,0:0:0:0:
164,357,66985,5,4,1:2:0:0:
283,117,67182,1,10,0:0:0:0:
287,137,67281,1,2,0:0:0:0:
281,156,67379,1,2,1:2:0:0:
264,166,67478,1,2,0:0:0:0:
224,155,67577,5,10,0:0:0:0:
212,115,67675,1,10,0:0:0:0:
233,78,67774,1,10,0:0:0:0:
270,58,67873,1,10,0:0:0:0:
322,62,67972,5,10,0:0:0:0:
358,98,68070,1,2,0:0:0:0:
367,149,68169,1,2,1:2:0:0:
343,194,68268,1,2,0:0:0:0:
259,207,68366,6,0,L|156:221,1,103.499999232292,10|0,0:0|0:0,0:0:0:0:
29,62,68563,6,0,P|140:56|188:134,1,206.999998464584,0|8,1:0|0:0,0:0:0:0:
190,375,68860,1,0,0:0:0:0:
94,340,68958,2,0,P|74:224|88:129,1,206.999998464584,0|8,1:0|0:0,0:0:0:0:
249,52,69254,1,8,0:0:0:0:
316,130,69353,6,0,P|363:133|423:121,1,103.499999232292,0|0,1:0|0:0,0:0:0:0:
254,209,69550,2,0,P|293:235|351:254,1,103.499999232292,8|0,0:0|0:0,0:0:0:0:
165,261,69747,2,0,P|185:303|226:349,1,103.499999232292,0|0,1:0|0:0,0:0:0:0:
63,265,69945,2,0,P|60:312|72:371,1,103.499999232292,8|0,0:0|0:0,0:0:0:0:
19,174,70142,6,0,P|162:159|248:8,1,310.499997696877,4|0,1:2|0:0,0:0:0:0:
418,118,70537,2,0,P|266:71|112:75,1,310.499997696877,0|0,1:0|0:0,0:0:0:0:
357,200,70932,6,0,P|242:162|144:165,1,206.999998464584,0|0,1:0|0:0,0:0:0:0:
212,253,71195,2,0,P|249:255|288:274,2,68.9999994881948,0|0|0,1:0|1:0|1:0,0:0:0:0:
226,343,71524,6,0,P|249:229|264:19,1,310.499997696877,4|0,1:2|0:0,0:0:0:0:
397,117,71918,2,0,L|381:219,1,103.499999232292,8|0,0:0|0:0,0:0:0:0:
328,313,72116,6,0,P|232:243|143:282,1,206.999998464584,0|0,1:0|0:0,0:0:0:0:
52,384,72412,1,0,0:0:0:0:
35,370,72511,2,0,L|21:266,1,103.499999232292,0|8,1:0|0:0,0:0:0:0:
51,71,72708,1,4,0:3:0:0:
55,91,72807,1,4,0:3:0:0:
60,110,72905,1,4,0:3:0:0:
68,150,73004,1,4,0:3:0:0:
122,180,73103,1,4,0:3:0:0:
199,151,73201,1,4,0:3:0:0:
213,71,73300,6,0,P|205:169|202:291,1,179.999995231629,4|8,1:2|0:0,0:0:0:0:
328,226,73596,1,0,0:0:0:0:
316,240,73695,2,0,P|318:281|334:350,1,89.9999976158143,0|0,1:0|0:0,0:0:0:0:
425,198,73892,2,0,P|438:237|470:299,1,89.9999976158143,8|0,0:0|0:0,0:0:0:0:
215,85,74090,6,0,P|217:183|227:304,1,179.999995231629,0|8,1:0|0:0,0:0:0:0:
345,227,74386,1,0,0:0:0:0:
335,242,74485,2,0,P|342:283|364:349,1,89.9999976158143,0|0,1:0|0:0,0:0:0:0:
439,189,74682,2,0,P|456:227|495:285,1,89.9999976158143,8|0,0:0|0:0,0:0:0:0:
456,86,74879,6,0,P|370:63|301:132,1,179.999995231629,0|8,1:0|0:0,0:0:0:0:
239,264,75175,1,0,0:0:0:0:
226,276,75274,2,0,P|179:285|119:276,1,89.9999976158143,0|0,1:0|0:0,0:0:0:0:
116,185,75471,2,0,P|70:169|23:131,1,89.9999976158143,8|0,0:0|0:0,0:0:0:0:
41,18,75668,5,0,1:0:0:0:
222,176,75866,2,0,L|325:149,1,89.9999976158143,8|0,0:0|0:0,0:0:0:0:
507,184,76063,2,0,L|404:157,1,89.9999976158143,0|0,1:0|0:0,0:0:0:0:
350,352,76261,1,4,0:3:0:0:
350,352,76359,1,4,0:3:0:0:
350,352,76458,6,0,B|353:334|310:299|305:264|317:233|358:216|385:267|385:267|439:240|455:282|449:316|413:342|370:341|355:359,1,359.999990463257,2|8,1:0|0:0,0:0:0:0:
228,170,76754,2,0,B|228:157|190:138|170:98|181:65|214:36|250:85|250:85|297:53|326:87|322:120|301:148|246:159|241:177,1,359.999990463257,2|8,1:0|0:0,0:0:0:0:
50,259,77050,2,0,B|44:241|-9:228|-29:199|-31:166|-2:133|44:167|44:167|80:119|113:150|123:183|102:222|63:240|57:263,1,359.999990463257,2|0,1:0|0:0,0:0:0:0:
432,19,77445,6,0,P|417:61|407:115,1,89.9999976158143,8|0,0:0|0:0,0:0:0:0:
287,12,77642,2,0,P|275:55|270:109,1,89.9999976158143,0|0,1:0|0:0,0:0:0:0:
146,25,77840,2,0,P|138:68|138:123,1,89.9999976158143,8|0,0:0|0:0,0:0:0:0:
113,382,78037,6,0,B|64:233|64:233|94:160|184:208|172:285|95:289,1,359.999990463257,2|8,1:0|0:0,0:0:0:0:
255,361,78333,2,0,B|246:205|246:205|294:142|368:211|337:282|262:267,1,359.999990463257,2|8,1:0|0:0,0:0:0:0:
394,384,78629,2,0,B|426:231|426:231|489:183|542:268|494:329|425:295,1,359.999990463257,2|0,1:0|0:0,0:0:0:0:
394,384,79024,6,0,P|381:338|384:285,1,89.9999976158143,8|0,0:0|0:0,0:0:0:0:
255,361,79221,2,0,P|238:316|236:263,1,89.9999976158143,0|0,1:0|0:0,0:0:0:0:
113,382,79418,2,0,P|92:338|85:286,1,89.9999976158143,8|0,0:0|0:0,0:0:0:0:
309,167,79616,6,0,P|205:198|124:165,1,179.999995231629,0|8,1:0|0:0,0:0:0:0:
195,0,79912,1,0,0:0:0:0:
207,13,80011,2,0,P|216:49|220:129,1,89.9999976158143,0|0,1:0|0:0,0:0:0:0:
46,201,80208,2,0,P|49:156|60:112,1,89.9999976158143,8|0,0:0|0:0,0:0:0:0:
328,179,80405,6,0,P|221:200|143:160,1,179.999995231629,0|8,1:0|0:0,0:0:0:0:
228,4,80701,1,0,0:0:0:0:
239,16,80800,2,0,P|244:52|241:132,1,89.9999976158143,0|0,1:0|0:0,0:0:0:0:
63,189,80997,2,0,P|70:144|84:101,1,89.9999976158143,8|0,0:0|0:0,0:0:0:0:
405,103,81195,6,0,P|407:189|397:307,1,179.999995231629,0|8,1:0|0:0,0:0:0:0:
263,366,81491,1,0,0:0:0:0:
256,349,81590,2,0,P|215:331|151:319,1,89.9999976158143,0|0,1:0|0:0,0:0:0:0:
307,257,81787,2,0,P|280:220|231:178,1,89.9999976158143,8|0,0:0|0:0,0:0:0:0:
73,347,81984,5,0,1:0:0:0:
5,144,82182,1,4,0:3:0:0:
21,149,82280,1,4,0:3:0:0:
48,147,82379,1,4,0:3:0:0:
86,123,82478,1,4,0:3:0:0:
116,78,82576,1,4,0:3:0:0:
193,53,82675,1,4,0:3:0:0:
261,105,82774,6,0,P|333:108|435:82,1,148.500000597954,4|0,1:2|0:0,0:0:0:0:
383,114,83168,6,0,P|324:123|269:121,1,99.0000003986359,2|0,1:0|0:0,0:0:0:0:
269,347,83366,1,4,0:3:0:0:
348,343,83465,1,4,0:3:0:0:
427,336,83563,6,0,P|449:261|422:179,1,148.500000597954,4|0,1:2|0:0,0:0:0:0:
457,218,83958,6,0,P|460:273|450:315,1,99.0000003986359,2|0,1:0|0:0,0:0:0:0:
269,347,84155,1,4,0:3:0:0:
189,349,84254,1,4,0:3:0:0:
109,349,84353,6,0,P|81:270|159:271,1,179.999995231629,4|0,1:2|0:0,0:0:0:0:
305,207,84649,1,4,0:3:0:0:
314,185,84747,1,4,0:3:0:0:
316,139,84846,1,4,0:3:0:0:
298,91,84945,1,4,0:3:0:0:
235,40,85043,1,4,0:3:0:0:
148,65,85142,5,8,0:3:0:0:
154,80,85340,1,8,0:3:0:0:
160,94,85537,1,8,0:3:0:0:
165,108,85734,5,4,0:3:0:0:
161,189,85833,1,4,0:3:0:0:
147,272,85932,6,0,L|-10:258,1,148.500000597954,4|0,1:2|0:0,0:0:0:0:
20,277,86326,6,0,L|127:285,1,99.0000003986359,2|0,1:0|0:0,0:0:0:0:
512,262,86721,6,0,L|364:275,1,148.500000597954,4|0,1:2|0:0,0:0:0:0:
392,287,87116,6,0,L|490:279,1,99.0000003986359,2|0,1:0|0:0,0:0:0:0:
251,90,87511,5,8,0:0:0:0:
251,90,87708,2,0,B|188:17|101:122|119:180,1,206.999998464584,2|0,1:0|0:0,0:0:0:0:
251,90,88004,2,0,B|314:17|400:122|381:186,1,206.999998464584,2|0,1:0|0:0,0:0:0:0:
117,172,88300,2,2,B|127:278|211:244|247:319|247:319|289:250|363:288|386:160,1,413.999996929169,2|0,1:0|0:0,1:0:0:0:
