osu file format v14

[General]
AudioFilename: audio.mp3
AudioLeadIn: 0
PreviewTime: 46814
Countdown: 0
SampleSet: Normal
StackLeniency: 0.7
Mode: 1
LetterboxInBreaks: 0
WidescreenStoryboard: 0

[Editor]
DistanceSpacing: 1.3
BeatDivisor: 4
GridSize: 8
TimelineZoom: 1.7

[Metadata]
Title:Bon Appetit S (TV Size ver)
TitleUnicode:ぼなぺてぃーと♡S (TVサイズver)
Artist:Blend A
ArtistUnicode:ブレンド・A
Creator:Consified
Version:Futsuu
Source:ブレンド・S
Tags:Blend Burendo S Ace Opening Appétit 和氣あず未 Azumi Waki 鬼頭明里 Akari Kitou 春野杏 Anzu Haruno y0c1e Hifumi, Inc. こだまさおり 一ノ瀬久 二家本亮介 菊地亮太 伊藤“三代”タカシ Kodama Saori Ichinose Hisa Niiemoto Ryousuke Kikuchi Ryouta Itou "Mitsuyo" Takashi
BeatmapID:1621794
BeatmapSetID:770509

[Difficulty]
HPDrainRate:6
CircleSize:5
OverallDifficulty:4
ApproachRate:5
SliderMultiplier:1.4
SliderTickRate:1

[Events]
//Background and Video events
0,0,"bland.jpg",0,30
//Break Periods
//Storyboard Layer 0 (Background)
//Storyboard Layer 1 (Fail)
//Storyboard Layer 2 (Pass)
//Storyboard Layer 3 (Foreground)
//Storyboard Sound Samples

[TimingPoints]
630,394.736842105263,4,1,0,100,1,0
47998,-100,4,1,0,100,0,1
73261,-100,4,1,0,100,0,0

[HitObjects]
256,192,630,5,0,0:0:0:0:
288,192,1419,1,2,0:0:0:0:
232,184,1814,1,0,0:0:0:0:
232,216,2208,1,0,0:0:0:0:
256,208,2998,1,2,0:0:0:0:
240,200,3393,1,0,0:0:0:0:
264,216,3787,1,0,0:0:0:0:
232,224,4577,1,0,0:0:0:0:
256,192,4972,1,2,0:0:0:0:
304,208,5366,1,4,0:0:0:0:
304,208,5761,1,4,0:0:0:0:
304,208,6156,1,6,0:0:0:0:
376,200,6353,1,6,0:0:0:0:
280,184,6945,1,4,0:0:0:0:
288,176,7537,1,0,0:0:0:0:
296,208,7735,1,2,0:0:0:0:
296,208,8129,1,2,0:0:0:0:
288,232,8524,1,0,0:0:0:0:
320,184,8919,1,2,0:0:0:0:
248,208,9314,1,0,0:0:0:0:
248,208,9708,1,0,0:0:0:0:
248,208,10103,1,6,0:0:0:0:
472,192,10695,1,0,0:0:0:0:
296,176,10893,1,0,0:0:0:0:
296,176,11287,1,2,0:0:0:0:
264,176,11682,1,4,0:0:0:0:
264,176,12077,1,4,0:0:0:0:
264,176,12472,1,6,0:0:0:0:
264,176,12866,1,6,0:0:0:0:
320,184,13261,1,0,0:0:0:0:
344,176,13853,1,0,0:0:0:0:
344,176,14051,1,2,0:0:0:0:
408,184,14445,1,2,0:0:0:0:
352,224,14840,1,0,0:0:0:0:
352,224,15235,1,2,0:0:0:0:
336,160,15432,1,0,0:0:0:0:
352,160,15629,1,2,0:0:0:0:
256,192,16419,1,0,0:0:0:0:
256,192,16616,1,0,0:0:0:0:
248,176,16814,1,6,0:0:0:0:
272,200,17208,1,0,0:0:0:0:
272,200,17406,1,0,0:0:0:0:
272,200,17603,1,6,0:0:0:0:
256,192,18195,1,6,0:0:0:0:
256,192,18491,1,6,0:0:0:0:
256,192,18787,1,6,0:0:0:0:
280,192,19577,1,4,0:0:0:0:
272,208,20366,1,0,0:0:0:0:
272,208,20761,1,2,0:0:0:0:
272,208,21156,1,6,0:0:0:0:
264,176,21945,1,0,0:0:0:0:
272,192,22340,1,2,0:0:0:0:
328,200,22735,1,6,0:0:0:0:
288,192,23524,1,0,0:0:0:0:
288,192,23919,1,2,0:0:0:0:
288,192,24314,1,6,0:0:0:0:
336,192,25103,1,6,0:0:0:0:
280,168,25695,1,2,0:0:0:0:
280,168,25893,1,4,0:0:0:0:
320,216,26682,1,0,0:0:0:0:
320,216,27077,1,2,0:0:0:0:
296,176,27274,1,0,0:0:0:0:
320,192,27472,1,6,0:0:0:0:
248,192,28261,1,0,0:0:0:0:
240,200,28656,1,2,0:0:0:0:
336,168,28853,1,0,0:0:0:0:
296,184,29051,1,6,0:0:0:0:
392,176,29445,1,2,0:0:0:0:
288,168,29840,1,4,0:0:0:0:
384,224,30235,1,2,0:0:0:0:
288,168,30432,1,2,0:0:0:0:
280,176,30629,1,4,0:0:0:0:
280,176,31419,1,4,0:0:0:0:
360,176,31814,1,2,0:0:0:0:
360,176,32011,1,2,0:0:0:0:
304,176,32208,1,4,0:0:0:0:
272,216,32998,1,0,0:0:0:0:
272,168,33787,1,0,0:0:0:0:
376,192,34182,1,2,0:0:0:0:
376,192,34379,1,2,0:0:0:0:
304,200,34577,1,0,0:0:0:0:
312,200,34972,1,2,0:0:0:0:
304,200,35366,1,4,0:0:0:0:
416,176,36155,1,0,0:0:0:0:
344,184,36945,1,0,0:0:0:0:
272,224,37340,1,2,0:0:0:0:
264,224,37537,1,2,0:0:0:0:
304,192,37735,1,4,0:0:0:0:
312,192,38129,1,4,0:0:0:0:
280,168,38524,1,0,0:0:0:0:
272,200,39314,1,0,0:0:0:0:
272,192,40103,1,0,0:0:0:0:
272,192,40498,1,2,0:0:0:0:
272,192,40695,1,2,0:0:0:0:
264,200,40893,1,0,0:0:0:0:
368,184,41287,1,2,0:0:0:0:
368,184,41682,1,4,0:0:0:0:
408,176,42077,1,4,0:0:0:0:
288,168,42472,1,4,0:0:0:0:
288,184,42866,1,0,0:0:0:0:
280,184,43064,1,6,0:0:0:0:
280,176,43656,1,2,0:0:0:0:
320,224,44051,1,0,0:0:0:0:
296,176,44445,1,2,0:0:0:0:
256,216,44642,1,0,0:0:0:0:
240,216,44839,1,2,0:0:0:0:
296,184,45235,1,0,0:0:0:0:
296,184,45629,1,6,0:0:0:0:
240,184,45926,1,6,0:0:0:0:
296,192,46222,1,4,0:0:0:0:
296,192,46419,1,6,0:0:0:0:
272,160,47998,1,4,0:0:0:0:
272,200,48787,1,0,0:0:0:0:
272,200,49182,1,2,0:0:0:0:
248,224,49379,1,2,0:0:0:0:
256,184,49577,1,0,0:0:0:0:
248,200,49972,1,2,0:0:0:0:
304,208,50366,1,0,0:0:0:0:
304,216,50761,1,2,0:0:0:0:
304,216,51156,1,0,0:0:0:0:
224,208,51945,1,0,0:0:0:0:
288,216,52340,1,0,0:0:0:0:
288,216,52537,1,2,0:0:0:0:
304,192,52735,1,4,0:0:0:0:
304,192,53129,1,4,0:0:0:0:
304,192,53524,1,6,0:0:0:0:
304,192,53919,1,6,0:0:0:0:
312,224,54511,1,0,0:0:0:0:
312,224,54708,1,0,0:0:0:0:
296,160,55103,1,2,0:0:0:0:
264,168,55301,1,2,0:0:0:0:
296,168,55498,1,0,0:0:0:0:
296,176,55695,1,2,0:0:0:0:
240,184,56090,1,0,0:0:0:0:
240,192,56287,1,0,0:0:0:0:
280,216,56682,1,2,0:0:0:0:
280,216,56879,1,0,0:0:0:0:
272,216,57077,1,2,0:0:0:0:
272,224,57274,1,2,0:0:0:0:
216,192,57669,1,4,0:0:0:0:
216,192,57866,1,4,0:0:0:0:
256,200,58458,1,6,0:0:0:0:
256,200,58656,1,6,0:0:0:0:
352,192,59051,1,6,0:0:0:0:
352,216,59347,1,4,0:0:0:0:
352,216,59643,1,6,0:0:0:0:
352,216,59840,1,6,0:0:0:0:
352,160,60629,1,4,0:0:0:0:
248,200,61419,1,2,0:0:0:0:
248,200,61814,1,0,0:0:0:0:
248,200,62011,1,2,0:0:0:0:
312,192,62208,1,0,0:0:0:0:
320,192,62603,1,2,0:0:0:0:
264,192,62998,1,0,0:0:0:0:
320,168,63393,1,2,0:0:0:0:
320,168,63787,1,0,0:0:0:0:
368,136,64577,1,2,0:0:0:0:
272,152,64972,1,0,0:0:0:0:
272,152,65169,1,2,0:0:0:0:
280,152,65366,1,4,0:0:0:0:
280,152,65761,1,4,0:0:0:0:
288,160,66156,1,6,0:0:0:0:
296,208,66551,1,6,0:0:0:0:
288,240,67143,1,0,0:0:0:0:
288,240,67340,1,0,0:0:0:0:
368,264,67735,1,2,0:0:0:0:
384,200,67932,1,0,0:0:0:0:
384,200,68129,1,0,0:0:0:0:
384,216,68327,1,2,0:0:0:0:
312,96,68722,1,0,0:0:0:0:
352,176,68919,1,2,0:0:0:0:
344,176,69314,1,2,0:0:0:0:
344,176,69511,1,0,0:0:0:0:
344,176,69708,1,2,0:0:0:0:
344,176,69906,1,2,0:0:0:0:
296,200,70103,1,4,0:0:0:0:
296,200,70498,1,4,0:0:0:0:
320,184,70893,1,6,0:0:0:0:
320,184,71189,1,6,0:0:0:0:
312,176,71485,1,4,0:0:0:0:
280,184,72077,1,2,0:0:0:0:
280,184,72472,1,2,0:0:0:0:
288,192,72669,1,2,0:0:0:0:
288,200,72866,1,0,0:0:0:0:
280,208,73261,1,0,0:0:0:0:
296,200,74051,1,0,0:0:0:0:
296,200,74840,1,0,0:0:0:0:
368,176,75235,1,0,0:0:0:0:
368,176,75432,1,2,0:0:0:0:
368,176,75629,1,2,0:0:0:0:
296,192,76024,1,0,0:0:0:0:
304,192,76419,1,6,0:0:0:0:
304,192,76715,1,6,0:0:0:0:
304,192,77011,1,6,0:0:0:0:
408,160,77603,1,2,0:0:0:0:
408,160,77998,1,4,0:0:0:0:
408,160,78294,1,4,0:0:0:0:
408,160,78590,1,4,0:0:0:0:
384,160,79577,1,0,0:0:0:0:
328,216,80366,1,0,0:0:0:0:
408,192,81156,1,0,0:0:0:0:
408,192,81551,1,0,0:0:0:0:
408,192,81748,1,2,0:0:0:0:
408,200,81945,1,2,0:0:0:0:
424,184,82735,1,6,0:0:0:0:
296,192,83129,1,4,0:0:0:0:
288,192,83524,1,6,0:0:0:0:
288,192,83919,1,6,0:0:0:0:
272,224,84314,1,0,0:0:0:0:
208,208,84708,1,2,0:0:0:0:
304,184,84906,1,2,0:0:0:0:
272,224,85103,1,0,0:0:0:0:
272,224,85498,1,2,0:0:0:0:
272,224,85893,1,4,0:0:0:0:
304,136,86287,1,4,0:0:0:0:
304,192,86682,1,6,0:0:0:0:
304,192,87077,1,6,0:0:0:0:
304,192,87669,1,4,0:0:0:0:
304,192,87965,1,4,0:0:0:0:
304,192,88261,1,4,0:0:0:0:
